#TITLE:大見解 Core;
#SUBTITLE:;
#ARTIST:Des-ROW;
#TITLETRANSLIT:Daikenkai Core;
#SUBTITLETRANSLIT:;
#ARTISTTRANSLIT:;
#CREDIT:;
#BANNER:DaiCore.png;
#BACKGROUND:DaiCore-bg.png;
#LYRICSPATH:;
#CDTITLE:!hirdd.png;
#MUSIC:DaiCore.mp3;
#OFFSET:-0.657;
#SAMPLESTART:134.472;
#SAMPLELENGTH:22.540;
#SELECTABLE:YES;
#BPMS:0.000=143.010,160.000=141.010,164.000=142.010,168.000=142.510,170.000=143.010,172.000=144.010,188.000=143.710,192.000=143.010,318.000=172.030,320.000=174.030,322.000=174.530,324.000=175.030,336.000=174.030,347.500=173.030,384.500=172.030;
#STOPS:;
#BGCHANGES:;
// cache tags:
#FIRSTBEAT:16.000;
#LASTBEAT:520.500;
#SONGFILENAME:Songs/toune 2/DaiCore/DaiCore.sm;
#HASMUSIC:1;
#HASBANNER:1;
#MUSICLENGTH:209.538;
// end cache tags

//---------------dance-single - ----------------
#NOTES:
     dance-single:
     :
     Challenge:
     10:
     0.804,0.900,0.744,0.043,0.427,1014.000,156.000,9.000,0.000,0.000:
0000
0000
0000
0000
,
0000
0000
0000
0000
,
0000
0000
0000
0000
,
0000
0000
0000
0000
,
0010
0000
0000
0001
0100
0000
0000
1010
,
0000
1000
0010
0000
0000
1000
0010
0000
,
1001
0000
1000
0001
0000
0001
0010
0100
,
0000
1100
0000
0011
0000
0100
0010
0000
,
0200
0000
0001
0001
0001
0000
0010
0310
,
0000
0100
0010
0100
1000
0100
0010
0001
,
2000
0000
0010
0010
0010
0100
0100
3100
,
0000
0001
0010
0100
0001
0010
1000
0100
,
0020
0000
1000
1000
1000
0100
0000
0031
,
0000
0100
0010
0100
1000
0010
0001
0010
,
0100
0000
0100
0010
0100
0001
1000
0010
,
0000
0000
1000
1000
0001
0001
1001
0000
,
1001
0000
0001
0100
0010
0100
0000
0110
,
0000
0000
0010
0000
1000
0100
1000
0100
1000
0100
1000
0000
0100
0000
0000
0000
,
0110
0000
0010
0100
0001
1000
0000
1001
,
0000
0000
1000
0000
0001
0010
0001
0010
0001
0100
0010
0100
0010
0000
1000
0000
,
1001
0000
1000
0010
0100
0001
0000
0101
,
0000
0000
0100
0000
0001
1000
0001
1000
0001
1000
0001
0000
1000
0000
0000
0000
,
1010
0000
0100
0001
0100
1000
0000
1001
,
0000
0001
0101
0100
0110
0010
1010
0000
,
0001
0000
0100
0000
0010
0000
1000
0100
1000
0000
0010
0000
0110
0000
0000
0000
,
0010
0000
0100
0000
0001
0000
1000
0010
0100
0000
0001
0000
1001
0000
0000
0000
,
1000
0000
0010
0000
0100
0000
0001
0100
0010
0000
0100
0000
0010
0000
1000
0010
,
0100
0010
0110
0100
1001
0001
1000
0001
,
0100
0000
0010
0000
1000
0000
0100
1000
0010
0000
0100
0000
0101
0000
0000
0000
,
0001
0000
0100
0000
0010
0000
1000
0010
0100
0000
0010
0000
1100
0000
0000
0000
,
0010
0000
0100
0000
0001
0000
0100
0010
0001
0000
0100
0000
0010
0000
1000
0100
,
0010
1000
1010
0010
0110
0100
0001
1000
,
0001
0000
0100
0000
0001
0000
0100
0000
0010
0000
1000
0000
0010
0000
0100
0010
,
0001
1000
0100
0000
0010
0000
0100
0000
0101
0000
0000
0000
0100
0010
1000
0000
,
0010
0000
0100
0000
0001
0000
1000
0001
0100
0000
0000
0000
0010
0100
1000
0000
,
0010
0100
0001
1000
0100
0010
1000
0000
1001
0000
1000
0000
0001
0000
0000
0000
,
1000
0000
0001
0000
1000
0010
1000
0010
0100
0000
0000
0000
0010
0100
0010
1000
,
0010
0100
0001
1000
0010
0100
0010
1000
0001
0000
1000
0010
0100
0000
0000
0000
,
0101
0000
0001
0100
0010
0000
0010
0100
1000
0001
0100
0001
0100
0000
0000
0000
,
0010
1000
0000
0010
0000
0100
0001
0100
0010
0000
0100
0001
1000
0000
0001
0000
,
2001
0001
0010
0010
0001
0010
3100
1000
,
0001
0100
0010
1000
0001
0100
0010
0100
,
0002
1000
1000
0100
0100
1000
0103
1000
,
0001
0100
0010
1000
0001
0001
1000
1000
,
0001
0100
0010
0100
0010
1000
1000
0010
,
0100
0001
0100
0010
1000
0010
0001
0100
,
0010
1000
0010
0100
0001
0100
0100
0110
,
1010
0000
0110
0000
1010
0000
0011
0000
0110
0000
0100
0001
0100
0001
0100
0001
,
1000
0000
0010
0000
0100
0000
0001
0100
0010
0000
0100
0000
0110
0000
0000
0000
,
0001
0000
0100
0000
0001
1000
0010
1000
0001
1000
0010
0000
1001
0000
0000
0000
,
1000
0000
0100
0000
0010
0000
1000
0100
1000
0000
0010
0000
0100
0000
0001
0010
,
0001
0000
0100
0000
0001
1000
0001
0100
0001
1000
0001
0000
0101
0000
0010
0000
,
1000
0000
0001
0000
0010
0000
0001
0010
0100
0000
0010
0000
1100
0000
0000
0000
,
0010
0000
0100
0000
0001
1000
0100
1000
0001
1000
0010
0000
0110
0000
0000
0000
,
0010
0000
1000
0000
0010
0000
0100
0001
1000
0000
0010
0000
1000
0000
0010
0100
,
0001
0000
1000
0000
0001
1000
0001
1000
0001
0000
0100
0000
0010
0000
1000
0000
,
0001
0100
0001
0100
0010
0100
0010
0100
,
0001
0010
0001
0010
0001
0010
1000
0010
1000
0000
0110
0000
0100
0000
0000
0000
,
0001
0000
0100
0000
0001
0000
0010
0001
1000
0000
0100
0000
1000
0000
0010
0000
,
0000
0001
0100
0010
1000
0100
0010
0001
1000
0000
1001
0000
0001
0000
0100
0000
,
0010
0000
0000
0000
0100
0000
0001
0000
1000
0000
0001
0100
0010
0000
0000
0000
,
0100
0010
1000
0000
0001
0000
0100
0000
0010
0000
0100
0000
0110
0000
0000
0000
,
0001
0000
0100
0010
1000
0000
0010
0000
0100
0001
0010
0000
0100
0000
0001
0000
,
1000
0000
0001
0000
1000
0000
0001
0000
1001
0000
0001
0000
1000
0001
1000
0001
,
1010
0000
0000
0101
0000
0000
0001
0100
0001
0100
0000
0010
,
1000
0010
1000
0010
0100
0001
0100
0000
0001
1000
0000
0000
,
0001
0100
0010
1000
0010
0100
0010
1000
0010
0110
0000
0000
,
0001
0100
0001
1000
0010
0100
0001
0100
0001
1001
0000
0000
,
0001
0001
0100
0100
0010
0010
1000
1000
,
0001
1000
0001
0000
0100
0010
0100
0000
1000
0001
1000
0000
0110
0000
0000
0000
,
0001
0100
0010
0000
0100
0000
0010
0000
1000
0010
0100
0000
0001
0000
1000
0000
,
0001
0000
1000
0000
0010
0100
0000
0001
0100
0000
1000
0001
1000
0001
1000
0001
,
1010
0000
1010
0000
0101
0000
0101
0000
1000
0010
0100
0000
0001
0000
0100
0010
,
1000
0010
0100
0000
0001
0000
1000
0010
0100
0001
0100
0000
0001
0000
1000
0000
,
1001
0000
0001
0000
0100
0010
1000
0000
0010
0000
0100
0000
0001
0100
0010
0100
,
0001
0100
0010
1000
0010
0100
0001
0100
0010
0000
1010
0000
1001
0000
0000
0000
,
0100
0001
1000
0000
0100
0001
0100
0010
1000
0000
0000
0000
0001
0100
0010
0100
,
0001
0010
0100
0000
0100
0010
1000
0001
0100
0000
0000
0000
0110
0000
1001
0000
,
1000
0010
0100
0000
0001
0100
0010
1000
0001
0000
0000
0000
0100
0010
1000
0100
,
0001
0010
0100
1000
0100
0001
0100
0010
1000
0000
0000
0000
1001
0000
1001
0000
,
1002
0000
1000
1000
1000
1000
0000
0100
,
0000
0100
0010
0010
0010
0010
0013
0000
,
2001
0000
0001
0001
0001
0001
0000
0010
,
0000
0010
0010
0100
0100
0100
3100
0000
,
1000
0000
0001
0100
0010
1000
0000
1010
,
0000
0010
0100
0001
0100
0010
1000
0001
,
0100
0000
1000
0010
0100
0001
0000
0101
,
0000
0010
1000
0010
0100
0001
1000
1001
,
1001
1001
0000
0000
0101
0000
0000
0011
,
0000
0011
0000
0001
0100
0010
1000
0001
,
0000
0110
0000
0000
1010
0000
0000
1100
,
0000
1100
0000
0010
0100
0001
0100
0010
,
0000
0110
0000
0010
1000
0010
0001
0000
,
0011
0000
0010
0001
0010
0100
1000
0010
,
0001
0010
0000
0010
0100
1000
0010
0000
,
1010
0000
0010
0100
0001
1000
0001
0100
,
0000
0000
0001
0000
0100
0000
0010
0000
1000
0100
1000
0000
0010
0000
0110
0000
,
0000
0000
1000
0000
0100
0000
0010
0000
0100
0001
0010
0000
0001
0000
0011
0000
,
0000
0000
0010
0000
1000
0000
0010
0000
0100
0001
0010
0000
0001
0000
0100
0000
,
0010
1000
0100
0000
1000
0000
0110
0000
0101
0000
0011
0000
0100
0000
0001
0000
,
0000
0000
1000
0000
0010
0000
0100
0000
0001
0010
0100
0000
1000
0000
0110
0000
,
0000
0000
0001
0000
1000
0000
0010
0000
0100
0010
0001
0000
0010
0000
1001
0000
,
0000
0000
0100
0000
0010
0000
1000
0000
0010
0100
0001
0000
0010
0000
0100
0000
,
0010
1000
0100
0000
1000
0000
0011
0000
0101
0000
0110
0000
1000
0000
0010
0000
,
0000
0000
1000
0000
0001
0000
0100
0000
0010
0100
0001
0000
1000
0000
1001
0000
,
0000
0000
0010
0000
1000
0000
0010
0000
0001
0100
0010
0000
1000
0000
0110
0000
,
0000
0000
1000
0010
0100
0000
0001
0100
0010
0000
1000
0000
0001
0000
0101
0000
,
0000
0000
0010
0000
0100
0001
1000
0000
0001
0000
1010
0000
0100
0000
0010
0000
,
0000
0000
1000
0000
0010
0000
0100
0000
0001
0100
0010
0000
0100
0000
0101
0000
,
0000
0000
1000
0010
0100
0000
0001
0000
0100
0010
1000
0000
0100
0000
1100
0000
,
0000
0011
0011
1100
1100
0110
0110
1001
,
0001
0100
0010
0000
0100
0000
0010
0001
1000
0010
0001
0000
0110
0000
1001
0000
,
0000
0000
0001
0000
0100
0000
0010
0000
1000
0100
1000
0000
0010
0000
0101
0000
,
0000
0000
1000
0000
0100
0000
0010
0000
0100
0001
0100
0000
0010
0000
1100
0000
,
0000
0000
0010
0100
0001
0000
0100
0010
1000
0000
0010
0000
0100
0000
0101
0000
,
0000
0000
0010
0000
1000
0000
0010
0000
0001
0000
1001
0000
0001
1000
0001
1000
,
0001
1000
0001
0000
1000
0000
1010
0000
0010
0100
0001
0000
0100
0000
0101
0000
,
0000
0000
0010
1000
0001
0000
0100
0001
1000
0000
0101
0000
1010
0000
1001
0000
,
0000
0101
0101
1010
1010
0110
0110
1001
,
0001
0100
0010
0000
1010
0000
0100
0010
1000
0001
0110
0000
0101
0000
0011
0000
,
0000
0101
0101
1010
1010
0110
0110
1001
,
1000
0010
0100
0000
0101
0000
0010
0100
0010
1000
0011
0000
0101
0000
0110
0000
,
0000
1100
1100
0011
0011
0101
0101
1010
,
0010
0100
0001
0000
0110
0000
0010
1000
0010
0001
0110
0000
1010
0000
1100
0000
,
0000
0110
0101
0110
1010
0110
0101
0110
,
1010
0000
1000
0010
0000
0100
0000
0001
0100
0000
0101
0000
1010
0000
0110
0000
,
1001
2002
0000
0000
0000
0000
0000
0000
,
0000
0000
0000
0000
,
0000
0000
0000
0000
,
0000
0000
0000
0000
,
0000
3003
0000
0000
0000
0000
0000
0000
;

//---------------dance-single - MANIAC----------------
#NOTES:
     dance-single:
     MANIAC:
     Hard:
     8:
     0.510,0.590,0.310,0.153,0.033,651.000,65.000,32.000,0.000,0.000:
0000
0000
0000
0000
,
0000
0000
0000
0000
,
0000
0000
0000
0000
,
0000
0000
0000
0000
,
2000
0000
3020
0000
,
0130
0001
0020
0000
0000
0000
1030
0000
,
0010
0001
0100
1010
,
0000
0001
0000
1000
0000
0110
0000
0001
,
2000
0000
0000
0000
3200
0000
0000
0010
,
0000
1000
2300
0000
0000
0000
0000
0000
,
3002
0000
0000
0000
0203
0000
0000
0010
,
0000
0001
0302
0000
0000
0000
0010
0000
,
0203
0000
0000
0000
0320
0000
0000
1000
,
0000
0100
0230
0000
0000
0000
0000
0000
,
0302
0000
0000
0000
0023
0000
0000
0001
,
0000
0100
0130
0000
0110
0000
1001
0000
,
0010
0000
1000
0100
1000
0001
0000
0201
,
0000
0010
1000
0310
,
1000
0000
0001
0010
0001
0100
0000
1200
,
0000
0010
1000
0310
,
0010
1000
0100
0010
0001
0100
0000
1001
,
0000
0010
0100
1000
,
0010
0100
0001
0010
0100
1000
0000
1001
,
0000
0011
1100
0101
,
1000
0010
0100
1000
0010
0100
0001
0000
,
0010
0100
0001
0100
0010
0100
1000
0000
,
1000
0100
0001
0100
0001
0010
0100
1000
,
0001
0100
1000
0100
0101
0000
1001
0000
,
0001
0100
0010
1000
0010
0100
0001
0000
,
1000
0010
0100
0001
0100
0010
1000
0000
,
0001
0100
1000
0010
0001
0100
1000
0010
,
0001
1000
0001
0100
0110
0000
0000
0000
,
0001
0010
0100
0010
,
1000
0001
0100
1001
,
0010
0100
1000
0001
0100
0000
1001
0000
,
0001
0010
1000
0100
0001
0000
1100
0000
,
0010
1000
0100
1000
0000
0000
0001
0100
0001
0010
0000
0000
,
1000
0001
1000
0001
0000
0000
0010
0100
0010
0100
0000
0000
,
1000
0010
0100
0001
1000
0100
0010
0001
,
1000
0100
1000
0001
0010
0001
1000
0000
0000
1001
0000
0000
,
2001
0000
0010
0000
0100
0000
0000
0001
,
3002
0000
0000
0100
0100
0000
1000
0003
,
0200
0000
0010
0000
0001
0000
0000
1000
,
1300
0000
0000
0000
0000
0001
1000
0001
,
0000
0000
0100
0001
0010
0000
0001
1000
,
0010
0000
0010
1000
0100
0000
1001
0000
,
0100
1000
0010
0000
1000
0001
0010
0000
,
0010
0001
0100
0000
1001
0000
0110
0000
,
1000
0010
0100
0001
1000
0100
0010
0000
,
0010
0100
1000
0001
0100
0010
1000
0000
,
1000
0100
0001
1000
0010
1000
0001
0100
,
0010
0100
1000
0001
0001
0000
0000
0000
,
0010
0001
0100
0010
0100
0001
0010
0000
,
0100
1000
0010
0100
0010
1000
0100
0000
,
0010
0001
0100
0010
1000
0100
0010
0001
,
0100
0001
0010
1000
0010
0000
1010
0000
,
0001
0100
1000
0010
0001
0100
1000
0010
,
0001
0100
1000
0100
0001
0010
0100
0000
,
1000
0100
0001
0010
1000
0100
0001
0010
,
1000
0100
0001
0100
1000
0010
0100
0000
,
0011
0000
0010
0100
1000
0010
0100
0000
,
1010
0000
0010
0100
0001
0010
0100
0000
,
2000
0100
3100
0000
0200
0001
0301
0000
,
0002
0010
0013
0000
0020
0000
1030
0000
,
0002
1000
1000
1000
,
1000
1000
0103
0000
,
0200
0010
0010
0010
,
0010
0010
1300
0000
,
2000
0001
0001
0001
,
0001
0001
3010
0000
,
0020
0100
0100
0100
,
0100
0100
0031
0000
,
1000
0010
0100
0001
1000
0100
0001
0010
,
1000
0001
0010
0100
1000
0001
0100
1000
,
0010
0001
0100
1000
0100
0001
0010
0001
,
0100
0000
0000
0010
0000
0000
1000
0000
0000
0001
0000
0000
1000
0000
0010
0000
1000
0000
0100
0000
0000
0000
0000
0000
,
0001
0010
0100
0001
0101
0000
0000
0000
,
1000
0010
0100
1000
1100
0000
0000
0000
,
0100
0010
0001
0100
1001
0000
0100
0010
,
1000
0100
1001
0000
0100
0000
0000
0000
,
1001
0000
0001
0010
0100
0000
1000
0100
,
0000
0001
0100
1000
0010
0100
0000
0000
,
1001
0000
1000
0010
0100
0000
0001
0100
,
0000
1000
0100
0001
0010
0100
0000
0000
,
1001
0000
0001
0000
,
0100
0000
0010
0000
,
1000
0000
0100
0000
,
0110
0000
0000
0000
1010
0000
0000
1000
,
1000
2000
0000
0000
0000
0000
3000
0001
,
0001
0002
0000
0000
0000
0000
0003
0100
,
0100
0200
0000
0000
0000
0000
0300
0000
,
0010
0100
0001
0000
1000
0000
0100
0000
,
0000
1000
0000
0001
0000
1000
0000
0001
,
0000
0100
0000
0010
0000
0100
0000
0010
,
0000
1100
0000
1010
0000
1100
0000
1010
,
0000
0101
0000
0011
0000
0101
0000
0011
,
0000
1000
0010
0100
0000
0100
0001
0010
,
0000
1000
0010
0100
0010
0100
0001
0010
,
0000
1000
0001
0100
0000
1000
0001
0100
,
0000
0000
1000
0001
0100
1100
0000
0000
,
0000
0001
0010
0100
0000
0100
1000
0010
,
0000
0001
0010
0100
0010
0100
1000
0010
,
0000
0001
1000
0100
0000
0001
1000
0100
,
0000
0000
0001
1000
0100
1100
0000
0000
,
0000
0001
0100
1000
0010
0000
0001
0010
,
0000
1000
0100
0001
0010
0000
1000
0010
,
0000
0001
0100
1000
0010
0000
0001
0010
,
0000
1000
0100
0001
0010
0000
0010
1000
,
0000
1000
0010
0001
0100
0000
1000
0100
,
0000
0001
0010
1000
0100
0000
0001
0100
,
0000
1000
0010
0001
0100
0000
1000
0100
,
0000
0001
0010
1000
0100
0000
0001
0100
,
0000
1100
0000
1100
0000
1100
0000
1100
,
0000
1001
0000
1001
0000
1001
0000
1001
,
0000
1010
0000
1010
0000
1010
0000
1010
,
0000
1000
0100
0001
0010
1000
0000
0000
,
0000
0101
0000
0101
0000
0101
0000
0101
,
0000
1001
0000
1001
0000
1001
0000
1001
,
0000
0001
0100
0010
0001
0100
1000
0010
,
0001
0100
0010
0001
0100
1000
0010
0001
,
1000
0100
0010
1000
0100
0001
0010
1000
,
0100
0010
1000
0100
0001
0010
0001
0010
,
1000
0100
0010
0001
1000
0010
0100
0001
,
1000
0100
0001
0100
0010
0100
1000
0001
,
0000
0001
0010
0100
1000
0001
0100
0010
,
1000
0100
0010
0001
1000
0010
0100
0001
,
1000
2002
0000
0000
0000
0000
0000
0000
,
0000
0000
0000
0000
,
0000
0000
0000
0000
,
0000
0000
0000
0000
,
0000
3003
0000
0000
0000
0000
0000
0000
;

//---------------dance-single - TRICKY----------------
#NOTES:
     dance-single:
     TRICKY:
     Medium:
     6:
     0.368,0.497,0.296,0.067,0.000,464.000,62.000,14.000,0.000,0.000:
0000
0000
0000
0000
,
0000
0000
0000
0000
,
0000
0000
0000
0000
,
0000
0000
0000
0000
,
1000
0000
0010
0000
,
1000
0001
0100
0000
,
0001
0000
0000
0000
1000
0000
0000
0001
,
0000
0010
0000
0100
0000
1000
0001
0000
,
2000
0000
0000
0000
0010
0000
0000
3010
,
0000
0100
0010
0100
,
0002
0000
0000
0000
0100
0000
0000
0103
,
0000
0010
0100
0010
,
2000
0000
0000
0000
0010
0000
0000
3001
,
0000
0010
0100
1000
,
0002
0000
0000
0000
1000
0000
0000
0103
,
0000
0010
0100
1001
,
1001
0000
0000
0000
1000
0000
0000
0001
,
0000
1000
1000
1000
,
1001
0000
0000
0000
0001
0000
0000
1000
,
0000
0001
0001
0001
,
1001
0000
0000
0000
0100
0000
0000
0010
,
0000
0100
0100
0100
,
0110
0000
0000
0000
0100
0000
0000
0010
,
0000
0100
0010
0110
,
1000
0100
1000
0100
,
0010
0001
0010
0001
,
0010
0100
1000
0100
,
0010
0000
0001
1000
1001
0000
0000
0000
,
0001
0100
0010
1000
,
0010
1000
0001
0100
,
0001
0010
0100
1000
,
0001
0000
0100
0010
0110
0000
0000
0000
,
0001
0010
0100
1000
,
0010
0100
0001
0010
,
0100
1000
0010
0100
,
0001
0000
1000
0001
1001
0000
0000
0000
,
1000
0100
0010
0001
,
0100
0010
1000
0100
,
0010
0001
0100
0010
,
1000
0000
0001
1000
1001
0000
0000
0000
,
2000
0000
0001
0000
,
0001
0000
0001
3000
,
0002
0000
1000
0000
,
1000
0000
1000
0003
,
0001
0100
0010
0100
,
0010
1000
0100
0000
,
0100
1000
0010
0100
,
0001
0010
0100
0110
,
1000
0000
0001
0000
1000
0001
1000
0000
,
0010
0000
0100
0000
0010
0100
0010
0000
,
1000
0010
0100
0001
,
0010
0000
0100
0010
0110
0000
0000
0000
,
0010
0000
0001
0000
0100
0010
0100
0000
,
0010
0000
1000
0000
0100
0010
0100
0000
,
0010
0001
0100
1000
,
0100
0000
0010
0100
0010
0000
0000
0000
,
0001
1000
0001
1000
,
0010
0000
0100
0000
0010
0100
0000
0000
,
1000
0001
1000
0001
,
0100
0000
0010
0000
0100
0010
0000
0000
,
0001
0010
0100
1000
,
0001
0100
0010
1000
,
0001
0010
0001
0000
0010
0100
0010
0000
,
1000
0100
1000
0000
1001
0000
0000
0000
,
0002
0000
1000
0000
,
1000
0000
1003
0001
1001
0000
0000
0000
,
0200
0000
0010
0000
,
0010
0000
0000
0000
0310
0100
0110
0000
,
2000
0001
0001
0001
,
0001
0001
3001
1001
,
0020
0100
0100
0100
,
0100
0100
0130
0110
,
1000
0100
0010
0001
,
0100
0010
1000
0001
,
1001
0001
0001
1000
,
0001
0000
0100
0000
0010
0100
0110
0000
,
0001
0000
0100
0001
0100
0000
1000
0000
,
0100
0000
1000
0100
1000
0000
0001
0000
,
1000
0000
0001
1000
0001
0000
0010
0000
,
0100
0000
1000
0000
0100
0000
0010
0010
,
0010
0000
0010
0000
,
0100
0000
0100
0000
,
1000
0000
1000
0000
,
0001
0000
0001
0000
,
1001
0000
0001
0000
,
0100
0000
0010
0000
,
1000
0000
0100
0000
,
0010
0000
0000
0000
0001
0000
0000
1000
,
0000
2000
0000
0000
0100
0000
3000
0100
,
0000
0100
0000
0000
0110
0000
0000
0010
,
0000
0020
0000
0000
0001
0000
0030
0001
,
0000
0001
0000
0000
1000
0000
0001
0000
,
0000
1001
0000
1001
0000
1001
0000
1001
,
0000
0100
0000
0010
0000
0100
0000
0010
,
0000
0110
0000
0110
0000
0110
0000
0110
,
0000
0001
0000
1000
0000
0001
0000
1000
,
0000
0001
0000
1000
0000
0001
1000
0001
,
0000
0100
0000
0010
0000
0100
0010
0100
,
0000
0001
0000
1000
0000
0001
1000
0001
,
0000
0100
0010
0100
0000
0110
0000
0000
,
0000
0001
0000
0010
0000
0001
0010
0001
,
0000
0100
0000
1000
0000
0100
1000
0100
,
0000
0001
0000
0100
0000
0001
0100
0001
,
0000
1000
0010
1000
0000
1001
0000
0000
,
0000
0001
0000
1000
0000
0001
0001
0001
,
0000
0100
0000
0010
0000
0100
0100
0100
,
0000
0001
0000
1000
0000
0001
1000
0001
,
0000
0100
0010
0100
0000
1001
0000
0000
,
0000
1000
0000
0001
0000
0100
0100
0100
,
0000
0001
0000
1000
0000
0010
0010
0010
,
0000
1000
0000
0001
0000
1001
0000
0110
,
0000
0001
0000
1000
0000
0110
0000
1001
,
0000
1000
0000
0100
0000
1000
0000
0100
,
0000
0010
0000
0001
0000
0010
0000
0001
,
0000
0100
0000
0010
0000
0100
0000
0010
,
0000
1000
0000
0001
1000
1001
0000
0000
,
0000
0001
0000
0100
0000
0001
0000
0100
,
0000
0010
0000
1000
0000
0010
0000
1000
,
0000
0101
0000
0110
0000
1100
0000
0110
,
0000
0101
0000
1001
0000
1000
0001
1000
,
0000
0110
0000
0011
0000
0101
0000
1100
,
0000
0110
0000
0101
0000
0010
0100
0010
,
0000
1100
0000
0011
0000
0110
0000
1001
,
0000
0011
0000
1100
0000
1000
0001
1000
,
0000
0011
0000
1100
0000
1001
0000
0110
,
0000
1100
0000
0011
0000
1000
1000
1000
,
1000
2002
0000
0000
0000
0000
0000
0000
,
0000
0000
0000
0000
,
0000
0000
0000
0000
,
0000
0000
0000
0000
,
0000
3003
0000
0000
0000
0000
0000
0000
;

//---------------dance-single - BASIC----------------
#NOTES:
     dance-single:
     BASIC:
     Easy:
     4:
     0.217,0.311,0.052,0.072,0.000,293.000,11.000,15.000,0.000,0.000:
0000
0000
0000
0000
,
0000
0000
0000
0000
,
0000
0000
0000
0000
,
0000
0000
0000
0000
,
1000
0000
0000
0000
,
0010
0000
0000
0000
,
0100
0000
0000
0000
,
0001
1000
0001
1000
,
0002
0000
0000
0000
,
0003
0000
1000
1000
,
2000
0000
0000
0000
,
3000
0000
0010
0010
,
0020
0000
0000
0000
,
0030
0000
0100
0100
,
0200
0000
0320
0000
,
0130
0000
0000
0000
,
1001
0000
0000
0000
1000
0000
0000
0001
,
0000
0000
0000
0000
,
0110
0000
0000
0000
0010
0000
0000
0100
,
0000
0000
0000
0000
,
0011
0000
0000
0000
0010
0000
0000
0001
,
0000
0000
0000
0000
,
1100
0000
0000
0000
0100
0000
0000
1000
,
0000
0000
0000
0000
,
1000
0000
1000
1000
,
0001
0000
0001
0001
,
0100
0000
0010
0000
,
0100
0001
1000
0000
,
0100
0000
0100
0100
,
0010
0000
0010
0010
,
0001
0000
1000
0000
,
0001
0100
0001
0000
,
0001
0000
0100
0000
,
0001
0000
0100
0000
,
0010
0000
1000
0000
,
0010
0000
1000
0000
,
0001
0000
0010
0000
,
0001
0000
0010
0000
,
0100
0000
1000
0000
,
0100
0000
1000
0000
,
2000
0000
0000
0000
,
0000
0000
0000
3000
,
0002
0000
0000
0000
,
0000
0000
0000
0003
,
0001
0000
0001
0000
,
0100
0000
0100
0000
,
0010
0000
0010
0000
,
1000
0001
1000
0001
,
1000
0000
1000
1000
,
0001
0000
0001
0001
,
0100
0000
0010
0000
,
0100
0001
1001
0000
,
0100
0000
0100
0100
,
0010
0000
0010
0010
,
1000
0000
0001
0000
,
0010
0100
0110
0000
,
0001
0000
0001
0000
,
1000
0000
1000
0001
,
0100
0000
0100
0000
,
0010
0000
0010
0100
,
0001
0000
0010
0000
,
0100
0000
1000
0000
,
0001
1000
0001
1000
,
0010
0100
0010
0100
,
0002
0000
1000
0000
,
1000
0000
1003
0000
,
0200
0000
0010
0000
,
0010
0000
0310
0000
,
2000
0000
0001
0000
,
0001
0000
3001
0000
,
0020
0000
0100
0000
,
0100
0000
0130
0000
,
1000
0001
1000
0001
,
1000
0001
1000
0001
,
1001
0000
0001
0000
,
1000
0000
1000
0000
,
0010
0100
0010
0000
,
0100
0010
0100
0000
,
0001
1000
0001
0000
,
1000
0001
1000
0000
,
0001
0000
0000
0000
,
1000
0000
0000
0000
,
0001
0000
0000
0000
,
1000
0000
0000
0000
,
0001
0000
0001
0000
,
0100
0000
0100
0000
,
0010
0000
0010
0000
,
1000
0000
1000
0000
,
0000
2000
0000
0000
0000
0000
0000
3000
,
0000
0000
0000
0000
,
0000
0002
0000
0000
0000
0000
0000
0003
,
0000
0000
0000
0000
,
0000
1000
0000
0000
0000
1000
0000
0000
,
0000
1000
0000
0000
0000
1000
0000
0000
,
0000
0001
0000
0000
0000
0001
0000
0000
,
0000
0001
0000
0000
0000
0001
0000
0000
,
0000
1000
0000
0001
0000
1000
0000
0001
,
0000
0100
0000
0010
0000
0100
0000
0010
,
0000
1000
0000
0001
0000
0100
0000
0010
,
0000
1000
0000
0001
0000
1001
0000
0000
,
0000
1000
0000
0010
0000
1000
0000
0010
,
0000
0100
0000
0001
0000
0100
0000
0001
,
0000
0010
0000
0001
0000
0010
0000
0001
,
0000
0010
0000
0100
0000
0110
0000
0000
,
0000
0001
0000
0000
0000
0001
0000
0000
,
0000
1000
0000
0000
0000
1000
0000
0000
,
0000
0010
0000
0010
0000
0010
0000
0000
,
0000
0100
0000
0100
0000
0100
0000
0000
,
0000
1000
0000
0000
0000
1000
0000
0000
,
0000
0001
0000
0000
0000
0001
0000
0000
,
0000
1000
0000
0001
0000
1000
0000
0001
,
0000
0100
0000
0010
0000
0100
0000
0010
,
0000
1000
0000
0000
0000
1000
0000
1000
,
0000
0001
0000
0000
0000
0001
0000
0001
,
0000
0010
0000
0000
0000
0010
0000
0010
,
0000
0100
0000
0100
0000
0110
0000
0000
,
0000
0001
0000
0000
0000
0001
0000
0001
,
0000
1000
0000
0000
0000
1000
0000
1000
,
0000
0001
0000
1000
0000
0001
0000
1000
,
0000
0001
0000
1000
0000
0001
1000
0001
,
0000
0100
0000
0010
0000
0100
0000
0010
,
0000
0100
0000
0010
0000
0100
0010
0100
,
0000
1000
0000
0010
0000
1000
0000
0010
,
0000
1000
0000
0010
0000
1000
0010
1000
,
0000
0001
0000
0100
0000
0001
0000
0100
,
0000
0001
0000
0010
0000
0100
0000
1000
,
0000
2002
0000
0000
0000
0000
0000
0000
,
0000
0000
0000
0000
,
0000
0000
0000
0000
,
0000
0000
0000
0000
,
0000
3003
0000
0000
0000
0000
0000
0000
;
