#TITLE:PARANOIA survivor;
#SUBTITLE:~BPM Mix'd;
#ARTIST:270 meats DoNotPassGo;
#TITLETRANSLIT:;
#SUBTITLETRANSLIT:;
#ARTISTTRANSLIT:;
#CREDIT:;
#BANNER:PARANOIA survivor BPM-banner.png;
#BACKGROUND:PARANOIA survivor BPM-bg.png;
#LYRICSPATH:;
#CDTITLE:;
#MUSIC:PARANOIA survivor BPM.mp3;
#OFFSET:-0.140;
#SAMPLESTART:23.251;
#SAMPLELENGTH:12.000;
#SELECTABLE:YES;
#BPMS:0.000=67.750,9.000=270.000,11.000=135.000,11.500=270.000,16.500=540.001,20.500=270.000,24.500=135.000,25.000=270.000,26.000=540.000,28.000=135.000,28.500=270.000,29.000=540.000,31.000=270.000,32.000=135.000,32.500=270.000,39.000=540.000,41.000=270.000,68.000=135.000,70.000=67.500,71.000=270.000,83.000=540.000,87.000=135.000,87.500=270.000,92.500=540.000,96.500=135.000,97.000=270.000,105.000=1080.002,109.000=270.005,114.000=135.003,115.000=270.005,121.000=540.010,125.000=270.005,131.000=540.010,132.000=270.005,133.000=540.010,134.000=270.005,135.000=135.000,136.000=67.500,137.000=135.000,138.000=270.000,147.000=135.000,147.500=270.000,148.500=540.000,150.500=270.000,151.500=135.000,152.000=270.000,160.000=67.500,160.500=135.000,161.000=270.000,163.000=67.500,163.500=135.000,164.000=270.000,171.500=135.000,172.000=270.000,179.500=135.000,180.000=270.000,189.000=2160.000,197.000=270.000,220.000=540.000,224.000=270.000,230.000=135.000,231.000=270.000,244.000=135.000,245.000=67.500,246.000=33.750,246.250=230.000,247.000=270.000,256.000=135.000,256.500=270.000,261.000=135.000,261.500=270.000,263.000=540.000,265.000=270.000,267.000=540.000,269.000=270.000,271.000=540.000,273.000=135.000,274.000=540.000,276.000=270.000,277.000=540.000,279.000=135.000,279.500=540.000,281.500=135.000,282.000=270.000,294.000=135.000,296.000=270.000,301.000=540.000,303.000=135.000,303.500=270.000,307.000=135.000,307.500=270.000,311.000=1080.000,315.000=270.004,331.000=135.002,339.000=270.004,355.000=540.008,383.000=1080.026,389.000=33.741,389.188=1999.991,413.167=0.904,413.188=1080.016;
#STOPS:;
#BGCHANGES:;
// cache tags:
#FIRSTBEAT:9.000;
#LASTBEAT:413.188;
#SONGFILENAME:Songs/keyboard/Paranoia Survivor BPM/PARANOIA survivor BPM.sm;
#HASMUSIC:1;
#HASBANNER:1;
#MUSICLENGTH:94.388;
// end cache tags

//---------------dance-single - ----------------
#NOTES:
     dance-single:
     :
     Beginner:
     3:
     0.180,0.301,0.170,0.000,0.021,103.000,16.000,0.000,0.000,0.000:
0000
0000
0000
0000
,
0000
0000
0000
0000
,
0000
0010
0000
0000
,
0000
0001
0000
0000
0000
0000
0000
0000
,
0000
1000
0000
0000
0000
0000
0000
0000
,
0000
0000
0000
0000
0000
0100
0000
0000
,
0000
0000
1000
0000
,
0000
0000
0000
0000
0000
0000
0000
1000
,
0000
0000
0000
0001
,
0000
0000
0000
0001
,
0000
0000
0000
0000
,
1001
0000
0000
0000
,
0100
0000
0000
0000
,
0010
0000
0000
0000
,
0100
0000
0000
0000
,
1001
0000
0000
0000
,
0010
0000
0000
0000
,
0110
0000
0110
0010
,
0000
0000
0000
0100
,
0000
0000
0000
1000
,
0000
0000
0000
0001
,
0000
0000
0000
0000
,
0000
1000
0000
0000
0000
0000
0000
0000
,
0000
0001
0000
0000
0000
0000
0000
0000
,
0000
0000
1000
0000
,
0000
0000
0001
0000
,
0000
0000
0000
0000
,
0000
0110
0000
0000
,
0000
0100
0000
0000
,
0110
0000
0000
0000
,
0010
0000
0000
0000
,
0000
0000
1001
0000
,
0000
0000
0100
0000
,
0000
0000
0000
0010
,
0000
0010
0000
0000
0110
0000
0000
0000
,
0000
0000
1000
0000
,
0000
0000
0001
0000
,
0000
0000
0000
0000
0000
1000
0000
0000
,
0000
0000
0001
0000
,
0000
0000
1000
0000
,
0100
0000
0100
0000
,
0110
0000
0000
1000
,
0000
0000
0000
0001
,
0000
0000
0000
0000
0000
1000
0000
0000
,
0000
0000
0000
0000
0000
0001
0000
0000
,
0000
0000
1000
0000
,
0000
0001
0000
0000
,
0000
0110
0000
0000
,
0000
0000
0000
0000
,
0000
0000
0000
0000
,
0010
0000
0000
0000
,
0100
0000
0000
0000
,
0001
0000
0000
0000
,
1000
0000
0000
0000
,
0010
0000
0000
0000
,
0100
0000
0000
0000
,
0000
0000
0001
0000
,
0000
0000
1000
0000
,
0000
0100
0000
0000
,
0000
0010
0000
0000
,
0000
0001
0000
0000
,
0000
0110
0000
0000
0000
0000
0000
0000
0000
0001
0000
0000
0000
0000
0000
0000
,
0000
0000
0001
0000
,
0000
0000
1000
0000
,
0000
0000
0000
1000
0000
0000
0000
0000
,
0000
0000
0000
0000
0000
0110
0000
0000
0000
0000
0000
0000
0000
0000
0000
0000
,
0000
0000
0100
0000
,
0000
0000
0000
0100
,
0000
0000
0000
0000
,
0010
0000
0000
0000
,
0000
0000
0000
0110
0000
0000
0000
0000
,
0000
0010
0000
0000
,
0000
0010
0000
0000
,
0000
0000
0100
0000
0000
0000
0000
1001
,
0000
0000
0000
0001
,
0000
0000
0000
0000
0000
0000
0000
1000
,
0000
0000
0000
0000
0000
0000
0000
0000
0000
0000
0000
0000
0000
0001
0000
0000
,
0000
1000
0000
1001
,
0000
0000
0000
0000
,
0000
0000
0100
0000
,
0010
0000
0100
0000
,
0000
0000
0100
0000
,
0010
0000
1000
0000
,
0000
0000
1000
0000
,
0001
0000
0001
0000
,
0000
0000
0001
0000
,
1000
0000
0100
0000
,
0000
0000
0100
0000
,
0001
0000
0010
0000
,
0000
0000
0010
0000
,
1000
0000
0100
0000
,
0000
0000
0001
0000
,
1000
0000
0100
0000
,
0100
0000
0100
0000
,
0100
0000
0000
1001
;

//---------------dance-single - ----------------
#NOTES:
     dance-single:
     :
     Easy:
     5:
     0.369,0.612,0.085,0.032,0.053,233.000,8.000,3.000,0.000,0.000:
0000
0000
0000
0000
,
0000
0000
0000
0000
,
0000
0010
1000
0010
,
0000
0001
0000
0000
0000
0100
0000
0000
,
0000
1000
0000
0000
0000
0000
0000
0000
,
0000
0010
0000
0000
0000
0001
0000
0000
,
0000
0100
0010
0000
0000
0000
1000
0000
,
0000
1000
0000
0000
0000
0000
0001
0000
,
0000
0001
0000
0000
0000
0000
0000
0000
0100
0000
0000
0000
0010
0000
0000
0000
,
0000
1000
0000
0001
,
0000
0000
0000
0100
,
0010
1000
0010
0000
,
0100
0000
0000
0001
,
0100
0000
0010
0000
,
1000
0000
1000
0100
,
1000
0001
1000
0000
,
0010
0000
0000
0100
,
0001
0000
0000
0000
0000
0000
0000
0000
0001
0000
0000
0000
0000
0000
0000
0000
0000
1000
0000
0000
0000
1000
0000
0000
0100
0000
0000
0000
0000
0000
0000
0000
,
0010
0001
0000
1000
,
0000
1000
0000
0100
,
0010
1000
0000
0001
,
0000
0000
0000
0001
,
0000
0100
0000
0010
0000
0100
0000
0000
,
0000
1000
0000
0000
0000
0000
0000
0000
,
0000
1000
0000
0000
0001
0000
0000
0000
,
0001
0000
0100
0010
,
0000
1001
0000
0000
,
0000
1000
0001
1000
,
0000
0100
0010
1001
,
0001
1000
0001
0000
,
0100
0010
0000
0000
,
0000
1001
1000
0100
,
0010
0000
0001
1000
,
0000
1000
0000
0100
,
0000
0000
0010
0000
0000
1000
0000
0000
0000
0000
0000
0000
0000
0000
0000
0000
1000
0000
0000
0000
0000
0000
0000
0000
0100
0000
0000
0000
0000
0000
0000
0000
,
0000
0001
0100
0000
,
1000
0000
0010
0000
0000
0000
0001
0010
,
0000
0000
0000
0000
0000
1000
0000
0001
,
0000
0001
1000
0000
,
0100
0010
0000
0001
,
0101
0000
1010
0000
0000
0000
0000
0000
1100
0000
0000
0000
0000
0011
0000
0000
,
0001
0100
0000
1000
,
0100
0000
1000
0010
,
0000
0001
0000
0010
0000
0000
0000
1000
,
0000
0100
0000
0000
0000
1000
0000
0010
,
0000
0001
0100
0000
,
0001
0010
0000
1000
,
0100
1000
0000
0000
,
0000
0000
0000
0000
,
0000
0000
0001
0010
,
0001
0000
0100
0001
,
0100
0000
0010
1000
,
0010
0000
1000
0001
,
1000
0000
0100
0010
,
0100
0000
0010
0001
,
1000
0000
0000
0000
,
0100
0100
0000
0010
,
0010
0000
0000
0000
0001
0001
0000
0000
,
1000
1000
0000
0010
,
0010
0000
0100
0100
,
0000
0001
1000
0000
,
0020
0000
0000
0000
0000
0000
0000
0000
0000
0000
0000
0000
0000
0000
0000
0000
0000
0030
0001
0000
0000
0000
0000
0000
0100
0000
0000
0000
0000
0000
0000
0000
,
0001
0000
1000
0000
,
1000
0000
0100
0000
,
0100
0010
0000
0001
0000
0000
0000
1000
,
0000
0000
0001
0000
0000
1000
0000
0000
0000
0000
0000
0000
0010
0000
0000
0000
,
0000
0000
0010
0000
,
0000
0100
0000
0001
,
0000
0000
0100
0001
0000
0000
0000
0000
,
1000
0000
0000
0000
0000
0000
0000
0001
,
0000
0000
0000
1000
0100
0000
1000
0000
,
0000
0001
0000
0001
,
0100
0000
0010
0000
,
1000
0000
0000
0000
0100
0000
0000
0000
0000
0000
0001
0000
0010
0000
0000
0001
,
0000
0000
1000
0000
0000
0001
0000
0000
,
0100
0000
0001
0000
,
0100
0000
0000
0000
0010
0000
0000
0000
0100
0000
0000
0000
0000
0001
0000
0000
,
0000
1000
0001
1000
,
0000
0000
0000
0100
,
0000
0001
0000
0001
,
0000
1000
0001
0100
,
0000
1000
0000
1000
,
0000
0001
1000
0010
,
0000
0001
0000
0001
,
0000
1000
0001
0010
,
0000
1000
0000
1000
,
0000
0001
1000
0100
,
0000
0001
0000
0001
,
0000
1000
0001
0100
,
0000
1000
0000
1000
,
0000
0001
1000
0010
,
0000
0001
0000
0001
,
0000
0000
1000
0000
0010
0000
0000
0010
,
0000
0000
0100
0000
0000
0100
0000
0000
,
0000
0001
0000
2002
,
0000
0000
0000
0000
,
0000
3003
0000
0000
;

//---------------dance-single - ----------------
#NOTES:
     dance-single:
     :
     Medium:
     8:
     0.533,0.663,0.095,0.032,0.095,340.000,9.000,3.000,0.000,0.000:
0000
0000
0000
0000
,
0000
0000
0000
0000
,
0000
0000
1000
0000
0100
0000
0001
0100
,
0000
1000
0000
0010
0000
0100
0000
0001
,
0000
0100
0000
0000
0000
0010
0000
0000
,
0000
1000
0000
0001
0000
0100
0000
0001
,
0000
0000
0000
1000
0100
0000
0000
0000
0000
0000
0000
0000
0001
0000
0000
0000
,
0000
0001
0000
0000
0000
0000
1000
0000
,
0000
1000
0000
0000
0100
0000
0000
0000
0010
0000
0000
0000
0001
0000
0000
0000
,
1000
0100
0000
0001
,
0000
0000
0000
1001
,
0100
0010
0100
0001
,
1000
0000
0100
0000
0000
0010
0100
0000
,
0010
0001
0100
0010
,
1000
0000
0001
0000
0000
0100
0010
0000
,
1000
0100
0010
0001
,
0100
0000
0010
0000
0000
1000
0100
0000
,
1100
0000
0000
0000
0000
0000
0000
0000
0101
0000
0000
0000
0000
0000
0000
0000
0000
0100
0000
0000
0000
0100
0000
0000
0010
0000
0000
0000
0000
0000
0000
0000
,
1000
0010
0001
0010
,
1000
0100
1000
0010
,
0100
0001
1000
0100
,
0000
0000
0010
0000
0000
0000
0001
1000
,
0000
0100
0000
0001
0000
0100
0000
1000
,
0000
0001
0000
0000
0000
0100
0000
0000
,
0000
0010
1000
0000
0100
0000
0010
0000
,
0000
0001
1000
0000
0010
0000
1000
0100
,
0000
0010
0000
0000
,
0000
0001
1000
0001
,
0100
0000
0000
0000
0000
0000
0010
0000
0000
1000
0000
0100
0010
0000
0000
0000
,
0001
1000
0001
0010
,
0000
0100
0000
0000
1000
0000
0000
0000
,
0010
0100
0001
1000
,
0001
0000
0100
0000
0000
0010
0000
0000
,
1000
0000
0100
0000
0000
0000
1000
1000
,
0000
0000
0001
0000
0000
0001
0000
0000
0000
0000
0000
0000
0100
0000
0000
0000
0010
0000
0000
0000
0000
0000
0000
0000
1000
0000
0000
0000
0000
0000
0000
0000
,
0010
1000
0001
0100
,
0001
0000
0100
0000
0010
0000
1000
0100
,
0000
1000
0000
0000
0000
0100
0000
0010
,
0001
0010
0001
0100
,
0010
1000
0010
1000
,
1010
0000
0110
0000
0000
0000
0000
0000
0101
0000
0000
0000
0000
1001
0000
0000
,
1000
0000
0100
0000
0000
0010
0000
0001
,
0100
0000
0000
0000
0010
0000
0000
0000
1000
0000
0100
0000
0000
0000
0000
0010
,
0001
0000
0000
0001
0100
0000
0000
0010
,
1000
0000
0000
0000
0100
0000
0000
0000
0010
0000
0001
0000
0000
0000
0000
0001
,
0100
0000
0000
0100
0010
0000
0000
0010
,
1000
0000
0001
0000
0100
0010
0000
0000
,
1000
1000
0000
0000
,
0000
0000
0000
0000
,
0000
0100
1000
0001
,
0010
0001
0010
0100
,
1000
0001
0100
0010
,
1000
0001
0100
0010
,
1000
0001
0010
0100
,
1000
0010
0100
0001
,
0000
1000
0000
0001
,
0000
0100
0010
0000
0000
1000
0000
0001
,
0000
0000
0010
0000
0100
0000
0000
0000
0010
0001
0000
0000
1000
0000
0000
0000
,
0001
0100
0000
0000
0001
0000
1000
0100
,
0000
0000
0010
0000
0001
0100
0000
0000
,
0010
0000
1000
0001
1000
0000
0100
0000
,
0020
0000
0000
0000
0000
0000
0000
0000
0000
0000
0000
0000
0000
0000
0000
0000
0000
0030
0001
0000
0000
0000
0000
0000
0100
0000
0000
0000
0000
0000
0000
0000
,
1000
0100
0001
0100
,
1000
0100
0001
0010
,
0000
0001
1000
0000
0000
0000
0100
0000
0000
0000
0100
0000
0000
0000
1000
0000
,
0000
0000
0010
0000
0000
1000
0000
0000
0000
0000
0001
0000
0000
0000
0000
0000
,
0100
0000
0010
0000
,
0100
0000
0001
1000
,
0100
0000
0000
0000
1000
0000
1000
0001
1000
0000
0000
0000
0000
0000
0000
0000
,
0010
0000
0000
0000
0000
0000
0000
1001
,
0000
0000
0000
1000
0100
0000
0010
0000
,
0001
1000
0010
0100
,
0001
0000
1000
0000
0100
0000
0000
0010
,
0001
0000
0000
0000
0100
0000
0000
0000
0010
0000
1000
0000
0010
0000
0100
0001
,
0000
0000
0001
0000
0000
1000
0000
0000
,
1000
0000
0100
0000
,
0010
0000
0000
0000
0010
0000
0000
0000
0010
0000
0001
0000
0000
1000
0000
0000
,
0100
1000
0001
1000
,
0000
0100
0000
0000
,
0010
0010
0001
0100
,
0001
0000
1000
0000
0001
0100
0000
0000
,
0010
0010
1000
0100
,
1000
0000
0001
0000
1000
0010
0000
0000
,
0100
0100
0001
0010
,
0001
0000
1000
0000
0001
0010
0000
0000
,
0100
0100
1000
0010
,
1000
0000
0001
0000
1000
0100
0000
0000
,
0010
0010
0001
0100
,
1000
0000
0100
0000
0001
0100
0000
0000
,
0010
0010
1000
0100
,
0001
0000
0100
0000
1000
0010
0000
0000
,
0100
0100
0001
0010
,
1000
0000
0010
0000
0001
0000
0000
0001
,
0000
0000
1000
0000
0000
1000
0000
0000
,
0010
0100
0000
2002
,
0000
0000
0000
0000
,
0000
3003
0000
0000
;

//---------------dance-single - ----------------
#NOTES:
     dance-single:
     :
     Hard:
     10:
     0.807,1.000,0.201,0.053,0.244,509.000,19.000,5.000,0.000,0.000:
0000
0000
0000
0000
,
0000
0000
0000
0000
,
0000
0000
1000
0100
1000
0000
0010
0010
,
0000
1000
0100
1000
0001
0010
0000
0010
,
0000
0001
0000
0100
0000
0010
0000
1000
,
0000
0100
0000
0001
0000
1000
0000
0100
,
0000
0000
1000
0001
0010
0000
0000
0000
1000
0000
0000
0000
0100
0000
0000
0000
,
0000
0001
0100
0000
0000
0000
0000
0000
1000
0000
0000
0000
0100
0000
0000
0000
,
0001
0100
0000
0000
0010
0000
1000
0000
0001
0000
0000
0000
1000
0000
0000
0000
,
0100
0000
0001
0010
0100
1000
0000
0000
,
0000
0000
0010
0001
,
0010
0001
1000
0001
0010
0000
0100
0000
,
1000
0000
1000
0000
0000
0001
0100
0000
,
0010
1000
0001
1000
0010
0000
0100
0000
,
0001
0000
0001
0000
0000
1000
0100
0000
,
0010
0001
0001
1000
,
1000
0000
0010
0000
0000
0010
0100
0010
,
1000
0000
0001
0000
0000
0000
0000
0000
0001
0000
1000
0000
0000
0000
0000
0000
0000
0100
0000
0100
0000
0010
0000
0010
0001
0000
0000
0000
0100
0000
0000
0000
,
0001
0100
0010
0000
0010
0000
1000
0100
,
1000
0000
0001
0000
0001
1000
0100
0010
,
0001
0000
0001
0100
0010
0000
1000
0000
,
0100
0000
0000
0000
0010
0000
0000
0000
0100
0000
0000
0000
0000
1000
0001
0000
,
0000
0100
0010
1000
0000
0100
0010
0001
,
0000
1000
0000
0010
0000
0100
0000
0001
,
0000
0000
0000
0001
0100
0000
0000
0000
0010
0000
0000
0000
1000
0000
0100
0000
,
0000
0010
0001
1000
0010
0000
0100
0001
,
0000
0100
0000
0000
,
0000
0000
0010
1000
0010
0000
0100
0001
,
0100
0000
0000
0000
0001
0000
0000
0000
1000
0010
0000
0100
0001
0000
0000
0000
,
0010
0001
0010
0000
0100
1000
0100
0000
,
1000
0001
0100
0000
,
0010
0000
1000
0000
1000
0001
1000
0000
,
0001
1000
0001
0000
0100
0000
0100
0000
,
0010
0000
0000
0000
0010
0000
0000
0000
0000
0000
0000
0000
1000
0100
1000
0100
,
0000
0000
0010
0001
0000
0001
0010
0000
0000
0000
0000
0000
0110
0000
0000
0000
1000
0000
0000
0000
0001
0000
0000
0000
1000
0000
0000
0000
0100
0000
0000
0000
,
0010
0000
0010
0000
0001
0000
0100
0010
,
1000
0000
0100
0000
0010
0000
0001
0000
1000
0000
0000
0000
0100
0010
0100
0000
,
0000
0000
0010
0000
0000
0000
0001
0000
0000
0000
0010
0000
0000
0000
0100
1000
,
0100
0000
0010
0001
0100
0010
1000
0000
,
0001
1000
0001
0000
0010
0100
0010
0000
,
1001
0000
0110
0000
0000
0000
0000
0000
1001
0000
0000
0000
0000
0110
0000
0000
,
1000
0100
1000
0100
0000
0010
0001
0010
,
0100
0000
0010
0000
0000
0000
0001
0000
0100
0000
0001
0000
0000
0000
0010
0100
,
0010
0000
0100
1000
0100
0000
1000
0100
,
1000
0000
0001
0000
0000
0000
1000
0000
0100
0000
0010
0000
0000
0000
0001
0100
,
0010
0000
1000
0100
0010
0000
0001
0100
,
0010
1000
0100
0000
0010
0001
0010
0001
,
1000
0010
0000
0000
,
0000
0000
0000
0000
,
0000
0000
0100
0001
0100
0001
1000
0000
,
0010
0000
0100
0001
0100
0001
1000
0000
,
0100
0000
0010
0001
0010
0001
1000
0000
,
0010
0000
0100
0001
0100
0010
1000
0000
,
0100
0000
0010
0001
0010
0100
1000
0000
,
0100
0000
0010
0001
1000
0100
0010
0000
,
0001
0100
0001
0100
,
0000
0010
1000
0000
1000
0100
1000
0100
,
0000
0000
0010
0000
0001
0000
0000
0000
0001
0100
0001
0100
0010
0000
0000
0000
,
1000
0100
0010
0001
0010
0000
0100
1000
,
0100
0010
0001
0000
0100
0010
1000
0100
,
0010
0000
0001
0100
0010
1000
0100
0000
,
0002
2000
0000
0000
0000
0000
0000
0000
0000
3003
0000
0000
1000
0000
0100
0000
,
1000
0000
0001
0000
0001
0000
0001
0100
,
0001
0000
1000
0100
1000
0000
0001
0010
,
0001
0000
1000
0010
0000
1100
0000
0011
,
0000
0000
0100
0000
0000
0110
0000
0000
0010
0000
0001
0000
0000
0000
0000
0000
,
0001
0000
1000
0000
1000
0100
0000
0000
,
0100
0010
0001
1000
,
0000
0000
1100
0110
0011
0000
0000
0000
,
1001
0200
0000
0000
,
0000
0000
0000
0300
0001
0100
0001
0000
,
1000
1000
0001
0001
,
1000
0010
1000
0000
0010
0100
0010
0000
,
0000
1000
0100
0000
1100
0110
0011
1001
,
1000
0001
0000
0001
0100
0000
0100
0010
,
0000
0000
0010
0000
1000
0000
0000
0000
0000
0000
0000
0000
0000
0001
0000
0000
,
0000
0000
0000
0000
0100
0000
0000
0000
0100
0000
0000
0000
0100
0010
0000
0000
,
1000
1001
0001
1001
,
0000
0000
0000
0000
0000
0000
1000
0100
,
1000
0100
0001
0100
0001
0100
0010
0001
,
1000
0100
0000
1000
0010
0100
0001
0100
,
0001
0100
1000
0100
1000
0100
0010
1000
,
0100
0000
0010
0000
0001
0000
1000
0000
0001
0000
0000
0000
1000
0010
1000
0010
,
0001
0010
0001
0010
0100
0001
1000
0010
0000
1000
0100
0010
0001
0010
0001
0010
,
1000
0010
1000
0010
0100
1000
0010
0100
0001
1000
0001
0000
0001
0000
0100
0000
,
0010
0100
1000
0100
0010
0100
0001
1000
,
0010
0100
0000
0001
0010
0100
1000
0100
,
0010
0100
0001
0100
0010
0100
1000
0001
,
0100
0010
1000
0001
1000
0000
0001
0000
,
0010
0001
0100
0010
,
1000
0010
0100
0001
,
1000
0001
0010
0100
,
1000
0100
0010
0001
,
0100
0000
1000
0100
,
0000
0001
0010
0000
,
1000
0010
0000
0001
,
0000
0100
0000
0010
,
0000
0000
0000
0000
0000
0000
0000
0000
0000
0000
0000
0000
0000
0000
0000
0000
1000
0000
0000
2002
0000
0000
0000
0000
0000
0000
0000
0000
0000
0000
0000
0000
0000
0000
0000
0000
0000
0000
0000
0000
0000
0000
0000
0000
0000
0000
0000
0000
0000
0000
0000
0000
0000
0000
0000
0000
0000
0000
0000
0000
0000
0000
0000
0000
,
0000
0000
0000
0000
,
0000
0000
0000
0000
,
0000
0000
0000
0000
,
0000
0000
0000
0000
,
0000
0000
0000
0000
,
0000
0000
0000
0000
0000
0000
0000
0000
0000
0000
0000
0000
0000
0000
0000
0000
0000
0000
0000
3003
0000
0000
0000
0000
0000
0000
0000
0000
0000
0000
0000
0000
0000
0000
0000
0000
0000
0000
0000
0000
0000
0000
0000
0000
0000
0000
0000
0000
0000
0000
0000
0000
0000
0000
0000
0000
0000
0000
0000
0000
0000
0000
0000
0000
;

//---------------dance-double - ----------------
#NOTES:
     dance-double:
     :
     Easy:
     6:
     0.359,0.408,0.011,0.032,0.053,233.000,1.000,3.000,0.000,0.000:
00000000
00000000
00000000
00000000
,
00000000
00000000
00000000
00000000
,
00000000
00100000
01000000
00010000
,
00000000
10000000
00000000
00000000
00000000
01000000
00000000
00000000
,
00000000
00010000
00000000
00000000
00000000
00000000
00000000
00000000
,
00000000
00001000
00000000
00000000
00000000
00000010
00000000
00000000
,
00000000
00000001
00001000
00000000
00000000
00000000
00000010
00000000
,
00000000
00010000
00000000
00000000
00000000
00000000
00001000
00000000
,
00000000
01000000
00000000
00000000
00000000
00000000
00000000
00000000
00100000
00000000
00000000
00000000
10000000
00000000
00000000
00000000
,
00000000
01000000
00000000
00100000
,
00000000
00000000
00000000
00001000
,
00010000
00001000
00000010
00000000
,
00000001
00000000
00000000
00001000
,
00000100
00000000
00000010
00000000
,
00000001
00000000
00000100
00001000
,
00010000
00100000
10000000
00000000
,
00010000
00000000
00000000
01000000
,
00100000
00000000
00000000
00000000
00000000
00000000
00000000
00000000
01000000
00000000
00000000
00000000
00000000
00000000
00000000
00000000
00000000
00001000
00000000
00000000
00000000
00010000
00000000
00000000
00001000
00000000
00000000
00000000
00000000
00000000
00000000
00000000
,
00000010
00001000
00000000
00000010
,
00000000
00000001
00000000
00000100
,
00000001
00000100
00000000
00000010
,
00000000
00000000
00000000
00010000
,
00000000
00100000
00000000
10000000
00000000
00100000
00000000
00000000
,
00000000
01000000
00000000
00000000
00000000
00000000
00000000
00000000
,
00000000
00001000
00000000
00000000
00010000
00000000
00000000
00000000
,
00000100
00000000
00000010
00000001
,
00000000
00001000
00000000
00000000
,
00000000
00000100
00010000
00000100
,
00000000
00000010
00000001
00000100
,
00000010
00010000
00001000
00000000
,
00010000
00000100
00000000
00000000
,
00000000
00000010
00000001
00000100
,
00000010
00000000
00010000
00001000
,
00000000
01000000
00000000
00100000
,
00000000
00000000
10000000
00000000
00000000
01000000
00000000
00000000
00000000
00000000
00000000
00000000
00000000
00000000
00000000
00000000
00100000
00000000
00000000
00000000
00000000
00000000
00000000
00000000
00001000
00000000
00000000
00000000
00000000
00000000
00000000
00000000
,
00000000
00010000
00000100
00000000
,
00000010
00000000
00000001
00000000
00000000
00000000
00000001
00000100
,
00000000
00000000
00000000
00000000
00000000
00000100
00000000
00001000
,
00000000
00001000
00010000
00000000
,
00010000
00100000
00000000
00100000
,
10000000
00000000
01000000
00000000
00000000
00000000
00000000
00000000
00010000
00000000
00000000
00000000
00000000
00001000
00000000
00000000
,
00000010
00000001
00000000
00000100
,
00001000
00000000
00001000
00010000
,
00000000
00100000
00000000
10000000
00000000
00000000
00000000
10000000
,
00000000
01000000
00000000
00000000
00000000
00100000
00000000
00001000
,
00000000
00010000
00000100
00000000
,
00000010
00000001
00000000
00000001
,
00000100
00000010
00000000
00000000
,
00000000
00000000
00000000
00000000
,
00000000
00000000
00010000
00001000
,
01000000
00000000
00100000
10000000
,
00010000
00000000
01000000
00100000
,
00001000
00000000
00010000
00000100
,
00000010
00000000
00000001
00000100
,
00001000
00000000
00001000
00010000
,
00100000
00000000
00000000
00000000
,
10000000
01000000
00000000
00100000
,
00001000
00000000
00000000
00000000
00010000
00000100
00000000
00000000
,
00000010
00000001
00000000
00001000
,
00000100
00000000
00010000
00001000
,
00000000
00100000
00010000
00000000
,
20000000
00000000
00000000
00000000
00000000
00000000
00000000
00000000
00000000
00000000
00000000
00000000
00000000
00000000
00000000
00000000
00000000
30000000
01000000
00000000
00000000
00000000
00000000
00000000
00100000
00000000
00000000
00000000
00000000
00000000
00000000
00000000
,
00001000
00000000
00010000
00000000
,
00000100
00000000
00000010
00000000
,
00000001
00000100
00000000
00000001
00000000
00000000
00000000
00000100
,
00000000
00000000
00000010
00000000
00000000
00000100
00000000
00000000
00000000
00000000
00000000
00000000
00000010
00000000
00000000
00000000
,
00000000
00000000
00010000
00000000
,
00000000
00001000
00000000
01000000
,
00000000
00000000
00100000
01000000
00000000
00000000
00000000
00000000
,
00100000
00000000
00000000
00000000
00000000
00000000
00000000
10000000
,
00000000
00000000
00000000
01000000
10000000
00000000
00010000
00000000
,
00000000
01000000
00000000
00001000
,
00010000
00000000
00001000
00000000
,
00000010
00000000
00000000
00000000
00000001
00000000
00000000
00000000
00000000
00000000
00000100
00000000
00000010
00000000
00000000
00010000
,
00000000
00000000
00001000
00000000
00000000
00010000
00000000
00000000
,
00001000
00000000
00010000
00000000
,
00001000
00000000
00000000
00000000
00000010
00000000
00000000
00000000
00000100
00000000
00000000
00000000
00000000
00010000
00000000
00000000
,
00000000
00001000
00010000
00100000
,
00000000
00000000
00000000
01000000
,
00000000
00010000
00000000
10000000
,
00000000
01000000
00100000
00001000
,
00000000
00010000
00000000
00001000
,
00000000
01000000
00100000
10000000
,
00000000
01000000
00000000
00010000
,
00000000
00001000
00000010
00000001
,
00000000
00001000
00000000
00000010
,
00000000
00010000
00001000
01000000
,
00000000
00100000
00000000
10000000
,
00000000
00010000
10000000
01000000
,
00000000
00010000
00000000
00001000
,
00000000
00000010
00000100
00010000
,
00000000
00001000
00000000
01000000
,
00000000
00000000
00100000
00000000
00001000
00000000
00000000
00010000
,
00000000
00000000
00001000
00000000
00000000
00000010
00000000
00000000
,
00000000
00000001
00000000
00002002
,
00000000
00000000
00000000
00000000
,
00000000
00003003
00000000
00000000
;

//---------------dance-double - ----------------
#NOTES:
     dance-double:
     :
     Medium:
     8:
     0.528,0.663,0.074,0.042,0.090,338.000,7.000,4.000,0.000,0.000:
00000000
00000000
00000000
00000000
,
00000000
00000000
00000000
00000000
,
00000000
00000000
00100000
00000000
10000000
00000000
01000000
00010000
,
00000000
00001000
00000000
00010000
00000000
00100000
00000000
10000000
,
00000000
01000000
00000000
00000000
00000000
00100000
00000000
00000000
,
00000000
00001000
00000000
00010000
00000000
00001000
00000000
00000010
,
00000000
00000000
00000000
00000001
00001000
00000000
00000000
00000000
00000000
00000000
00000000
00000000
00000010
00000000
00000000
00000000
,
00000000
00010000
00000000
00000000
00000000
00000000
00001000
00000000
,
00000000
00010000
00000000
00000000
00100000
00000000
00000000
00000000
10000000
00000000
00000000
00000000
01000000
00000000
00000000
00000000
,
00100000
00001000
00000000
00020000
,
00000000
00000000
00030000
00011000
,
00001000
00000100
00000010
00010000
,
00001000
00000000
00000010
00000000
00000000
00000001
00001000
00000000
,
00000010
00010000
00001000
01000000
,
00100000
00000000
10000000
00000000
00000000
00010000
01000000
00000000
,
00100000
10000000
01000000
00010000
,
00001000
00000000
00000100
00000000
00000000
00000001
00001000
00000000
,
00000010
00000000
00000000
00000000
00000000
00000000
00000000
00000000
00010000
00000000
00000000
00000000
00000000
00000000
00000000
00000000
00000000
00001000
00000000
00000000
00000000
01000000
00000000
00000000
00100000
00000000
00000000
00000000
00000000
00000000
00000000
00000000
,
10000000
01000000
00100000
00001000
,
00010000
00000100
00000010
00000001
,
00000100
00001000
00010000
00100000
,
00000000
00000000
01000000
00000000
00000000
00000000
00010000
10000000
,
00000000
01000000
00000000
00100000
00000000
00001000
00000000
00010000
,
00000000
00000100
00000000
00000000
00000000
00000010
00000000
00000000
,
00000000
00000001
00000100
00000000
00001000
00000000
00010000
00000000
,
00000000
01000000
00100000
00000000
00001000
00000000
00010000
00001000
,
00000000
00000010
00000000
00000000
,
00000000
00000001
00000100
00000010
,
00010000
00000000
00000000
00000000
00000000
00000000
00001000
00000000
00000000
00010000
00000000
00100000
10000000
00000000
00000000
00000000
,
10000000
01000000
00100000
00001000
,
00000000
00010000
00000000
00000000
00001000
00000000
00000000
00000000
,
00000010
00000001
00000001
00000010
,
00000100
00000000
00010000
00000000
00000000
00001000
00000000
00000000
,
00010000
00000000
00001000
00000000
00000000
00000000
00010000
00000100
,
00000000
00000000
00000010
00000000
00000000
00000001
00000000
00000000
00000000
00000000
00000000
00000000
00001000
00000000
00000000
00000000
00000001
00000000
00000000
00000000
00000000
00000000
00000000
00000000
00000100
00000000
00000000
00000000
00000000
00000000
00000000
00000000
,
00000010
00010000
00001000
01000000
,
00100000
00000000
10000000
00000000
01000000
00000000
00010000
01000000
,
00000000
00100000
00000000
00000000
00000000
00001000
00000000
00010000
,
00001000
00000100
00000010
00001000
,
00000001
00000010
00000001
00000100
,
00000110
00000000
00011000
00000000
00000000
00000000
00000000
00000000
01100000
00000000
00000000
00000000
00000000
00011000
00000000
00000000
,
00100000
00000000
10000000
00000000
00000000
00010000
00000000
10000000
,
01000000
00000000
00000000
00000000
00100000
00000000
00000000
00000000
00001000
00000000
00010000
00000000
00000000
00000000
00000000
00010000
,
00000100
00000000
00000000
00000100
00000010
00000000
00000000
00000001
,
00001000
00000000
00000000
00000000
00000100
00000000
00000000
00000000
00000010
00000000
00000001
00000000
00000000
00000000
00000000
00000001
,
00000100
00000000
00000000
00000100
00000010
00000000
00000000
00000010
,
00010000
00000000
00001000
00000000
00010000
00001000
00000000
00000000
,
01000000
00100000
00000000
00000000
,
00000000
00000000
00000000
00000000
,
00000000
10000000
01000000
00100000
,
00001000
00010000
00000100
00000010
,
00000001
00000100
00000010
00010000
,
00001000
01000000
00100000
10000000
,
01000000
00010000
01000000
00100000
,
00001000
00010000
00001000
00000010
,
00000000
00000001
00000000
00000100
,
00000000
00000010
00010000
00000000
00000000
00001000
00000000
01000000
,
00000000
00000000
00100000
00000000
10000000
00000000
00000000
00000000
00010000
01000000
00000000
00000000
00001000
00000000
00000000
00000000
,
00010000
00000100
00000000
00000000
00000010
00000000
00000001
00001000
,
00000000
00000000
00000100
00000000
00000010
00000001
00000000
00000000
,
00000100
00000000
00000010
00010000
00001000
00000000
00010000
00000000
,
00000200
00000000
00000000
00000000
00000000
00000000
00000000
00000000
00000000
00000000
00000000
00000000
00000000
00000000
00000000
00000000
00000000
00000300
00000010
00000000
00000000
00000000
00000000
00000000
00000001
00000000
00000000
00000000
00000000
00000000
00000000
00000000
,
00000010
00000100
00000010
00000001
,
00000100
00001000
00010000
00100000
,
00000000
10000000
00010000
00000000
00000000
00000000
01000000
00000000
00000000
00000000
00100000
00000000
00000000
00000000
10000000
00000000
,
00000000
00000000
01000000
00000000
00000000
00010000
00000000
00000000
00000000
00000000
00001000
00000000
00000000
00000000
00000000
00000000
,
00010000
00000000
00000100
00000000
,
00000010
00000000
00000001
00000100
,
00000000
00000000
00000010
00010000
00001000
00000000
00000000
00000000
,
01000000
00000000
00000000
00000000
00000000
00000000
00000000
10010000
,
00000000
00000000
00000000
00100000
10000000
00000000
00100000
00000000
,
01000000
00100000
10000000
01000000
,
00010000
00000000
00001000
00000000
00000010
00000000
00000000
00000001
,
00001000
00000000
00000000
00000000
00000100
00000000
00000000
00000000
00000010
00000000
00000001
00000000
00000100
00000000
00000010
00010000
,
00000000
00000000
00001000
00000000
00000000
01000000
00000000
00000000
,
00100000
00000000
10000000
00000000
,
00100000
00000000
00000000
00000000
01000000
00000000
00000000
00000000
00001000
00000000
00010000
00000000
00000000
00001000
00000000
00000000
,
00001000
00010000
00010000
00000100
,
00000000
00010000
00000000
00000000
,
00001000
00001000
00010000
00100000
,
10000000
00000000
01000000
00000000
00100000
00001000
00000000
00000000
,
00010000
00010000
00001000
00000010
,
00000001
00000000
00001000
00000000
00000100
00010000
00000000
00000000
,
00001000
00001000
00010000
00100000
,
10000000
00000000
01000000
00000000
00100000
00001000
00000000
00000000
,
00010000
00010000
00001000
00000010
,
00000001
00000000
00001000
00000000
00000010
00010000
00000000
00000000
,
00001000
00001000
00010000
01000000
,
10000000
00000000
00100000
00000000
01000000
00001000
00000000
00000000
,
00010000
00010000
00001000
00000100
,
00000001
00000000
00001000
00000000
00000010
00010000
00000000
00000000
,
00001000
00000000
00001000
00000000
00010000
00000000
00001000
01000000
,
00000000
00000000
00100000
00000000
10000000
00000000
00000000
00100000
,
00000000
00000000
01000000
00000000
00000000
00001000
00000000
00000000
,
00010000
00000100
00000000
00000220
,
00000000
00000000
00000000
00000000
,
00000000
00000330
00000000
00000000
;

//---------------dance-double - ----------------
#NOTES:
     dance-double:
     :
     Hard:
     10:
     0.726,0.816,0.021,0.032,0.170,475.000,2.000,3.000,0.000,0.000:
00000000
00000000
00000000
00000000
,
00000000
00000000
00000000
00000000
,
00000000
00000000
10000000
01000000
00100000
00000000
00001000
00010000
,
00000000
00001000
01000000
00100000
00000000
10000000
00000000
01000000
,
00000000
00100000
00000000
00001000
00000000
00010000
00000000
00000100
,
00000000
00000010
00000000
00000001
00000000
00000100
00000000
00001000
,
00000000
00000000
00010000
00001000
00010000
00000000
00000000
00000000
00001000
00000000
00000000
00000000
01000000
00000000
00000000
00000000
,
00000000
00100000
10000000
00000000
00000000
00000000
00000000
00000000
01000000
00000000
00000000
00000000
00100000
00000000
00000000
00000000
,
00001000
00010000
00000000
00000000
00000100
00000000
00000010
00000000
00000001
00000000
00000000
00000000
00000100
00000000
00000000
00000000
,
00001000
00000000
00010000
00000000
00000000
01000000
00100000
00000000
,
00000000
00000000
00010000
11000000
,
00100000
00001000
00010000
00000100
00000010
00000000
00000001
00000000
,
00000100
00000000
00000010
00000000
00000000
00010000
00001000
00000000
,
01000000
00100000
10000000
01000000
00010000
00000000
00001000
00000000
,
00000010
00000000
00000001
00000000
00001000
00000100
00000010
00000000
,
00000001
00000100
00001000
00010000
,
01000000
00000000
10000000
00000000
00000000
00100000
10000000
00010000
,
01000000
00000000
00100000
00000000
00000000
00000000
00000000
00000000
00010000
00000000
00001000
00000000
00000000
00000000
00000000
00000000
00000000
00000100
00000000
00000010
00000000
00000001
00000000
00001000
00000001
00000000
00000000
00000000
00000100
00000000
00000000
00000000
,
00000010
00010000
00001000
00000000
01000000
00000000
00100000
10000000
,
00100000
00000000
10000000
00000000
01000000
00100000
00001000
00010000
,
00000100
00000000
00000010
00000001
00000010
00000000
00000001
00000000
,
00000100
00000000
00000000
00000000
00000010
00000000
00000000
00000000
00010000
00000000
00000000
00000000
00000000
00001000
01000000
00000000
,
00000000
00100000
10000000
00100000
00000000
00001000
01000000
00001000
,
00000000
00010000
00000000
00001000
00000000
00010000
00000000
00000100
,
00000000
00000000
00000000
00000010
00000001
00000000
00000000
00000000
00000100
00000000
00000000
00000000
00001000
00000000
00010000
00000000
,
00000000
00001000
00010000
00001000
01000000
00000000
00100000
10000000
,
00000000
01000000
00000000
00000000
,
00000000
00000000
00100000
10000000
00100000
00000000
00001000
00010000
,
00001000
00000000
00000000
00000000
00010000
00000000
00000000
00000000
00000100
00000010
00000000
00000001
00000100
00000000
00000000
00000000
,
00000010
00000100
00000001
00000000
00000100
00000010
00010000
00000000
,
00001000
01000000
00100000
00000000
,
10000000
00000000
01000000
00000000
00100000
00010000
00100000
00000000
,
00010000
01000000
00010000
00000000
10000000
00000000
01000000
00000000
,
00100000
00000000
00000000
00000000
00001000
00000000
00000000
00000000
00000000
00000000
00000000
00000000
00010000
00000100
00000010
00000000
,
00000001
00000000
00001000
00000100
00000000
00000010
00000001
00000000
00000000
00000000
00000000
00000000
00001000
00000000
00000000
00000000
00000001
00000000
00000000
00000000
00000100
00000000
00000000
00000000
00000010
00000000
00000000
00000000
00010000
00000000
00000000
00000000
,
00001000
00000000
01000000
00000000
00100000
00000000
10000000
01000000
,
00100000
00000000
00001000
00000000
01000000
00000000
00100000
00000000
10000000
00000000
00000000
00000000
01000000
00100000
00001000
00000000
,
00000000
00000000
01000000
00000000
00000000
00000000
00001000
00000000
00000000
00000000
00010000
00000000
00000000
00000000
00001000
00000010
,
00001000
00000000
00000010
00000001
00001000
00000100
00010000
00000000
,
00001000
00010000
00000100
00000000
00000010
00000001
00000010
00000000
,
00000001
00000000
00000100
00000000
00000000
00000000
00000000
00000000
00001000
00000000
00000000
00000000
00000000
00010000
00000000
00000000
,
00100000
10000000
00100000
01000000
00000000
00001000
00010000
00001000
,
01000000
00000000
00100000
00000000
00000000
00000000
10000000
00000000
01000000
00000000
10000000
00000000
00000000
00000000
00100000
01000000
,
00100000
00000000
01000000
00001000
01000000
00000000
00001000
00010000
,
00001000
00000000
01000000
00000000
00000000
00000000
00001000
00000000
00010000
00000000
00000100
00000000
00000000
00000000
00000100
00000010
,
00000100
00000000
00000010
00000001
00000010
00000000
00000001
00000100
,
00000010
00010000
00001000
00000000
01000000
00100000
10000000
01000000
,
00100000
00001000
00000000
00000000
,
00000000
00000000
00000000
00000000
,
00000000
00000000
01000000
00001000
00100000
00001000
00010000
00000000
,
00000100
00000000
00000010
00000001
00000100
00000010
00010000
00000000
,
00001000
00000000
01000000
00100000
10000000
01000000
00100000
00000000
,
00001000
00000000
00010000
00001000
00010000
00000100
00010000
00000000
,
00000010
00000000
00000100
00000010
00001000
00000001
00000100
00000000
,
00001000
00000000
00010000
00001000
01000000
00100000
10000000
00000000
,
00010000
01000000
00001000
00010000
,
00000000
00001000
00100000
00000000
01000000
00100000
00001000
00010000
,
00000000
00000000
00001000
00000000
01000000
00000000
00000000
00000000
00100000
10000000
00000000
00010000
01000000
00000000
00000000
00000000
,
00100000
01000000
00000000
00001000
00010000
00000000
00000100
00000010
,
00000000
00000001
00001000
00000000
00000010
00010000
00000000
00001000
,
01000000
00000000
00100000
10000000
00000000
01000000
00010000
00000000
,
00001000
00020000
00000000
00000000
00000000
00000000
00000000
00000000
00000000
00000000
00000000
00000000
00000000
00000000
00000000
00000000
00000000
00030000
00001000
00000000
01000000
00000000
00000000
00000000
00010000
00000000
00000000
00000000
00000000
00000000
00000000
00000000
,
00100000
00000000
01000000
00000000
00100000
00001000
00100000
00000000
,
00001000
00010000
00001000
00000000
00010000
00000100
00010000
00000000
,
00000000
00000010
00000100
00000000
00000000
00000000
00000001
00000000
00000000
00000000
00000100
00000000
00000000
00000000
00001000
00000000
,
00000000
00000000
00010000
00000000
00000000
00001000
00000000
00000000
00010000
00000000
00001000
00000000
01000000
00000000
00000000
00000000
,
00000000
00000000
00100000
10000000
01000000
00100000
00000000
00000000
,
00001000
00010000
00001000
01000000
,
00000000
00000000
00100000
10000000
01000000
00000000
00000000
00000000
,
10000000
00000000
00000000
00000000
,
00010000
00000000
00000000
00000000
00000000
00000000
00100000
00001000
00010000
00000000
00000000
00000000
00000100
00000000
00000000
00000000
,
00000010
00000000
00000001
00000000
00000100
00000000
00001000
00010000
,
00001000
00000000
00010000
00100000
00010000
00000000
00000000
01000000
,
00010000
00000000
00000000
00000000
00100000
00000000
00000000
00000000
01000000
00000000
00100000
00000000
10000000
00000000
01000000
00010000
,
00000000
00001000
00010000
00000000
00001000
00000010
00000000
00000001
,
00001000
00000000
00000001
00000000
,
00000100
00000000
00000000
00000000
00001000
00000000
00000000
00000000
00010000
00000000
00001000
00000000
00000000
00000010
00000000
00000000
,
00000001
00000100
00001000
00010000
,
00000000
00001000
00000000
00010000
,
00100000
10000000
00100000
00000000
10000000
00000000
01000000
00010000
,
00000000
00001000
01000000
00000000
00100000
10000000
00100000
00000000
,
10000000
01000000
10000000
00000000
01000000
00000000
00010000
00001000
,
00010000
00000000
00000100
00000000
00000010
00000001
00000010
00000000
,
00000001
00000100
00000001
00000000
00000100
00000000
00001000
00010000
,
00000000
00001000
00010000
00000000
00100000
10000000
00100000
00000000
,
10000000
01000000
10000000
00000000
01000000
00000000
00010000
00000000
,
00000000
00001000
00010000
00000000
00001000
01000000
00001000
00000000
,
00000010
00000001
00001000
00000000
00000001
00000000
00000100
00001000
,
00000000
00010000
00001000
00000000
00010000
00100000
00010000
00000000
,
00001000
00010000
00001000
00000000
01000000
00000000
00100000
10000000
,
00010000
00000000
10000000
00000000
01000000
00010000
01000000
00000000
,
00010000
00001000
00010000
00000000
00001000
00000000
00000010
00000001
,
00000000
00001000
00000100
00000000
00000010
00000001
00000000
00000001
,
00000100
00000000
00000100
00001000
00000000
00001000
00010000
00000000
,
00100000
10000000
01000000
00010000
00000000
00000000
00022000
00000000
,
00000000
00000000
00000000
00000000
,
00000000
00033000
00000000
00000000
;
