#TITLE:Everything Went Black;
#SUBTITLE:;
#ARTIST:The Black Dahlia Murder;
#TITLETRANSLIT:;
#SUBTITLETRANSLIT:;
#ARTISTTRANSLIT:;
#CREDIT:;
#BANNER:;
#BACKGROUND:;
#LYRICSPATH:;
#CDTITLE:;
#MUSIC:The Black Dahlia Murder - Everything Went Black.ogg;
#OFFSET:0.282;
#SAMPLESTART:85.851;
#SAMPLELENGTH:12.000;
#SELECTABLE:YES;
#DISPLAYBPM:214.000;
#BPMS:0.000=214.000,206.500=107.000,208.500=214.000;
#STOPS:;
#BGCHANGES:;
// cache tags:
#FIRSTBEAT:20.000;
#LASTBEAT:697.000;
#SONGFILENAME:Songs/SSSC Pack 2/Everything Went Black - [NIQ9]/Everything Went Black.sm;
#HASMUSIC:1;
#HASBANNER:0;
#MUSICLENGTH:197.120;
// end cache tags

//---------------dance-single - NIQ9----------------
#NOTES:
     dance-single:
     NIQ9:
     Challenge:
     15:
     1.000,1.000,0.269,0.507,1.000,1674.000,53.000,100.000,33.000,0.000:
0000
0000
0000
0000
,
0000
0000
0000
0000
,
0000
0000
0000
0000
,
0000
0000
0000
0000
,
0000
0000
0000
0000
,
0011
0110
1100
1001
,
0001
1000
0010
1000
0001
0100
0010
0100
0001
1000
0100
0010
0100
0010
0100
0000
,
1100
0110
0011
1001
,
1000
0010
1000
0010
0100
0010
1000
0001
0010
0001
0010
0001
1000
0100
1000
0000
,
0101
0110
0101
1001
,
1000
0100
0010
0100
1000
0001
1000
0010
1000
0001
0100
0010
0100
0001
1000
0000
,
1001
1100
0011
0202
,
0003
0000
0310
1000
0001
0000
0010
0000
,
M000
00M0
0M00
000M
00M0
M000
1001
0001
,
0100
0010
1000
0010
0100
0001
0010
0100
,
1000
0100
0010
0001
1000
0010
0100
0001
,
1000
0000
0001
0010
0001
1000
0100
0000
0010
0000
0001
0000
1001
0000
1000
0000
,
0010
0010
0100
0100
0001
0001
0010
0010
,
0100
0100
1000
1000
0001
0001
0100
0010
,
2020
0030
3001
0010
2200
3000
0310
0001
,
2002
0000
0003
0000
3010
1000
0001
0100
0010
1000
0001
0100
0001
0000
1000
0000
,
0000
0100
0000
0010
0100
1000
0010
0100
,
0000
0001
0000
1000
0100
1000
0001
0100
,
0000
0010
0000
0100
0010
1000
0001
0010
,
0000
0100
0000
0010
0100
1000
0001
0000
,
1000
0010
0000
0100
0010
1000
0001
0000
,
0010
0100
0000
0010
0001
1000
0001
0000
,
0100
0010
0000
1000
0010
1000
0001
1000
,
0100
0000
0010
0000
0001
1000
0001
1000
0010
1000
0001
0100
0001
0000
1000
0000
,
0100
0010
0001
1000
0010
0100
0010
0100
,
0001
1000
0010
1000
0001
0100
0001
0010
,
0100
1000
0100
0010
0001
1000
0001
0100
,
0010
0000
1000
0000
0001
1000
0100
1000
0100
0010
0001
0000
1000
0010
0100
0001
,
0100
0010
1000
0010
0100
0000
0002
0000
0000
0000
1003
0000
0001
0010
0100
1000
,
0100
0010
0001
1000
0100
0010
0100
1000
0001
1000
0010
1000
0001
0100
0010
0100
,
0001
0100
0010
1000
0010
0100
0010
1000
0010
0100
0001
1000
0001
1000
0100
1000
,
0001
0010
0001
1000
0010
1000
0001
0100
0010
0100
0001
1000
0002
0000
0103
0000
,
0010
2000
3100
0020
0032
0103
0020
0130
,
0001
0020
0130
2000
3200
0310
0002
0103
,
0010
2000
3001
0020
0230
1300
0002
0103
,
0010
0200
0301
0020
0230
2300
3002
1003
,
0010
0200
0310
2000
3200
0310
0002
0103
,
0010
0200
0310
2000
3002
0013
0200
1300
,
0010
0100
0001
0010
0100
0010
0001
1000
,
0010
0000
0100
0000
0001
0100
0001
0100
0001
0100
0001
0100
0010
0000
1000
0000
,
0001
1000
0001
0000
1000
0000
0100
0000
0010
0001
0010
0000
0001
0000
1000
0000
,
0010
0100
0010
0000
0100
0000
0001
0000
1000
0000
0001
0000
0010
0000
0100
0000
,
1000
0100
1000
0000
0001
0000
0100
0000
0010
1000
0010
0000
0100
0000
0001
0000
,
1000
0000
0001
0000
0010
0000
0100
0000
0010
0001
1000
0000
0001
0000
0100
0000
,
0010
1000
0010
0000
1000
0000
0001
0000
0010
0100
0010
0000
0001
0000
1000
0000
,
0010
1000
0010
0000
0100
0000
0010
0000
1000
0001
1000
0000
0001
0010
0001
0010
,
0001
0010
0100
1000
0001
0000
0100
0000
0001
0000
1000
0000
0000
0000
0000
0001
,
0000
2002
0000
3003
1000
0000
0010
0100
,
0000
0202
0000
0303
0010
0000
1000
0100
,
0010
0001
0000
1000
0010
1000
0001
0100
,
0000
0000
0220
0000
0030
0000
0310
0000
1000
0100
0010
0000
0011
0000
0001
1000
,
0010
0200
0000
0310
1000
0100
1001
0001
,
0100
0020
0000
1030
0100
0010
0011
0001
,
1000
0020
0000
0130
0001
0010
0110
0100
,
1000
0000
0002
0000
0000
0000
0103
0000
0010
0000
1000
0000
0001
0010
0001
1000
,
0010
1000
0001
0100
0010
1000
0010
1000
0001
0100
0010
1000
0001
0010
0001
1000
,
0100
1000
0001
1000
0010
1000
0001
0100
0001
1000
0100
1000
0001
1000
0100
1000
,
0001
0010
0001
1000
0100
0010
0100
1000
0001
0010
0100
1000
0100
0010
0001
1000
,
0001
1000
0010
0100
0001
1000
0001
0010
0001
1000
0010
0100
0001
0000
1000
0100
,
0010
0002
0000
1003
0010
0000
1001
0000
,
0000
0100
0000
0000
0010
0000
1001
1000
,
0100
0000
0020
0000
0000
0000
0031
1000
0010
0000
1000
0001
0100
0000
0001
1000
,
0100
0000
1000
0001
0010
0000
0001
1000
0010
0000
0100
0000
0001
0000
1000
0000
,
0100
0010
M001
0M00
M000
00M0
0M00
000M
,
00M0
0M00
1001
0001
0100
0010
1000
0010
,
0100
0001
1000
0100
0010
0100
1000
0001
,
0010
0100
1000
0001
1000
0010
0100
0001
,
0100
0010
1000
0010
1000
0000
0001
0000
0010
0000
0100
0000
1000
0000
0010
0000
,
0100
0001
1000
0010
1000
0100
0010
0001
,
1000
0000
0100
0000
0010
0001
0010
0100
1000
0001
1000
0001
0100
0010
1000
0001
,
0010
0001
0010
0001
1000
0100
0010
0001
1000
0001
1000
0001
0100
0010
1000
0001
,
0010
0001
0010
0001
1000
0100
1000
0100
1000
0100
1000
0100
1000
0100
1000
0100
,
1000
0100
1000
0100
1000
0001
1000
0001
1000
0001
1000
0001
0100
0001
0100
0001
,
0100
0001
0100
0001
0100
0010
0100
0010
0100
0010
0100
0010
1000
0010
1000
0010
,
1000
0010
1000
0010
1000
0001
1000
0001
0010
0100
0010
0100
1000
0100
1000
0100
,
1000
0001
1000
0010
0100
0001
0100
0001
0100
0001
0100
0001
0100
0001
0100
0001
,
0100
0001
0100
0001
1000
0100
1000
0100
1000
0100
1000
0100
0010
0100
0010
0100
,
0010
0100
0010
0100
0010
0001
0010
0001
1000
0001
1000
0001
1000
0010
1000
0010
,
0100
0010
0100
0010
0100
0001
0100
0001
0100
0001
0100
0001
1000
0100
0010
0001
,
1000
0100
0010
0100
1000
0001
1000
0010
0100
0001
1000
0010
0100
0001
1000
0001
,
0010
0001
1000
0100
1000
0001
1000
0010
0100
0001
1000
0001
0010
0100
1000
0100
,
0010
0100
1000
0100
0010
0001
1000
0001
1000
0010
0100
0001
0100
0010
1000
0001
,
1000
0100
0010
0100
1000
0001
0010
0100
1000
0100
0010
0001
1000
0001
0100
0010
,
1000
0001
0100
0010
1000
0100
1000
0100
0010
0001
0010
0100
1000
0010
1000
0001
,
0100
0010
0100
0001
1000
0001
0010
0100
1000
0100
0010
0100
1000
0001
0010
0100
,
1000
0010
1000
0001
0100
0010
1000
0010
0100
0001
1000
0001
0010
0100
0010
0001
,
1000
0010
1000
0001
0100
0010
0100
0001
1000
0100
0010
0100
1000
0001
0010
0100
,
1000
0001
0100
0010
0100
0001
0100
0001
0100
0001
0100
0001
0100
0001
0100
0001
,
0100
0001
0100
0001
1000
0100
0010
0001
0010
0100
1000
0001
1000
0010
0100
0001
,
1000
0100
0010
0001
1000
0100
1000
0100
1000
0100
1000
0100
1000
0100
1000
0100
,
1000
0100
1000
0100
0020
0000
0000
0000
0000
0000
0000
0000
0000
0000
0000
0000
,
0030
0000
0000
0001
0010
0100
1000
0100
0010
0100
1000
0001
,
1000
0010
0100
0001
0100
0010
1000
0001
0010
0100
1000
0100
,
0010
0100
1000
0010
0100
0001
0010
0100
1000
0001
1000
0010
,
0100
0000
0000
0000
0001
0000
0000
0000
0010
0000
0000
0000
0400
0000
0000
0000
0000
0000
0000
0000
0000
0000
0000
0000
0000
0000
0000
0000
0000
0000
0000
0000
0000
0000
0000
0000
1300
0000
0000
0100
0000
0000
1000
0000
0000
0000
0000
0000
,
0001
0100
0001
0000
1000
0000
0100
0000
1000
0001
1000
0000
0100
0000
0010
0000
,
0001
0010
0001
0000
1000
0000
0100
0000
1000
0001
1000
0000
0010
0000
0100
0000
,
0001
0100
0001
0000
0100
0000
0010
0000
1000
0000
0100
0000
0010
0000
0001
0000
,
0100
0010
0100
0001
0010
0100
1000
0010
,
0100
0000
0001
0000
1000
0000
0001
0000
0010
0100
1000
0000
0001
0000
1000
0000
,
0010
0100
0001
0000
1000
0000
0100
0000
0010
0001
0010
0000
0100
0000
1000
0000
,
0001
0100
0010
1000
0002
0000
0000
0000
0000
0000
0000
0000
0000
0000
0000
0000
,
0013
0100
1000
0002
0000
0000
0000
0000
0000
0103
0000
0000
,
0010
1000
0010
0100
0020
0000
0000
0000
0000
0000
0000
0000
0000
0000
0000
0000
,
0000
1030
1001
0011
,
0001
0010
0100
2000
0000
0000
0000
0000
0000
0000
0000
0000
,
3001
0000
1001
1000
0100
0010
0100
1000
,
0010
0100
0002
0000
0000
0000
0000
0000
,
0103
0000
0200
0000
0310
1000
0001
0000
,
0010
0000
0000
0001
1000
0100
0010
0100
1000
0010
1000
0001
,
0100
0010
0100
0001
1000
0100
0010
0100
1000
0001
0010
0100
,
1000
0001
1000
0010
0100
0010
1000
0001
0010
0100
1000
0100
,
0010
0100
1000
0001
0010
0100
1000
0100
0010
0001
1000
0010
,
1000
0001
0100
0010
1000
0001
0010
0001
1000
0010
1000
0001
,
0100
0010
1000
0010
0100
0001
1000
0001
0010
0100
1000
0001
,
1000
0100
0010
0001
1000
0100
0010
0100
1000
0002
0000
0000
,
0000
0000
0000
0003
2001
0000
0000
0000
3200
0000
0000
0000
0320
0000
0000
0000
,
0032
0000
0000
0000
1003
0010
1000
0010
0100
0000
0001
0000
1000
0000
0100
1000
,
0100
1000
0001
0000
1000
0000
0010
0000
0100
0001
0100
0001
1000
0000
0100
0000
,
0010
0001
1000
0M00
00M0
M000
000M
00M0
,
M001
0010
M100
000M
00M0
0M00
M000
00M0
,
0M00
00M0
2002
0000
0000
0000
0000
0000
,
0000
0000
3003
0000
0001
1000
0100
0010
0100
1000
0001
0010
0100
0010
0001
1000
,
0010
1000
0001
0100
0010
0000
M000
0000
000M
0000
00M0
0000
M000
0000
00M0
0000
,
1010
1001
0202
0000
0000
0000
0000
0000
,
0000
0000
0303
0000
0100
0010
0100
0001
1000
0001
0010
0100
0010
0001
1000
0100
,
0010
0001
1000
0100
1000
0001
0100
0010
0100
0001
1000
0010
1000
0001
0100
0010
,
0100
0001
1000
0001
0010
0000
0100
0000
0010
0000
0001
0000
1000
0000
0010
0000
,
0100
0001
0100
0010
1000
0100
0010
0100
,
1000
0001
0010
0100
1000
0010
0100
0001
,
0010
0000
0001
0000
1000
0010
1000
0001
0100
0010
1000
0010
1000
0001
0100
0010
,
1000
0001
0100
0010
1000
0000
0001
0000
0010
0000
0100
0000
1000
0000
0100
0000
,
0010
0100
1000
0010
1000
0001
0100
0010
,
0100
0001
1000
0100
0010
0001
0010
0100
,
1000
0000
0001
0000
0010
0001
0010
0100
1000
0010
1000
0001
0100
0010
1000
0001
,
0010
0100
1000
0100
0010
0000
0001
0000
0010
0000
0100
0000
1000
0000
0010
0000
,
0200
0302
0023
0130
1000
0100
0010
0001
,
1000
0010
0100
0001
0100
0010
1000
0100
,
0010
0001
0010
0100
1000
0010
0100
0001
,
1000
0100
1000
0100
0010
0000
0001
0000
0010
0000
0100
0000
1000
0000
0010
0000
,
2000
3002
0203
0320
2030
3002
0023
0230
,
0320
0032
2003
3020
0230
0302
2003
3200
,
0320
0000
0032
0000
0023
0000
0230
0000
2300
0000
3002
0000
1003
0010
1000
0001
,
0010
0100
0010
0001
1000
0000
0000
0000
0001
0010
0100
1000
0100
0010
0001
1000
,
0010
1000
0001
0100
0010
0100
0001
1000
0100
0010
0100
1000
0001
0010
0100
1000
,
0100
0010
0001
1000
0010
1000
0001
0100
0010
0100
0001
1000
0010
1000
0001
0100
,
0010
1000
0001
0010
0100
1000
0100
0010
0100
1000
0001
0010
0100
0010
0001
1000
,
0100
1000
0001
0100
0010
0100
0001
1000
0010
1000
0001
0010
0001
1000
0100
0010
,
0100
1000
0001
0010
0001
0010
0100
1000
0001
1000
0010
0100
0001
1000
0100
0010
,
0001
0010
0100
1000
0001
1000
0001
1000
0010
1000
0010
0100
0001
0000
1000
0000
,
0001
0000
0100
0000
0101
0000
0001
0000
1001
0000
1000
0000
0100
1000
0001
0100
,
0010
0000
2002
0000
0000
3003
0001
0000
0010
0000
0001
0000
1001
0000
1000
0000
,
0010
0200
0000
0301
1000
0100
0011
0001
,
1000
0200
0000
1300
0010
1000
0101
0001
,
0100
0000
0020
0000
0000
0000
1030
0100
0010
0000
0001
0000
1000
0010
1000
0000
,
0010
2000
0000
3001
1000
0100
0110
0010
,
0001
2000
0000
3010
0100
0001
0011
0010
,
0100
2000
0000
3100
0010
0001
1001
1000
,
0010
0000
0200
0000
0000
0000
0310
0000
1000
0000
0001
0000
0011
0000
0010
0001
,
1000
0010
1000
0001
0100
0010
0100
0001
1000
0010
1000
0001
0010
0001
1000
0100
,
1000
0001
0100
0010
0100
0001
1000
0100
1000
0001
0010
0001
1000
0100
0010
0100
,
1000
0001
0100
0010
0100
0001
1000
0010
1000
0001
0100
0010
0100
0001
1000
0100
,
0010
0100
1000
0001
0010
0100
0010
0001
1000
0100
1000
0001
0100
0010
1000
0010
,
0100
0002
0000
1003
0100
0000
1001
0000
,
0001
0100
0000
0000
0010
0000
1001
1000
,
1010
0000
0020
0000
0000
0000
0130
0010
1000
0000
0001
0010
0100
0000
1000
0010
,
0100
0000
0001
0100
0010
0000
1000
0100
0010
0000
0001
0100
0010
0000
1000
0000
,
0001
0010
0200
0000
1000
0000
1000
0000
,
1300
0000
0000
0001
1000
0010
0100
0001
0100
0010
1000
0010
0100
0001
0100
0010
,
1000
0100
0010
0001
1000
0000
0000
0000
0000
0000
0000
0000
0000
0000
0000
0000
;

//---------------dance-single - NIQ9----------------
#NOTES:
     dance-single:
     NIQ9:
     Hard:
     13:
     1.000,1.000,0.335,0.538,0.728,1388.000,66.000,106.000,33.000,0.000:
0000
0000
0000
0000
,
0000
0000
0000
0000
,
0000
0000
0000
0000
,
0000
0000
0000
0000
,
0000
0000
0000
0000
,
0011
0110
1100
1001
,
0001
1000
0010
1000
0001
0100
0010
0100
0001
1000
0100
0010
0100
0010
0100
0000
,
1100
0110
0011
1001
,
1000
0010
1000
0010
0100
0010
1000
0001
0010
0001
0010
0001
1000
0100
1000
0000
,
0101
0110
0101
1001
,
1000
0100
0010
0100
1000
0001
1000
0010
1000
0001
0100
0010
0100
0001
1000
0000
,
1001
1100
0011
0202
,
0003
0000
0310
1000
0001
0000
0010
0000
,
M000
00M0
0M00
000M
00M0
M000
1001
0001
,
0100
0010
1000
0010
0100
0001
0010
0100
,
1000
0100
0010
0001
1000
0010
0100
0001
,
1000
0000
0001
0010
0001
1000
0100
0000
0010
0000
0001
0000
1001
0000
1000
0000
,
0010
0010
0100
0100
0001
0001
0010
0010
,
0100
0100
1000
1000
0001
0001
0100
0010
,
2020
0030
3001
0010
2200
3000
0310
0001
,
2002
0000
0003
0000
3010
1000
0001
0100
0010
1000
0001
0100
0001
0000
1000
0000
,
0000
0100
0000
0010
0100
1000
0010
0100
,
0000
0001
0000
1000
0100
1000
0001
0100
,
0000
0010
0000
0100
0010
1000
0001
0010
,
0000
0100
0000
0010
0100
1000
0001
0000
,
1000
0010
0000
0100
0010
1000
0001
0000
,
0010
0100
0000
0010
0001
1000
0001
0000
,
0100
0010
0000
1000
0010
1000
0001
1000
,
0100
0000
0010
0000
0001
1000
0001
1000
0010
1000
0001
0100
0001
0000
1000
0000
,
0100
0010
0001
1000
0010
0100
0010
0100
,
0001
1000
0010
1000
0001
0100
0001
0010
,
0100
1000
0100
0010
0001
1000
0001
0100
,
0010
0000
1000
0000
0001
1000
0100
1000
0100
0010
0001
0000
1000
0010
0100
0001
,
0100
0010
1000
0010
0100
0000
0002
0000
0000
0000
1003
0000
0001
0010
0100
1000
,
0100
0010
0001
1000
0100
0010
0100
1000
0001
1000
0010
1000
0001
0000
1000
0000
,
0100
0010
0001
0000
1000
0000
0010
0000
0100
0001
0010
0000
0100
0000
1000
0000
,
0010
1000
0100
0000
0010
0000
0001
0000
0100
0010
1000
0000
0002
0000
0103
0000
,
0010
2000
3100
0020
0032
0103
0020
0130
,
0001
0020
0130
2000
3200
0310
0002
0103
,
0010
2000
3001
0020
0230
1300
0002
0103
,
0010
0200
0301
0020
0230
2300
3002
1003
,
0010
0200
0310
2000
3200
0310
0002
0103
,
0010
0200
0310
2000
3002
0013
0200
1300
,
0010
0100
0001
0010
0100
0010
0001
1000
,
0010
0000
0100
0000
0001
0100
0001
0100
0001
0100
0001
0100
0010
0000
1000
0000
,
0001
1000
0001
0000
1000
0000
0100
0000
0010
0001
0010
0000
0001
0000
1000
0000
,
0010
0100
0010
0000
0100
0000
0001
0000
1000
0000
0001
0000
0010
0000
0100
0000
,
1000
0100
1000
0000
0001
0000
0100
0000
0010
1000
0010
0000
0100
0000
0001
0000
,
1000
0000
0001
0000
0010
0000
0100
0000
0010
0001
1000
0000
0001
0000
0100
0000
,
0010
1000
0010
0000
1000
0000
0001
0000
0010
0100
0010
0000
0001
0000
1000
0000
,
0010
1000
0010
0000
0100
0000
0010
0000
1000
0001
1000
0000
0001
0010
0001
0010
,
0001
0010
0100
1000
0001
0000
0100
0000
0001
0000
1000
0000
0000
0000
0000
0001
,
0000
2002
0000
3003
1000
0000
0010
0100
,
0000
0202
0000
0303
0010
0000
1000
0100
,
0010
0001
0000
1000
0010
1000
0001
0100
,
0000
0000
0220
0000
0030
0000
0310
0000
1000
0000
0010
0100
0001
0000
1000
0000
,
0010
0200
0000
0310
1000
0100
1001
0001
,
0100
0020
0000
1030
0100
0010
0011
0001
,
1000
0020
0000
0130
0001
0010
0110
0100
,
1000
0000
0002
0000
0000
0000
0103
0000
0010
0000
1000
0000
0001
1000
0100
1000
,
0100
0020
0000
0031
1000
0000
1010
0010
,
0100
0002
0000
0013
0100
0000
1100
0100
,
0010
0001
1000
0010
0100
0001
0010
0100
,
1000
0000
0001
0000
0010
0000
0001
0000
1000
0000
0100
0000
1100
0000
1000
0100
,
0010
0002
0000
1003
0010
0000
1001
0000
,
0000
0100
0000
0000
0010
0000
1001
1000
,
0100
0000
0020
0000
0000
0000
0031
1000
0010
0000
1000
0001
0100
0000
0001
1000
,
0100
0000
1000
0001
0010
0000
0001
1000
0010
0000
0100
0000
0001
0000
1000
0000
,
0100
0010
M001
0M00
M000
00M0
0M00
000M
,
00M0
0M00
1001
0001
0100
0010
1000
0010
,
0100
0001
1000
0100
0010
0100
1000
0001
,
0010
0100
1000
0001
1000
0010
0100
0001
,
0100
0010
1000
0010
1000
0000
0001
0000
0010
0000
0100
0000
1000
0000
0010
0000
,
0100
0001
1000
0010
1000
0100
0010
0001
,
1000
0100
1000
0010
1000
0010
1000
0001
,
0100
0010
1000
0100
0010
0001
0100
0010
,
0100
0001
1000
0100
0010
0100
1001
0001
,
0100
0010
1000
0100
0010
0100
1001
1000
,
0010
0100
0001
0010
0100
1000
1001
0001
,
0100
0010
0100
0001
0010
0100
1001
1000
,
0100
0010
0001
0100
0010
0100
1001
1000
,
0100
0010
0001
0010
0100
1000
1010
0100
,
0001
0100
0010
1000
0100
0010
1001
0001
,
0100
0010
1000
0100
0010
0001
1001
1000
,
0010
0100
0002
0000
0100
0000
0100
0000
,
0100
0003
0101
0000
0100
0000
0020
0000
,
1000
0000
0000
0000
2030
0000
0000
0000
0001
0000
0000
0000
3001
0010
0001
0010
,
0001
0010
0001
0000
0000
0000
0000
0000
1000
0010
1000
0010
1000
0000
0000
0000
,
0001
0100
0001
0100
0010
0000
0000
0000
0010
0000
0000
0000
0010
0000
0000
0000
,
0010
1001
1000
0100
,
0010
0000
0000
0000
0001
0100
0001
0100
0001
0100
0001
0100
0010
0000
0000
0000
,
1000
0100
1000
0100
1000
0100
1000
0100
0010
0000
0000
0000
0001
1000
0100
0010
,
0001
0000
0000
0000
0001
0010
0001
0010
0001
0010
0001
0010
0001
0010
0001
0010
,
0001
0010
0001
0010
0100
1000
0001
0100
0001
0100
0010
1000
0001
1000
0001
0010
,
0001
1000
0010
0100
0010
1000
0010
1000
0010
1000
0010
1000
0010
1000
0010
1000
,
0010
1000
0010
1000
0002
0000
0000
0000
0000
0000
0000
0000
0000
0000
0000
0000
,
0003
0000
0000
0001
0010
0100
1000
0100
0010
0100
1000
0001
,
1000
0010
0100
0001
0100
0010
1000
0001
0010
0100
1000
0100
,
0010
0100
1000
0010
0100
0001
0010
0100
1000
0001
1000
0010
,
0100
0000
0000
0000
0001
0000
0000
0000
0010
0000
0000
0000
0400
0000
0000
0000
0000
0000
0000
0000
0000
0000
0000
0000
0000
0000
0000
0000
0000
0000
0000
0000
0000
0000
0000
0000
1300
0000
0000
0100
0000
0000
1000
0000
0000
0000
0000
0000
,
0001
0100
0001
0000
1000
0000
0100
0000
1000
0001
1000
0000
0100
0000
0010
0000
,
0001
0010
0001
0000
1000
0000
0100
0000
1000
0001
1000
0000
0010
0000
0100
0000
,
0001
0100
0001
0000
0100
0000
0010
0000
1000
0000
0100
0000
0010
0000
0001
0000
,
0100
0010
0100
0001
0010
0100
1000
0010
,
0100
0000
0001
0000
1000
0000
0001
0000
0010
0100
1000
0000
0001
0000
1000
0000
,
0010
0100
0001
0000
1000
0000
0100
0000
0010
0001
0010
0000
0100
0000
1000
0000
,
0001
0100
0010
1000
0002
0000
0000
0000
0000
0000
0000
0000
0000
0000
0000
0000
,
0013
0100
1000
0002
0000
0000
0000
0000
0000
0103
0000
0000
,
0010
1000
0010
0100
0020
0000
0000
0000
0000
0000
0000
0000
0000
0000
0000
0000
,
0000
1030
1001
0011
,
0001
0010
0100
2000
0000
0000
0000
0000
0000
0000
0000
0000
,
3001
0000
1001
1000
0100
0010
0100
1000
,
0010
0100
0002
0000
0000
0000
0000
0000
,
0103
0000
0200
0000
0310
1000
0001
0000
,
0010
0000
0000
0001
1000
0100
0010
0100
1000
0010
1000
0001
,
0100
0010
0100
0001
1000
0100
0010
0100
1000
0001
0010
0100
,
1000
0001
1000
0010
0100
0010
1000
0001
0010
0100
1000
0100
,
0010
0100
1000
0001
0010
0100
1000
0100
0010
0001
1000
0010
,
1000
0001
0100
0010
1000
0001
0010
0001
1000
0010
1000
0001
,
0100
0010
1000
0010
0100
0001
1000
0001
0010
0100
1000
0001
,
1000
0100
0010
0001
1000
0100
0010
0100
1000
0002
0000
0000
,
0000
0000
0000
0003
2001
0000
0000
0000
3200
0000
0000
0000
0320
0000
0000
0000
,
0032
0000
0000
0000
1003
0010
1000
0010
0100
0000
0001
0000
1000
0000
0100
1000
,
0100
1000
0001
0000
1000
0000
0010
0000
0100
0001
0100
0001
1000
0000
0100
0000
,
0010
0001
1000
0M00
00M0
M000
000M
00M0
,
M001
0010
M100
000M
00M0
0M00
M000
00M0
,
0M00
00M0
2002
0000
0000
0000
0000
0000
,
0000
0000
3003
0000
0001
1000
0100
0010
0100
1000
0001
0010
0100
0010
0001
1000
,
0010
1000
0001
0100
0010
0000
M000
0000
000M
0000
00M0
0000
M000
0000
00M0
0000
,
1010
1001
0202
0000
0000
0000
0000
0000
,
0000
0000
0303
0000
0100
0010
0100
0001
1000
0001
0010
0100
0010
0001
1000
0100
,
0010
0001
1000
0100
1000
0001
0100
0010
0100
0001
1000
0010
1000
0001
0100
0010
,
0100
0001
1000
0001
0010
0000
0100
0000
0010
0000
0001
0000
1000
0000
0010
0000
,
0100
0001
0100
0010
1000
0100
0010
0100
,
1000
0001
0010
0100
1000
0010
0100
0001
,
0010
0000
0001
0000
1000
0010
1000
0001
0100
0010
1000
0010
1000
0001
0100
0010
,
1000
0001
0100
0010
1000
0000
0001
0000
0010
0000
0100
0000
1000
0000
0100
0000
,
0010
0100
1000
0010
1000
0001
0100
0010
,
0100
0001
1000
0100
0010
0001
0010
0100
,
1000
0000
0001
0000
0010
0001
0010
0100
1000
0010
1000
0001
0100
0010
1000
0001
,
0010
0100
1000
0100
0010
0000
0001
0000
0010
0000
0100
0000
1000
0000
0010
0000
,
0200
0302
0023
0130
1000
0100
0010
0001
,
1000
0010
0100
0001
0100
0010
1000
0100
,
0010
0001
0010
0100
1000
0010
0100
0001
,
1000
0100
1000
0100
0010
0000
0001
0000
0010
0000
0100
0000
1000
0000
0010
0000
,
2000
3002
0203
0320
2030
3002
0023
0230
,
0320
0032
2003
3020
0230
0302
2003
3200
,
0320
0000
0032
0000
0023
0000
0230
0000
2300
0000
3002
0000
1003
0010
1000
0001
,
0010
0100
0010
0001
1000
0000
0100
0000
0010
0000
0100
0000
1000
0000
0010
0000
,
0100
0001
0010
0100
1000
0010
1000
0001
,
0100
0010
0100
0001
0010
0100
1000
0100
,
0010
0001
1000
0010
0100
0001
0010
0100
,
1000
0001
1000
0100
0010
0100
1000
0010
,
0100
0001
0010
0100
1000
0100
0010
0001
,
1000
0010
0100
0001
0100
0010
1000
1000
,
0001
0000
0100
0000
0101
0000
0001
0000
1001
0000
1000
0000
0100
1000
0001
0100
,
0010
0000
2002
0000
0000
3003
0001
0000
0010
0000
0001
0000
1001
0000
1000
0000
,
0010
0200
0000
0301
1000
0100
0011
0001
,
1000
0200
0000
1300
0010
1000
0101
0001
,
0100
0000
0020
0000
0000
0000
1030
0100
0010
0000
0001
0000
1000
0010
1000
0000
,
0010
2000
0000
3001
1000
0100
0110
0010
,
0001
2000
0000
3010
0100
0001
0011
0010
,
0100
2000
0000
3100
0010
0001
1001
1000
,
0010
0000
0200
0000
0000
0000
0310
0000
1000
0000
0001
0000
0011
0000
0010
0001
,
1000
0010
0200
0000
0000
0000
0301
0000
0000
0000
0000
0000
1001
0000
0000
0000
,
1000
0010
0000
0100
0000
0000
0101
0000
,
0001
0010
0100
1000
0010
0100
0001
0010
,
0100
1000
0010
1000
0001
0100
0010
0010
,
0100
0002
0000
1003
0100
0000
1001
0000
,
0001
0100
0000
0000
0010
0000
1001
1000
,
0010
0000
0020
0000
0000
0000
0130
0010
1000
0000
0001
0010
0100
0000
1000
0010
,
0100
0000
0001
0100
0010
0000
1000
0100
0010
0000
0001
0100
0010
0000
1000
0000
,
0001
0010
0200
0000
1000
0000
1000
0000
,
1300
0000
0000
0001
1000
0010
0100
0001
0100
0010
1000
0010
0100
0001
0100
0010
,
1000
0100
0010
0001
1000
0000
0000
0000
0000
0000
0000
0000
0000
0000
0000
0000
;

//---------------dance-single - NIQ9----------------
#NOTES:
     dance-single:
     NIQ9:
     Medium:
     12:
     1.000,1.000,0.294,0.543,0.599,1334.000,58.000,107.000,33.000,0.000:
0000
0000
0000
0000
,
0000
0000
0000
0000
,
0000
0000
0000
0000
,
0000
0000
0000
0000
,
0000
0000
0000
0000
,
0011
0110
1100
1001
,
0001
1000
0100
0010
0001
0100
0001
0000
,
1100
0110
0011
1001
,
1000
0100
0010
0001
0100
0010
0100
0000
,
0101
0110
0101
1001
,
0001
1000
0100
0010
0100
1000
0001
0000
,
1001
1100
0011
0202
,
0003
0000
0310
1000
0001
0000
0010
0000
,
M000
00M0
0M00
000M
00M0
M000
1001
0001
,
0100
0010
1000
0010
0100
0001
0010
0100
,
1000
0100
0010
0001
1000
0010
0100
0001
,
1000
0000
0001
0010
0001
0010
0001
0000
0010
0000
0001
0000
1001
0000
1000
0000
,
0010
0010
0100
0100
0001
0001
0010
0010
,
0100
0100
1000
1000
0001
0001
0100
0010
,
2020
0030
3001
0010
2200
3000
0310
0001
,
2002
0000
0003
0000
3010
1000
0001
0100
0010
1000
0001
0100
0001
0000
1000
0000
,
0000
0100
0000
0010
0100
1000
0010
0100
,
0000
0001
0000
1000
0100
1000
0001
0100
,
0000
0010
0000
0100
0010
1000
0001
0010
,
0000
0100
0000
0010
0100
1000
0001
0000
,
1000
0010
0000
0100
0010
1000
0001
0000
,
0010
0100
0000
0010
0001
1000
0001
0000
,
0100
0010
0000
1000
0010
1000
0001
1000
,
0100
0000
0010
0000
0001
1000
0001
1000
0010
1000
0001
0100
0001
0000
1000
0000
,
0100
0010
0001
1000
0010
0100
0010
0100
,
0001
1000
0010
1000
0001
0100
0001
0010
,
0100
1000
0100
0010
0001
1000
0001
0100
,
0010
0000
1000
0000
0001
0000
0010
0000
0001
0000
1000
0000
0010
0100
0001
0100
,
0010
0000
0100
0000
0001
0000
2000
0000
0000
0000
3001
0000
0010
0001
0010
0100
,
1000
0001
0100
0020
0100
1030
0001
1000
,
0100
0010
0001
0000
1000
0000
0010
0000
0100
0001
0010
0000
0100
0000
1000
0000
,
0010
1000
0100
0000
0010
0000
0001
0000
0100
0010
1000
0000
0002
0000
0103
0000
,
0010
2000
3100
0020
0032
0103
0020
0130
,
0001
0020
0130
2000
3200
0310
0002
0103
,
0010
2000
3001
0020
0230
1300
0002
0103
,
0010
0200
0301
0020
0230
2300
3002
1003
,
0010
0200
0310
2000
3200
0310
0002
0103
,
0010
0200
0310
2000
3002
0013
0200
1300
,
0010
0100
0001
0010
0100
0010
0001
1000
,
0010
0000
0100
0000
0001
0100
0001
0100
0001
0100
0001
0100
0010
0000
1000
0000
,
0001
1000
0001
0000
1000
0000
0100
0000
0010
0001
0010
0000
0001
0000
1000
0000
,
0010
0100
0010
0000
0100
0000
0001
0000
1000
0000
0001
0000
0010
0000
0100
0000
,
1000
0100
1000
0000
0001
0000
0100
0000
0010
1000
0010
0000
0100
0000
0001
0000
,
1000
0000
0001
0000
0010
0000
0100
0000
0010
0001
1000
0000
0001
0000
0100
0000
,
0010
1000
0010
0000
1000
0000
0001
0000
0010
0100
0010
0000
0001
0000
1000
0000
,
0010
1000
0010
0000
0100
0000
0010
0000
1000
0001
1000
0000
0001
0010
0001
0010
,
0001
0010
0100
1000
0001
0000
0100
0000
0001
0000
1000
0000
0000
0000
0000
0001
,
0000
2002
0000
3003
1000
0000
0010
0100
,
0000
0202
0000
0303
0010
0000
1000
0100
,
0010
0001
0000
1000
0010
1000
0001
0100
,
0000
0000
0220
0000
0030
0000
0310
0000
1000
0000
0010
0100
0001
0000
1000
0000
,
0010
0200
0000
0310
1000
0100
1001
0001
,
0100
0020
0000
1030
0100
0010
0011
0001
,
1000
0020
0000
0130
0001
0010
0110
0100
,
1000
0000
0002
0000
0000
0000
0103
0000
0010
0000
1000
0000
0001
1000
0100
1000
,
0100
0020
0000
0031
1000
0000
1010
0010
,
0100
0002
0000
0013
0100
0000
1100
0100
,
0010
0001
1000
0010
0100
0001
0010
0100
,
1000
0000
0001
0000
0010
0000
0001
0000
1000
0000
0100
0000
1100
0000
1000
0100
,
0010
0002
0000
1003
0010
0000
1001
0000
,
0000
0100
0000
0000
0010
0000
1001
1000
,
0100
0000
0020
0000
0000
0000
0031
1000
0010
0000
1000
0001
0100
0000
0001
1000
,
0100
0000
1000
0001
0010
0000
0001
1000
0010
0000
0100
0000
0001
0000
1000
0000
,
0100
0010
M001
0M00
M000
00M0
0M00
000M
,
00M0
0M00
1001
0001
0100
0010
1000
0010
,
0100
0001
1000
0100
0010
0100
1000
0001
,
0010
0100
1000
0001
1000
0010
0100
0001
,
0100
0010
1000
0010
1000
0000
0001
0000
0010
0000
0100
0000
1000
0000
0010
0000
,
0100
0001
1000
0010
1000
0100
0010
0001
,
1000
0100
1000
0010
1000
0010
1000
0001
,
0100
0010
1000
0100
0010
0001
0100
0010
,
0100
0001
1000
0100
0010
0100
1000
0001
,
0100
0010
1000
0100
0010
0100
1000
1000
,
0010
0100
0001
0010
0100
1000
0001
0001
,
0100
0010
0100
0001
0010
0100
1000
1000
,
0100
0010
0001
0100
0010
0100
0001
1000
,
0100
0010
0001
0010
0100
1000
0010
0100
,
0001
0100
0010
1000
0100
0010
0001
0001
,
0100
0010
1000
0100
0010
0001
0001
1000
,
0010
0100
0002
0000
0100
0000
0100
0000
,
0100
0003
0101
0000
0100
0000
0020
0000
,
1000
0000
0000
0000
2030
0000
0000
0000
0001
0000
0000
0000
3001
0010
0001
0010
,
0001
0010
0001
0000
0000
0000
0000
0000
1000
0010
1000
0010
1000
0000
0000
0000
,
0001
0100
0001
0100
0010
0000
0000
0000
0010
0000
0000
0000
0010
0000
0000
0000
,
0010
1001
1000
0100
,
0010
0000
0000
0000
0001
0100
0001
0100
0001
0100
0001
0100
0010
0000
0000
0000
,
1000
0100
1000
0100
1000
0100
1000
0100
0010
0000
0000
0000
0001
1000
0100
0010
,
0001
0000
0000
0000
0001
0010
0001
0010
0001
0010
0001
0010
0001
0010
0001
0010
,
0001
0010
0001
0010
0100
1000
0001
0100
0001
0100
0010
1000
0001
1000
0001
0010
,
0001
1000
0010
0100
0010
1000
0010
1000
0010
1000
0010
1000
0010
1000
0010
1000
,
0010
1000
0010
1000
0002
0000
0000
0000
0000
0000
0000
0000
0000
0000
0000
0000
,
0003
0000
0000
0001
0010
0100
1000
0100
0010
0100
1000
0001
,
1000
0010
0100
0001
0100
0010
1000
0001
0010
0100
1000
0100
,
0010
0100
1000
0010
0100
0001
0010
0100
1000
0001
1000
0010
,
0100
0000
0000
0000
0001
0000
0000
0000
0010
0000
0000
0000
0400
0000
0000
0000
0000
0000
0000
0000
0000
0000
0000
0000
0000
0000
0000
0000
0000
0000
0000
0000
0000
0000
0000
0000
1300
0000
0000
0100
0000
0000
1000
0000
0000
0000
0000
0000
,
0001
0100
0001
0000
1000
0000
0100
0000
1000
0001
1000
0000
0100
0000
0010
0000
,
0001
0010
0001
0000
1000
0000
0100
0000
1000
0001
1000
0000
0010
0000
0100
0000
,
0001
0100
0001
0000
0100
0000
0010
0000
1000
0000
0100
0000
0010
0000
0001
0000
,
0100
0010
0100
0001
0010
0100
1000
0010
,
0100
0000
0001
0000
1000
0000
0001
0000
0010
0100
1000
0000
0001
0000
1000
0000
,
0010
0100
0001
0000
1000
0000
0100
0000
0010
0001
0010
0000
0100
0000
1000
0000
,
0001
0100
0010
1000
0002
0000
0000
0000
0000
0000
0000
0000
0000
0000
0000
0000
,
0013
0100
1000
0002
0000
0000
0000
0000
0000
0103
0000
0000
,
0010
1000
0010
0100
0020
0000
0000
0000
0000
0000
0000
0000
0000
0000
0000
0000
,
0000
1030
1001
0011
,
0001
0010
0100
2000
0000
0000
0000
0000
0000
0000
0000
0000
,
3001
0000
1001
1000
0100
0010
0100
1000
,
0010
0100
0002
0000
0000
0000
0000
0000
,
0103
0000
0200
0000
0310
1000
0001
0000
,
0010
0000
0000
0001
1000
0100
0010
0100
1000
0010
1000
0001
,
0100
0010
0100
0001
1000
0100
0010
0100
1000
0001
0010
0100
,
1000
0001
1000
0010
0100
0010
1000
0001
0010
0100
1000
0100
,
0010
0100
1000
0001
0010
0100
1000
0100
0010
0001
1000
0010
,
1000
0001
0100
0010
1000
0001
0010
0001
1000
0010
1000
0001
,
0100
0010
1000
0010
0100
0001
1000
0001
0010
0100
1000
0001
,
1000
0100
0010
0001
1000
0100
0010
0100
1000
0002
0000
0000
,
0000
0000
0000
0003
2001
0000
0000
0000
3200
0000
0000
0000
0320
0000
0000
0000
,
0032
0000
0000
0000
1003
0010
1000
0010
0100
0000
0001
0000
1000
0000
0100
1000
,
0100
1000
0001
0000
1000
0000
0010
0000
0100
0001
0100
0001
1000
0000
0100
0000
,
0010
0001
1000
0M00
00M0
M000
000M
00M0
,
M001
0010
M100
000M
00M0
0M00
M000
00M0
,
0M00
00M0
2002
0000
0000
0000
0000
0000
,
0000
0000
3003
0000
0001
1000
0100
0010
0100
1000
0001
0010
0100
0010
0001
1000
,
0010
1000
0001
0100
0010
0000
M000
0000
000M
0000
00M0
0000
M000
0000
00M0
0000
,
1010
1001
0202
0000
0000
0000
0000
0000
,
0000
0303
1000
0100
0010
0001
0100
0010
,
0100
0001
1000
0100
0010
0001
0100
0010
,
0100
0001
0010
0100
0010
0001
1000
0010
,
0100
0001
0100
0010
1000
0100
0010
0100
,
1000
0001
0010
0100
1000
0010
0100
0001
,
0010
0000
0001
0000
1000
0010
1000
0001
0100
0010
1000
0010
1000
0001
0100
0010
,
1000
0001
0100
0010
1000
0000
0001
0000
0010
0000
0100
0000
1000
0000
0100
0000
,
0010
0100
1000
0010
1000
0001
0100
0010
,
0100
0001
1000
0100
0010
0001
0010
0100
,
1000
0000
0001
0000
0010
0001
0010
0100
1000
0000
0001
0000
0100
0010
1000
0000
,
0001
1000
0100
0010
0001
0000
1000
0000
1000
0000
0100
0000
1000
0000
0010
0000
,
0200
0302
0023
0130
1000
0100
0010
0001
,
1000
0010
0100
0001
0100
0010
1000
0100
,
0010
0001
0010
0100
1000
0010
0100
0001
,
1000
0100
1000
0100
0010
0000
0001
0000
0010
0000
0100
0000
1000
0000
0010
0000
,
2000
3002
0203
0320
2030
3002
0023
0230
,
0320
0032
2003
3020
0230
0302
2003
3200
,
0320
0000
0032
0000
0023
0000
0230
0000
2300
0000
3002
0000
1003
0010
1000
0001
,
0010
0100
0010
0001
1000
0000
0100
0000
0010
0000
0100
0000
1000
0000
0010
0000
,
0100
0001
0010
0100
1000
0010
1000
0001
,
0100
0010
0100
0001
0010
0100
1000
0100
,
0010
0001
1000
0010
0100
0001
0010
0100
,
1000
0001
1000
0100
0010
0100
1000
0010
,
0100
0001
0010
0100
1000
0100
0010
0001
,
1000
0010
0100
0001
0100
0010
1000
1000
,
0001
0000
0100
0000
0101
0000
0001
0000
1001
0000
1000
0000
0100
1000
0001
0100
,
0010
0000
2002
0000
0000
3003
0001
0000
0010
0000
0001
0000
1001
0000
1000
0000
,
0010
0200
0000
0301
1000
0100
0011
0001
,
1000
0200
0000
1300
0010
1000
0101
0001
,
0100
0000
0020
0000
0000
0000
1030
0100
0010
0000
0001
0000
1000
0010
1000
0000
,
0010
2000
0000
3001
1000
0100
0110
0010
,
0001
2000
0000
3010
0100
0001
0011
0010
,
0100
2000
0000
3100
0010
0001
1001
1000
,
0010
0000
0200
0000
0000
0000
0310
0000
1000
0000
0001
0000
0011
0000
0010
0001
,
1000
0010
0200
0000
0000
0000
0301
0000
0000
0000
0000
0000
1001
0000
0000
0000
,
1000
0010
0000
0100
0000
0000
0101
0000
,
0001
0010
0100
1000
0010
0100
0001
0010
,
0100
1000
0010
1000
0001
0100
0010
0010
,
0100
0002
0000
1003
0100
0000
1001
0000
,
0001
0100
0000
0000
0010
0000
1001
1000
,
0010
0000
0020
0000
0000
0000
0130
0010
1000
0000
0001
0010
0100
0000
1000
0010
,
0100
0000
0001
0100
0010
0000
1000
0100
0010
0000
0001
0100
0010
0000
1000
0000
,
0001
0010
0200
0000
1000
0000
1000
0000
,
1300
0000
0000
0001
1000
0010
0100
0001
0100
0010
1000
0010
0100
0001
0100
0010
,
1000
0001
0100
0001
1000
0000
0000
0000
0000
0000
0000
0000
0000
0000
0000
0000
;

//---------------dance-single - Blank----------------
#NOTES:
     dance-single:
     Blank:
     Easy:
     1:
     0.000,0.000,0.000,0.000,0.000,0.000,0.000,0.000,0.000,0.000:
0000
0000
0000
0000
;
