#TITLE:Extratone in a Perfect World;
#SUBTITLE:;
#ARTIST:Annoying Ringtone;
#TITLETRANSLIT:;
#SUBTITLETRANSLIT:;
#ARTISTTRANSLIT:;
#CREDIT:Happy Feet;
#BANNER:../speedcore rejects ban.png;
#BACKGROUND:../speedcore rejects bg.png;
#LYRICSPATH:;
#CDTITLE:;
#MUSIC:Extratone in A Perfect World.ogg;
#OFFSET:-0.080;
#SAMPLESTART:24.082;
#SAMPLELENGTH:12.000;
#SELECTABLE:YES;
#BPMS:0.000=250.000;
#STOPS:;
#BGCHANGES:;
// cache tags:
#FIRSTBEAT:0.000;
#LASTBEAT:433.000;
#SONGFILENAME:Songs/Speedcore Rejects/Extratone in a Perfect World - [Happy Feet!]/Annoying Ringtone - Extratone in A Perfect World (1000BPM Extratone).sm;
#HASMUSIC:1;
#HASBANNER:1;
#MUSICLENGTH:104.280;
// end cache tags

//---------------dance-single - J. Nero & S. Sanchez----------------
#NOTES:
     dance-single:
     J. Nero & S. Sanchez:
     Hard:
     18:
     1.000,1.000,0.499,1.000,1.000,987.000,52.000,106.000,60.000,14.000:
1000
0001
1000
0010
1000
0001
0010
0100
1000
0001
0010
0001
1000
0100
0010
0001
,
1000
0001
0100
0001
1000
0010
0100
0001
1000
0001
0010
0100
0010
0100
1000
0001
,
1000
0001
0100
0010
1000
0010
1000
0001
1000
0100
0010
0001
1000
0100
1000
0001
,
1000
0100
1000
0001
0100
0001
1000
0001
1000
0010
0100
0001
0200
0000
0000
0000
,
0310
1000
0010
1000
0001
1000
0100
1000
0001
0010
0001
1000
0010
1000
0001
1000
,
0100
0010
0001
0010
0100
1000
0001
1000
0010
0100
0001
1000
0001
0010
0001
1000
,
0001
0100
0010
1000
0010
0100
0010
1000
0100
0010
0100
1000
0001
0100
0001
1000
,
0010
0100
0001
1000
0100
0010
0001
1000
0001
0000
0400
0000
0310
0000
4000
0000
,
3100
0010
0001
0010
0001
0010
0100
1000
0100
1000
0001
1000
0010
1000
0010
0100
,
0010
1000
0001
1000
0001
0010
0100
1000
0001
1000
0010
0100
0010
1000
0001
0100
,
0001
1000
0001
0010
0100
0010
0001
1000
0010
0100
0010
1000
0001
1000
0001
0100
,
0001
1000
0010
1000
0100
1000
0001
1000
0001
0010
0100
1000
0002
0000
0000
0000
,
1003
0100
1000
0010
1000
0001
1000
0001
0010
0100
1000
0100
1000
0001
1000
0001
,
0100
0001
1000
0010
1000
0001
0010
0001
1000
0001
1000
0100
1000
0100
0010
0001
,
1000
0001
0100
0001
1000
0010
0100
0001
1000
0100
1000
0001
0010
0100
1000
0001
,
1000
0000
0001
0000
1000
0000
0001
0000
1000
0001
1000
0001
4M00
0000
30M4
0000
,
0103
0010
0100
0001
1000
0001
0010
0100
1000
0001
1000
0010
1000
0001
0100
0001
,
2000
0000
3022
0000
2233
0000
3302
0023
,
0031
0100
0001
1000
0001
1000
0010
1000
0001
0100
0001
1000
0100
1000
0001
1000
,
0020
0000
0230
0302
2003
3000
0200
2300
,
3001
0010
0001
1000
0001
1000
0010
0100
0010
1000
0001
1000
0100
0010
0001
1000
,
0020
0000
2230
0000
3322
0000
2033
3020
,
0130
0001
1000
0010
1000
0001
0100
0010
0100
0001
0010
0100
1000
0100
1000
0001
,
0020
0000
0032
2003
3020
0000
0230
0302
,
2003
0000
3020
0000
0230
0304
2003
3004
,
0103
0010
0100
0001
1000
0001
0010
0001
1000
0100
1000
0001
0100
0010
0100
0001
,
2000
0000
3002
0000
0103
0040
0130
0040
,
2030
0000
3200
0000
0320
0034
0023
0034
,
2003
0000
3020
0000
0230
0304
0203
0304
,
0M03
0M00
0M00
0M00
0M00
0M00
0M00
0M00
,
0M01
0010
0001
1000
0001
0100
0001
1000
0010
1000
0010
0100
0010
1000
0001
1000
,
0100
0000
0000
0000
0000
0000
0000
0000
0000
0000
0000
0000
0000
0000
0000
0000
0000
0000
0000
0000
0000
0000
0000
0000
1000
0000
0000
0000
0000
0000
0000
0000
0000
0000
0000
0000
0000
0000
0000
0000
0000
0000
0000
0000
0000
0000
0000
0000
0001
0000
0000
0000
0000
0000
0000
0000
0000
0000
0000
0000
0000
0000
0000
0000
0000
0000
0000
0000
0000
0000
0000
0000
2000
0000
0000
0000
0000
0000
0000
0000
0000
0000
0000
0000
0000
0000
0000
0000
0000
0000
0000
0000
0000
0000
0000
0000
3002
0000
0000
0000
0000
0000
0000
0000
0000
0000
0000
0000
0003
0000
0000
0000
0000
0000
0000
0000
0000
0000
0000
0000
0200
0000
0000
0000
0000
0000
0000
0000
0300
0000
0000
0000
0000
0000
0000
0000
0000
0000
0000
0000
0000
0000
0000
0000
0020
0000
0000
0000
0000
0000
0030
0000
0000
0000
0000
0000
0000
0000
0000
0000
0000
0000
0000
0000
0000
0000
0000
0000
2000
0000
0000
0000
3000
0000
0000
0000
0000
0000
0000
0000
0000
0000
0000
0000
0000
0000
0000
0000
0000
0000
0000
0000
,
0002
0003
0000
0000
0000
0000
0000
0000
0000
0000
0000
0000
0000
0000
0000
0000
1000
0000
0000
0000
0000
0000
0000
0000
0000
0000
0000
0000
0000
0000
0000
0000
0010
0000
0000
0000
0000
0000
0000
0000
0000
0000
0000
0000
0000
0000
0000
0000
0100
0000
0000
0000
0000
0000
0000
0000
0000
0000
0000
0000
0000
0000
0000
0000
,
0010
1000
0001
1000
,
0100
0010
0001
1000
,
0001
1000
0001
1000
,
0010
0100
0010
1000
,
0001
0010
0001
0010
,
0100
1000
0001
1000
,
0010
0100
0010
0100
,
0110
0000
0010
0000
1010
0000
1000
0001
,
0010
0100
1100
1000
,
1001
0000
0001
0000
0101
0000
0001
1000
,
0100
0010
0011
0001
,
1001
0000
1000
0000
1010
0000
0010
0100
,
0010
1000
1001
0001
,
0011
0000
0100
0000
1100
0000
1000
0001
,
0010
0000
0001
0000
1000
0000
0000
0000
0001
0100
0001
0100
0002
0000
0000
0000
,
1003
0000
0010
0000
1010
0000
1000
0001
,
0010
0001
1001
1000
,
1010
0000
0010
0000
0110
0000
0100
0001
,
0010
0001
0011
0001
,
0111
0100
0010
0001
,
1000
0100
0010
0001
,
1011
0001
1000
0001
,
1000
0010
0100
0010
,
1000
0010
0100
0010
,
1000
0100
0010
0001
,
1000
0001
0100
0001
,
0010
0100
4000
0000
,
3001
0100
0010
0100
,
0001
1000
0001
0010
,
0100
0010
0001
1000
,
0100
0010
0001
1000
,
0001
0100
0001
1000
0001
1000
0001
1000
0001
0100
0010
0100
0001
1000
0001
0010
,
0100
1000
0001
1000
0001
0100
0010
1000
0001
0010
0100
0010
0100
1000
0001
1000
,
0010
0100
0010
1000
0001
1000
0010
1000
0001
0100
0001
1000
0001
0010
0001
1000
,
0100
1000
0001
1000
0010
1000
0001
1000
0200
0000
2300
0000
3002
0000
0000
0000
,
0013
0100
0010
0001
1000
0001
1000
0010
0100
0010
1000
0001
1000
0100
1000
0001
,
0010
0001
1000
0001
1000
0001
0100
0001
1000
0001
0010
0100
1000
0001
1000
0001
,
0100
0010
1000
0001
0010
0100
1000
0001
1000
0100
1000
0001
1000
0001
0010
0001
,
0010
0100
0010
0001
1000
0001
0100
0001
1000
0010
1000
0001
2000
0000
0000
0000
,
3001
0100
0001
1000
0001
0010
0001
0010
0100
1000
0100
1000
0001
1000
0001
0100
,
0010
1000
0001
0010
0100
0010
0001
1000
0001
0100
0001
1000
0010
0100
0001
1000
,
0010
1000
0001
1000
0001
1000
0100
0010
0001
1000
0100
1000
0001
0010
0001
1000
,
0001
0000
1000
0000
0001
0000
1000
0000
0001
1000
0001
1000
0004
0000
4003
0000
,
3010
0100
0001
0100
0001
1000
0100
1000
0001
0010
0001
1000
0001
1000
0010
1000
,
0020
0000
0232
0000
2323
0000
3230
0302
,
1003
0100
1000
0001
1000
0010
0100
0010
1000
0001
1000
0001
0010
0001
1000
0001
,
0200
0000
0320
2030
3002
0000
0023
0230
,
1300
0001
1000
0001
0100
0001
1000
0010
1000
0001
0010
0100
1000
0001
1000
0100
,
2000
0000
3202
0000
2323
0000
3230
0320
,
0130
0001
1000
0001
0010
0100
1000
0100
1000
0001
0010
0001
1000
0001
0100
0001
,
2000
0000
3200
2300
3002
0000
0023
0000
,
0032
0000
2003
0000
3010
0400
0310
0400
,
0302
0000
0023
0000
0130
4000
3100
4000
,
3020
0000
0230
0000
0301
0040
0031
0040
,
0032
0000
2003
0000
3100
0040
0130
0040
,
0032
0000
0023
0000
0031
4000
3001
4000
,
3020
0000
2030
0000
3001
0400
0301
0400
,
0320
0000
0000
0000
2030
0000
0000
0000
3002
0000
0023
0000
0230
0300
2000
3000
,
0200
0000
0000
0000
0000
0000
0000
0000
0300
0000
0000
0000
0000
0000
0000
0000
0000
0000
0000
0000
0000
0000
0000
0000
2000
0000
0000
0000
0000
0000
0000
0000
3000
0000
0000
0000
0000
0000
0000
0000
0000
0000
0000
0000
0000
0000
0000
0000
0002
0000
0000
0000
0000
0000
0003
0000
0000
0000
0000
0000
0000
0000
0000
0000
0000
0000
0000
0000
0000
0000
0000
0000
0200
0000
0000
0000
0000
0000
0300
0000
0000
0000
0000
0000
0000
0000
0000
0000
0000
0000
0000
0000
0000
0000
0000
0000
0002
0000
0000
0000
0003
0000
0000
0000
0000
0000
0000
0000
0000
0000
0000
0000
0000
0000
0000
0000
0000
0000
0000
0000
2000
0000
0000
0000
3000
0000
0000
0000
0000
0000
0000
0000
0000
0000
0000
0000
0000
0000
0000
0000
0000
0000
0000
0000
0020
0000
0000
0030
0000
0000
0000
0000
0000
0000
0000
0000
0000
0000
0000
0000
0000
0000
0000
0000
0000
0000
0000
0000
0200
0000
0000
0300
0000
0000
0000
0000
0000
0000
0000
0000
0000
0000
0000
0000
0000
0000
0000
0000
0000
0000
0000
0000
,
0001
1000
0001
0100
0010
1000
0100
1000
0001
0010
0100
1000
0001
1000
0001
0100
,
0001
M000
00M0
M000
00M0
M000
00M0
M000
000M
0M00
000M
0M00
000M
0M00
000M
0M00
,
100M
0010
1000
0001
1000
0100
1000
0001
0100
0010
1000
0001
0010
0100
1000
0001
,
10M0
0M00
00M0
0M00
00M0
0M00
00M0
0M00
000M
M000
000M
M000
000M
M000
000M
M000
,
0001
0100
0001
1000
0010
0100
0001
0010
0100
1000
0001
1000
0010
1000
0001
0010
,
M001
0M00
M000
0M00
M000
0M00
M000
0M00
00M0
000M
00M0
000M
00M0
000M
00M0
000M
,
10M0
0001
1000
0001
0100
0001
1000
0010
1000
0001
0010
0100
1000
0001
1000
0001
,
0100
0000
0001
0000
0100
0000
0001
0000
1000
0001
1000
0001
4000
0000
3004
0000
,
0103
0010
0100
0001
1000
0100
0010
0001
1000
0001
1000
0001
0100
0001
1000
0010
,
1000
0100
1000
0010
0100
0001
0010
0100
,
1000
0100
1000
0001
1000
0001
0010
0001
1000
0001
0100
0001
1000
0010
0100
0010
,
1000
0001
0100
0001
0010
0001
0010
0001
,
1000
0010
0100
0010
1000
0100
1000
0001
1000
0001
1000
0001
0100
0010
0100
0001
,
0100
0010
1000
0001
1000
0100
1000
0010
,
0100
0001
1000
0001
1000
0100
1000
0001
0010
0100
1000
0001
0100
0001
1000
0010
,
1000
0000
0100
0000
1000
0000
0001
0000
0100
0001
0100
0001
1000
0000
0001
0000
,
2002
3003
0000
0000
;

//---------------dance-single - J. Nero & S. Sanchez----------------
#NOTES:
     dance-single:
     J. Nero & S. Sanchez:
     Challenge:
     19:
     1.000,1.000,0.336,0.796,1.000,1132.000,35.000,83.000,11.000,2.000:
1000
0001
1000
0010
1000
0001
0010
0100
1000
0001
0010
0001
1000
0100
0010
0001
,
1000
0001
0100
0001
1000
0010
0100
0001
1000
0001
0010
0100
0010
0100
1000
0001
,
1000
0001
0100
0010
1000
0010
1000
0001
1000
0100
0010
0001
1000
0100
1000
0001
,
1000
0100
1000
0001
0100
0001
1000
0001
1000
0010
0100
0001
0100
0010
1000
0010
,
1000
0001
0010
0001
0010
0001
1000
0001
0100
0010
0100
0001
1000
0001
1000
0001
,
0010
0100
1000
0100
0010
0001
1000
0001
0100
0010
1000
0001
1000
0100
1000
0001
,
1000
0010
0100
0001
0100
0010
0100
0001
0010
0100
0010
0001
1000
0010
1000
0001
,
0100
0010
1000
0001
0010
0100
1000
0001
1000
0010
0100
0010
1000
0001
0100
0010
,
1000
0001
1000
0001
0100
0010
0100
0001
1000
0001
1000
0001
0100
0001
0100
0010
,
0100
0001
1000
0001
1000
0100
0010
0001
1000
0001
0100
0010
0100
0001
1000
0010
,
1000
0001
1000
0100
0010
0100
1000
0001
0100
0010
0100
0001
1000
0001
1000
0010
,
1000
0001
0100
0001
0010
0001
1000
0001
1000
0100
0010
0001
1000
0100
0010
0001
,
1000
0010
0100
0010
1000
0001
1000
0001
0010
0100
1000
0100
1000
0001
1000
0001
,
0100
0001
1000
0010
1000
0001
0010
0001
1000
0001
1000
0100
1000
0100
0010
0001
,
1000
0001
0100
0001
1000
0010
0100
0001
1000
0100
1000
0001
0010
0100
1000
0001
,
1000
0000
0100
0000
0010
0000
0100
0000
1000
0001
1000
0001
4M00
3000
00M4
0003
,
0100
0010
0100
0001
1000
0001
0010
0100
1000
0001
1000
0010
1000
0001
0100
0001
,
2000
0000
3002
0000
0203
0000
0301
0010
,
0001
0100
0001
1000
0001
1000
0010
1000
0001
0100
0001
1000
0100
1000
0001
1000
,
0020
0000
0230
0302
2003
3000
0200
2300
,
3001
0010
0001
1000
0001
1000
0010
0100
0010
1000
0001
1000
0100
0010
0001
1000
,
0020
0000
2030
0000
3002
0000
1003
0010
,
0100
0001
1000
0010
1000
0001
0100
0010
0100
0001
0010
0100
1000
0100
1000
0001
,
0020
0000
0032
2003
3020
0000
0230
0302
,
2003
0000
3020
0000
0230
0304
2003
3004
,
0103
0010
0100
0001
1000
0001
0010
0001
1000
0100
1000
0001
0100
0010
0100
0001
,
2000
0000
3002
0000
0103
0040
0130
0040
,
2030
0000
3200
0000
0320
0034
0023
0034
,
2003
0000
3020
0000
0230
0304
0203
0304
,
1M03
0M01
0M10
0M01
1M00
0M10
1M00
0M01
,
0M20
0230
2300
3002
,
1003
0000
0100
0000
0010
0000
0200
0300
2000
3000
0002
0003
0200
0300
0002
0003
,
2000
3000
0000
0000
0001
0000
0000
0000
0100
0000
0000
0000
0010
0000
0000
0000
,
0100
0001
1000
0001
,
0010
0100
1000
0001
,
1000
0001
1000
0001
,
0100
0010
0100
0001
,
1000
0100
1000
0100
,
0010
0001
1000
0001
,
0100
0010
0100
0010
,
1010
0000
1000
0000
1001
0000
0001
0010
,
0100
1000
1001
0001
,
0101
0000
0100
0000
0110
0000
0010
1000
,
0100
1000
1100
0100
,
0110
0000
0010
0000
0011
0000
0001
1000
,
0010
0100
0101
0001
,
1001
0000
1000
0000
1010
0000
0010
0100
,
0001
0000
1000
0000
0100
0000
0000
0000
1000
0010
1000
0010
0100
0001
0100
0001
,
1000
0000
0001
0000
1001
0000
1000
0001
,
0010
0100
1100
1000
,
1010
0000
0010
0000
0110
0000
0100
0001
,
0010
0000
0000
0000
0001
0000
1000
0001
1000
0000
0000
0000
0001
0000
0000
0000
,
1101
1000
0010
0100
,
0001
0010
0100
1000
,
1101
0001
0010
0100
,
1000
0010
0100
0010
,
1000
0010
0100
0010
,
1000
0100
0010
0001
,
1000
0001
0100
0001
,
0010
0000
0000
0000
0100
0000
0000
0000
1000
0001
1000
0001
1000
0001
1000
0001
,
1000
0000
0000
0000
0000
0000
0000
0000
0001
0100
0001
0100
0010
1000
0010
1000
,
0001
1000
0010
0100
0001
1000
0100
1000
0001
0010
0100
0010
0100
1000
0001
1000
,
0100
1000
0001
0100
0010
0100
0001
1000
0100
0010
0001
1000
0001
1000
0100
1000
,
0001
0010
0100
0010
0100
1000
0001
1000
0100
0010
0100
0010
0001
1000
0010
0100
,
0001
0100
0001
1000
0001
1000
0001
1000
0001
0100
0010
0100
0001
1000
0001
0010
,
0100
1000
0001
1000
0001
0100
0010
1000
0001
0010
0100
0010
0100
1000
0001
1000
,
0010
0100
0010
1000
0001
1000
0010
1000
0001
0100
0001
1000
0001
0010
0001
1000
,
0100
1000
0001
1000
0010
1000
0001
1000
0100
1000
0001
0100
0001
1000
0010
0100
,
0001
1000
0100
1000
0001
1000
0001
0100
0010
0100
0001
1000
0001
0010
0001
1000
,
0100
1000
0001
1000
0001
1000
0010
1000
0001
1000
0100
0010
0001
1000
0001
1000
,
0010
0100
0001
1000
0100
0010
0001
1000
0001
0010
0001
1000
0001
1000
0100
1000
,
0100
0010
0100
1000
0001
1000
0010
1000
0001
0100
0001
1000
0001
0100
0010
0100
,
0001
1000
0001
1000
0001
0010
0001
0010
0100
1000
0100
1000
0001
1000
0001
0100
,
0010
1000
0001
0010
0100
0010
0001
1000
0001
0100
0001
1000
0010
0100
0001
1000
,
0010
1000
0001
1000
0001
1000
0100
0010
0001
1000
0100
1000
0001
0010
0001
1000
,
0001
0000
1000
0000
0001
0000
1000
0000
0001
1000
0001
1000
0004
0003
4000
3000
,
0010
0100
0001
0100
0001
1000
0100
1000
0001
0010
0001
1000
0001
1000
0010
1000
,
0020
0000
0230
0000
0302
0000
0013
0100
,
1000
0100
1000
0001
1000
0010
0100
0010
1000
0001
1000
0001
0010
0001
1000
0001
,
0200
0000
0320
2030
3002
0000
0023
0230
,
1300
0001
1000
0001
0100
0001
1000
0010
1000
0001
0010
0100
1000
0001
1000
0100
,
2000
0000
3002
0000
2003
0000
3001
0100
,
0001
1000
0001
0100
0010
0100
0001
0100
0001
1000
0010
1000
0001
1000
0100
1000
,
0002
0000
0023
0230
2300
0000
3002
0000
,
0203
0000
0320
0030
0100
0040
0130
0040
,
2030
0000
3200
0000
0310
0004
0013
0004
,
0203
0000
0320
0000
1030
0400
1300
0400
,
2300
0000
3002
0000
0013
0400
0310
0400
,
2300
0000
3200
0000
1300
0004
1003
0004
,
0203
0302
1003
0001
,
1000
0001
1000
0001
1000
0001
1000
0001
1000
0000
0002
0003
0200
0300
0020
0030
,
2000
3000
0002
0003
0020
0030
0200
0300
2000
3000
0020
0030
0200
0300
0002
0003
,
1000
0001
1000
0100
0010
0001
0100
0001
1000
0010
0100
0001
1000
0001
1000
0010
,
1000
0010
0100
0001
0100
0001
1000
0100
1000
0001
0010
0100
1000
0001
1000
0100
,
1000
0001
1000
0001
1000
0010
1000
0010
0100
0001
1000
0001
0010
0100
1000
0001
,
1000
0100
0010
0001
1000
0100
1000
0001
1000
0010
0100
0001
1000
0001
0010
0100
,
1000
0100
1000
0001
0010
0100
1000
0010
0100
0001
1000
0001
1000
0010
1000
0010
,
0100
0001
0100
0001
1000
0100
0010
0001
1000
0100
1000
0001
0100
0001
1000
0010
,
0100
0001
0100
0010
1000
0010
1000
0001
1000
0001
0010
0100
1000
0001
1000
0001
,
0010
0000
0100
0000
1000
0000
0001
0000
1000
0001
1000
0001
4000
3000
0004
0003
,
0100
0010
0100
0001
1000
0100
0010
0001
1000
0001
1000
0001
0100
0001
1000
0010
,
1000
0010
0100
0001
0100
0001
1000
0100
1000
0001
0100
0010
0100
0001
1000
0100
,
0010
0001
1000
0001
1000
0001
0010
0001
0010
0001
1000
0001
0010
0100
1000
0001
,
1000
0100
0010
0001
0010
0001
1000
0010
1000
0001
0100
0010
0100
0001
1000
0100
,
1000
0100
0010
0001
0010
0001
1000
0010
1000
0001
0100
0001
0100
0010
1000
0001
,
0100
0001
1000
0100
1000
0100
0010
0001
1000
0001
0100
0010
1000
0010
0100
0001
,
0100
0001
1000
0001
1000
0100
1000
0001
0010
0100
1000
0001
0100
0001
1000
0010
,
1000
0000
0100
0000
1000
0000
0001
0000
0100
0001
0100
0001
1000
0000
0100
0000
,
0020
0030
0000
0000
;
