#TITLE:One More Lovely;
#SUBTITLE:;
#ARTIST:Risk Junk;
#TITLETRANSLIT:;
#SUBTITLETRANSLIT:;
#ARTISTTRANSLIT:;
#CREDIT:;
#BANNER:OneMoreLovelyBNR.PNG;
#BACKGROUND:OneMoreLovelyBG.PNG;
#LYRICSPATH:;
#CDTITLE:!eggmanTitle.png;
#MUSIC:One_More_Lovely.mp3;
#OFFSET:-1.260;
#SAMPLESTART:29.999;
#SAMPLELENGTH:12.000;
#SELECTABLE:YES;
#BPMS:0.000=200.000;
#STOPS:;
#BGCHANGES:;
// cache tags:
#FIRSTBEAT:4.000;
#LASTBEAT:353.500;
#SONGFILENAME:Songs/aaa cant/One More Lovely/OneMoreLovely.sm;
#HASMUSIC:1;
#HASBANNER:1;
#MUSICLENGTH:112.724;
// end cache tags

//---------------dance-single - Blank----------------
#NOTES:
     dance-single:
     Blank:
     Hard:
     9:
     0.783,0.745,1.000,0.053,0.022,449.000,161.000,6.000,0.000,0.000:

0000
0000
0000
0000
,
0001
0010
0000
0010
0001
0100
0010
1000
,
0000
0010
0000
0010
0100
0001
1000
0100
,
0000
0010
0000
0010
0100
1000
0010
0100
,
0001
0001
0010
0010
0100
0100
1000
0000
,
0100
0001
0000
0001
0100
1000
0010
0100
,
0000
0001
0000
0001
1000
0010
0100
1000
,
0000
0001
0000
0001
1000
0100
0001
0020
,
0030
0010
0100
0100
1000
1000
0001
0000
,
0100
0010
0000
0010
1000
0100
0010
0001
,
0000
0010
0000
0010
0100
1000
0010
0100
,
0000
0010
0000
0010
0100
0001
0010
0100
,
1000
1000
0010
0010
0001
0001
0100
0100
,
1000
0100
0000
0100
0010
0001
1000
0010
,
0000
0100
0000
0100
0001
0010
0100
0010
,
0000
0100
0000
0100
1000
0100
0010
0100
,
1100
0110
0101
1001
,
1100
0110
0101
1001
,
0011
1001
1010
0110
,
0110
1010
1001
1100
,
2100
0001
0100
0010
,
0001
0010
0100
0010
,
3200
1000
0010
0001
,
0010
0010
1000
0010
,
0320
0001
0100
0100
,
1000
0100
0001
0001
,
0032
0010
1000
0103
,
4000
0004
0000
0000
0000
3003
1001
0000
,
0110
0010
0010
0110
,
0011
1100
0101
1010
,
1001
1000
1000
1001
,
0101
0011
1100
1010
,
0110
0010
0100
0110
,
0011
0101
1100
1010
,
0101
0100
0001
0101
,
1010
1000
0000
0100
0000
0010
0000
0000
,
0110
0000
0000
0000
0100
0000
0000
0000
0100
0010
0100
0000
1001
0000
0000
0000
,
1000
0100
0010
0100
0010
0001
0100
0010
,
1000
0001
0100
0010
1000
0100
0010
0100
,
1000
0010
0100
0001
0010
0001
0100
0010
,
0100
0001
0010
0100
1000
0010
0100
0001
,
0010
0100
1000
0010
0100
0001
1000
0100
,
0010
0001
1000
0010
0100
0001
1000
0100
,
0010
0001
1000
0010
0100
0001
0010
0100
,
1000
0010
0100
0010
0100
0001
0010
0100
,
1100
0000
1000
0100
0010
0100
1100
0000
,
0011
0101
0110
1010
,
1001
0000
1000
0001
1000
0010
1001
0000
,
0110
0101
1100
0011
,
1010
0000
1000
0010
0100
0001
1010
0000
,
1001
0110
1100
0011
,
0101
0000
0100
0001
0010
0001
0101
0000
,
0011
0001
0000
1001
0000
0110
0000
0000
,
1000
0100
0110
0000
1001
0000
0110
0000
,
0000
0010
1010
0000
1100
0000
1010
0000
,
0000
1000
1001
0000
0110
0000
1001
0000
,
0000
0001
0011
0000
0101
0000
0011
0000
,
0000
0001
1001
0000
0101
0000
1001
0000
,
0000
1000
1001
0000
1100
0000
1001
0000
,
0000
0010
0110
0000
0101
0000
0110
0000
,
0000
0010
0110
0000
1100
0000
0110
0000
,
0100
0010
1001
0000
0110
0000
1001
0000
,
0001
0100
0110
0000
1001
0000
0110
0000
,
0010
1000
1100
0000
0011
0000
1100
0000
,
0100
1000
1010
0000
0101
0000
1010
0000
,
1000
0100
0110
0000
0101
0000
0011
0000
,
0001
0100
1010
0000
0110
0000
1010
0000
,
1000
0100
0011
0000
1100
0000
1010
0000
,
0010
0100
1001
0000
1100
0000
0011
0000
,
0110
1100
1001
1010
,
0011
0101
0110
1010
,
1001
1001
0011
0011
,
1100
0000
0000
1100
0000
0000
1010
0000
0000
1000
0100
0010
,
0002
0013
0101
0001
,
0011
1001
0101
0110
,
1010
1001
1100
0110
,
0011
0001
1000
0100
0010
0001
0100
0010
,
1001
0000
0001
1000
0001
1000
1001
0000
,
0011
1100
0110
0101
,
0011
0000
0001
1000
0001
1000
0011
0000
,
1001
0101
1010
1100
,
0110
0000
0100
0010
0001
0010
0110
0000
,
1100
1010
0110
0011
,
1100
0000
0001
0010
0100
1000
1100
0000
,
1010
0010
0000
0100
0000
0001
0000
0000
,
0011
0001
0000
0100
0000
1000
0000
0000
,
1000
0000
0100
0000
1000
0000
0100
0000
0010
0000
0100
0000
0010
0001
0010
0100
,
0040
0400
0000
0000
0000
0000
0000
0000
0000
0000
0000
0000
0000
0000
0000
0000
,
0000
0000
0000
0330
0000
0000
0000
0000
;
