#TITLE:Enlightened;
#SUBTITLE:;
#ARTIST:Scott Brown - Dj Weaver Remix;
#TITLETRANSLIT:;
#SUBTITLETRANSLIT:;
#ARTISTTRANSLIT:;
#CREDIT:;
#BANNER:sb.banner.png.jpg;
#BACKGROUND:Enlightened.bg.png.jpg;
#LYRICSPATH:;
#CDTITLE:CDTITLE.png;
#MUSIC:Scott Brown - Enlightened (DJ Weaver remix).mp3;
#OFFSET:-0.016;
#SAMPLESTART:54.300;
#SAMPLELENGTH:14.720;
#SELECTABLE:YES;
#BPMS:0.000=176.800;
#STOPS:;
#BGCHANGES:;
// cache tags:
#FIRSTBEAT:16.000;
#LASTBEAT:416.500;
#SONGFILENAME:Songs/Definitive Keyboard Megapack/Enlightened - Scott Brown [ Leone510 VS KOMBO]/Scott Brown - Enlightened (DJ Weaver remix).sm;
#HASMUSIC:1;
#HASBANNER:1;
#MUSICLENGTH:148.538;
// end cache tags

//---------------dance-single - ----------------
#NOTES:
     dance-single:
     :
     Hard:
     12:
     1.000,1.000,0.673,0.835,1.000,894.000,100.000,124.000,0.000,5.000:
0000
0000
0000
0000
,
0000
0000
0000
0000
,
0000
0000
0000
0000
,
0000
0000
0000
0000
,
1100
0000
0001
1000
0010
0000
0100
0000
1010
0000
0100
0010
0001
0000
0100
0000
,
0011
0000
0100
0010
0001
0000
1000
0000
0101
0000
0010
0001
0010
0000
0100
0000
,
1010
0000
0100
0010
0100
0000
0001
0000
1010
0000
0001
1000
0010
0000
0100
0000
,
1010
0000
0100
0010
0001
0000
0100
0000
0011
0000
0100
0010
0001
0000
1000
0000
,
0101
0000
0010
0001
0010
0000
0100
0000
1010
0000
0100
0010
0100
0000
0001
0000
,
1010
0000
0100
0010
0100
0000
0001
0000
0011
0000
0100
1000
0100
0000
1000
0000
,
0101
0000
0010
0001
0100
0000
0010
0000
1100
0000
0010
0001
0010
0000
0001
0000
,
1100
0000
0100
1000
0010
0000
0001
0000
0110
0000
0010
0001
0100
0000
0001
0000
,
1010
0000
0010
0100
0010
0000
0100
0000
1100
0000
0100
0010
0001
0000
0001
0000
,
1010
0000
0100
0010
0001
0000
0100
0000
1010
0000
0010
0001
0010
0000
0100
0000
,
0011
0100
0001
1000
0001
0010
1000
0001
1100
0001
0100
0010
0001
1000
0010
0001
,
0110
1000
0100
0010
0001
1000
0010
0001
0010
0100
0010
0001
1000
0010
1000
0100
,
1010
0000
0100
0010
0001
0000
0010
0000
1001
0000
0010
0001
0100
0000
0010
0000
,
1100
0000
0010
0001
0010
0000
0100
0000
0011
0000
0010
0100
1000
0000
0100
0000
,
1010
0000
0010
0001
0100
0000
0010
0000
0011
0000
0010
0001
1000
0000
0100
0000
,
1010
0000
0100
0010
0001
0000
1000
0000
1001
0000
0010
0001
0100
0000
0010
0000
,
0110
0000
0001
1000
0010
0000
0100
0000
1010
0000
0100
0010
0001
0000
0100
0000
,
0011
0000
0100
0010
0001
0000
1000
0000
0101
0000
0010
0001
0010
0000
0100
0000
,
1010
0000
0100
0010
0100
0000
0001
0000
1010
0000
0010
1000
0010
0000
0100
0000
,
0011
0000
0010
0001
0100
0000
0100
0000
1100
0000
0010
1000
0001
0000
0100
0000
,
0101
0000
0001
1000
0010
0000
0100
0000
1010
0000
0100
0010
0001
0000
0100
0000
,
0011
0000
0100
0010
0001
0000
1000
0000
0101
0000
0010
0001
0010
0000
0100
0000
,
1010
0000
0100
0010
0100
0000
0001
0000
1010
0000
0100
0010
0100
0000
0001
0000
,
1010
0000
0001
1000
0010
0000
0001
0000
0011
0000
0100
0010
0001
0000
1000
0000
,
0110
1000
0001
1000
0010
0001
0100
1000
0101
1000
0010
0001
1000
0010
0100
0010
,
1100
0001
0010
0001
0100
0001
0010
1000
0101
1000
0001
0010
0100
0001
0010
0100
,
1001
0010
0100
1001
0010
0001
0100
0010
1100
0001
0010
0001
0100
1000
0010
1000
,
0101
0010
0100
1000
0010
0100
0010
1000
0010
1000
0010
0001
0100
0010
0001
0100
,
0002
0000
0000
2003
0000
3020
0000
0230
,
0000
0000
0000
0000
0000
0000
0320
2030
,
3002
0000
0000
2003
0000
0000
0000
3020
,
0032
0000
0000
2003
0000
0000
0000
0000
,
3020
0000
0000
0230
0000
0302
0000
2003
,
0000
0000
0000
0000
0000
0000
3020
0230
,
0302
0000
0000
2003
0000
0000
0000
3020
,
2030
0000
0000
3002
0000
0000
0000
0000
,
0023
0000
0000
2030
0000
3020
0000
0230
,
0000
0000
0000
0000
0000
0000
0320
2030
,
3002
0000
0000
2003
0000
0000
0000
3020
,
0032
0000
0000
2003
0000
0000
0000
0000
,
3020
0000
0000
0230
0000
2300
0000
3002
,
0000
0000
0000
0000
0000
0000
0203
2300
,
3020
0000
0000
0230
0000
0000
0000
0320
,
0032
0000
0000
2003
0000
0000
0000
0000
,
3002
0000
0000
2003
0000
3020
0000
0230
,
0000
0000
0000
0000
0000
0000
0320
2030
,
3002
0000
0000
2003
0000
0000
0000
3020
,
0032
0000
0000
2003
0000
0000
0000
0000
,
3200
0000
0000
0302
0000
2003
0000
3020
,
0000
0000
0000
0000
0000
0000
0230
2300
,
3020
0000
0000
0032
0000
0000
0000
2003
,
3020
0000
0000
0230
0000
0000
0000
0000
,
0320
0000
0000
2030
0000
3002
0000
0203
,
0000
0000
0000
0000
0000
0000
0320
2030
,
3002
0000
0000
2003
0000
0000
0000
3020
,
0032
0000
0000
2003
0000
0000
0000
0000
,
3020
0000
0000
2030
0000
3002
0000
2003
,
0000
0000
0000
0000
0000
0000
3002
0203
,
0320
0000
0000
2030
0000
0000
0000
3002
,
2003
0000
0000
3020
0000
0000
0000
0000
,
0032
0000
1000
0000
1000
0000
1000
1000
,
1000
0000
1000
0000
0100
0000
0100
0100
,
0100
0000
0010
0000
0100
0000
0010
0010
,
0010
0000
0010
0000
1000
0000
1000
1000
,
2023
3030
0000
0202
0303
0000
2002
3003
,
0000
0220
0330
0000
2002
3003
0000
0202
,
0303
0000
2200
3300
0000
0220
0330
0000
,
0002
0000
0000
0000
,
1103
0000
0010
0100
0010
1000
0010
1000
0100
0001
0100
0010
0001
0010
0001
0100
,
0001
0010
1000
0010
0100
0001
1000
0001
0100
0001
0010
1000
0011
0000
0110
0000
,
1010
0000
0010
0001
0010
0001
0100
0001
0100
0010
1000
0001
0100
0001
1000
0001
,
0100
1000
0100
0010
1000
0010
0001
0100
0001
0010
0100
0001
1000
0010
0100
0001
,
1100
0000
0010
0001
0010
0100
0010
0001
0010
0001
0100
1000
0100
0010
1000
0010
,
0001
0100
0001
0010
0100
0010
1000
0010
1000
0010
0001
1000
0101
0000
1001
0000
,
1010
0000
0100
0010
0001
0100
0010
0001
1000
0010
0100
0010
1000
0010
1000
0100
,
1000
0010
0100
0001
0100
0010
1000
0010
0100
0010
0001
0010
0001
0100
0010
0001
,
1100
0000
0010
0100
0010
1000
0010
1000
0100
0001
0100
0010
0001
0010
0001
0100
,
0001
0010
1000
0010
0100
0001
1000
0001
0100
0001
0010
1000
0011
0000
0110
0000
,
1010
0000
0010
0001
0010
0001
0100
0001
0100
0010
1000
0001
0100
0001
1000
0001
,
0100
1000
0100
0010
1000
0010
0001
0100
0001
0010
0100
0001
1000
0010
0100
0001
,
1010
0000
0010
0001
0010
0100
0001
0010
1000
0010
0100
1000
0010
0100
0001
0010
,
0100
0010
0001
0100
0001
0100
0010
1000
0010
0100
0001
0100
1001
0000
0101
0000
,
1010
0000
0010
0100
0010
0100
1000
0100
1000
0010
1000
0010
0100
0001
0010
0001
,
0200
0320
2030
3002
0000
2203
3322
0033
,
0101
0000
0010
0001
0010
0100
0001
0010
1000
0010
0100
0010
0001
0100
0010
0001
,
0010
0001
1000
0010
0001
0100
1000
0010
1000
0010
0100
1000
0011
0000
1010
0000
,
0110
0000
0001
1000
0001
0100
0001
1000
0001
0010
0001
0100
0010
1000
0010
0100
,
0010
0001
0100
1000
0100
0010
0001
0100
0001
1000
0001
0010
0100
1000
0010
1000
,
0101
0000
0010
0100
0010
1000
0010
0100
1000
0100
0001
1000
0100
1000
0100
0010
,
0001
0100
0001
0010
1000
0010
0100
0010
1000
0010
0001
0100
1001
0000
0011
0000
,
1010
0000
0010
0100
0010
0100
0010
0001
0010
0100
1000
0010
1000
0010
0100
1000
,
0100
0010
0100
1000
0100
0010
1000
0010
1000
0001
0100
0001
0010
0100
0001
0100
,
0011
0000
1000
0010
0001
0010
1000
0010
0001
0010
0100
0001
0100
0001
0010
1000
,
0010
0100
1000
0100
0001
1000
0001
0100
0010
0001
0100
0010
1001
0000
0110
0000
,
1001
0000
1000
0010
0100
1000
0010
1000
0010
0001
0010
1000
0010
0100
1000
0100
,
1000
0010
0100
0001
0010
0100
0010
0001
0100
0010
0001
0100
0010
0100
1000
0010
,
1100
0000
0010
0100
0010
1000
0010
1000
0100
0001
0100
0010
0001
0010
0001
0100
,
0001
0010
1000
0010
0100
0001
1000
0001
0100
0001
0010
1000
0011
0000
0110
0000
,
1010
0000
0010
0001
0010
0001
0100
0001
0100
0010
1000
0001
0100
0001
1000
0001
,
0020
0000
0230
0000
2300
0000
3002
0000
0000
0000
2023
3030
2002
0000
3003
0000
,
0220
0330
0000
0000
0000
0000
0000
0000
;

//---------------dance-single - Wena Cancion leone x----------------
#NOTES:
     dance-single:
     Wena Cancion leone x:
     Challenge:
     15:
     1.000,1.000,1.000,0.714,1.000,1071.000,254.000,106.000,0.000,97.000:

0000
0000
0000
0000
,
0000
0000
0000
0000
,
0000
0000
0000
0000
,
0000
0000
0000
0000
,
0000
1000
0110
0000
0010
0100
1001
0100
,
0000
0000
0100
0010
1001
0000
1000
0000
0001
0000
0100
0000
1010
0000
0101
0000
,
0000
0001
0110
0000
0100
0010
1001
0010
,
0000
0000
0010
0100
1001
0000
0001
0000
1000
0000
0010
0000
0101
0000
1010
0000
,
0101
0010
1010
0100
0011
1100
0110
0001
,
1010
0110
1100
0001
1100
0110
1001
0110
,
0101
0010
1010
0100
0011
0100
1100
0011
,
1010
0110
1100
0011
0010
0110
1001
0110
,
0101
0010
1010
0100
0011
0100
1100
0011
,
1010
0110
1100
0010
1100
0011
1001
0110
,
0010
0100
0010
1000
0001
1000
0010
0100
1000
0100
0010
0100
0010
1000
0100
0010
,
0001
0000
0010
0000
0001
0000
0010
0000
0001
0000
0010
0000
0100
0000
1000
0000
0100
0000
1000
0000
0100
0000
1000
0000
0001
0100
0010
1000
0001
0100
0010
1000
,
0001
0011
1110
0010
1001
0110
1011
0110
,
1000
0010
1101
0100
0101
0011
1101
1010
,
0100
0101
1011
0001
1100
0011
1101
0011
,
1000
0001
0111
0001
1010
1001
1110
0101
,
0010
1010
1101
1000
0110
1001
1101
0110
,
0001
0100
1011
0010
1100
0110
1101
0011
,
1000
1100
0111
0100
1001
0110
1101
0110
,
0001
0100
1011
0010
1100
0110
1101
0011
,
0101
0001
1001
1000
1100
0100
0110
0010
,
0011
0010
0011
0001
0101
0100
1100
1000
,
1010
0010
1010
0100
0110
0100
1100
1000
,
1010
1100
1001
0011
0110
0010
0110
0100
,
0111
1000
0100
1000
0001
0010
0001
0010
0100
1000
0100
1001
0010
0001
0100
0010
,
0100
1000
0001
0010
0100
0010
1000
0001
0100
0010
1000
0010
0001
0010
1000
0010
,
0001
0100
1000
0100
0001
0100
1000
0010
0100
0010
0100
1000
0010
1000
0001
1000
,
0010
0000
1000
0000
0001
0000
0100
0000
0010
0000
1000
0000
0010
0000
0100
0000
0010
0000
1000
0000
0010
0000
0100
0000
1000
0010
0100
0001
1000
0010
0100
0001
,
2000
0000
0000
0000
0000
0000
3200
0000
0000
0000
2300
0000
0000
0000
3001
0001
,
0001
0001
0001
0001
0001
0001
0001
0001
0001
0001
0001
0001
2000
0000
3002
0000
,
0023
0000
0000
2030
0000
0000
0000
3002
,
0023
0000
0000
0230
0000
0000
0000
0000
,
2300
0000
0000
0000
0000
0000
3200
0000
0000
0000
2300
0000
0000
0000
3001
0001
,
0001
0001
0001
0001
0001
0001
0001
0001
0001
0001
0001
0001
2000
0000
3002
0000
,
0023
0000
0000
2030
0000
0000
0000
3002
,
0023
0000
0000
0230
0000
0000
0000
0000
,
2300
0000
0000
0000
0000
0000
3200
0000
0000
0000
2300
0000
0000
0000
3001
0001
,
0001
0001
0001
0001
0001
0001
0001
0001
0001
0001
0001
0001
2000
0000
3002
0000
,
0023
0000
0000
2030
0000
0000
0000
3002
,
0023
0000
0000
0230
0000
0000
0000
0000
,
2300
0000
0000
0000
0000
0000
3200
0000
0000
0000
2300
0000
0000
0000
3001
0001
,
0001
0001
0001
0001
0001
0001
0001
0001
0001
0001
0001
0001
2000
0000
3002
0000
,
0023
0000
0000
2030
0000
0000
0000
3002
,
0023
0000
0000
0230
0000
0000
0000
0000
,
2310
0000
0010
3200
0000
2310
0000
3002
,
0110
0000
0000
1100
0000
0100
2103
3012
,
1023
0000
0000
2030
0000
0110
0000
3002
,
0123
0000
0000
0230
0000
1010
0000
0011
,
2310
0000
0010
3200
0000
2310
0000
3002
,
0110
0000
0000
1100
0000
0100
2103
3012
,
1023
0000
0000
2030
0000
0110
0000
3002
,
0123
0000
0000
0230
0000
1010
0000
0011
,
2310
0000
0010
3200
0000
2310
0000
3002
,
0110
0000
0000
1100
0000
0100
2103
3012
,
1023
0000
0000
2030
0000
0110
0000
3002
,
0123
0000
0000
0230
0000
1010
0000
0011
,
2310
0000
0010
3200
0000
2310
0000
3002
,
0110
0000
0000
1100
0000
0100
2103
3012
,
1023
0000
0000
2030
0000
0110
0000
3002
,
0123
0000
0000
0230
0000
1010
0000
0011
,
0301
0001
0001
0001
0001
0001
0001
0001
0001
0001
0001
0001
0001
0001
0001
0001
,
0001
0001
0001
0001
0001
0001
0001
0001
0001
0001
0001
0001
0001
0001
0001
0001
,
0001
0001
0001
0001
0001
0001
0001
0001
0001
0001
0001
0001
0001
0001
0001
0001
,
0001
0001
0001
0001
0001
0001
0001
0001
0001
0001
0001
0001
0001
0001
0001
0001
,
0220
0000
0000
0000
0331
0000
1000
0001
1000
0001
1000
0001
0220
0000
0000
0000
1330
0000
0001
1000
0001
1000
0001
1000
0220
0000
0000
0000
0331
0000
1000
0001
,
1000
0001
1000
0001
0220
0000
0000
0000
1330
0000
0001
1000
0001
1000
0001
1000
0220
0000
0000
0000
0331
0000
1000
0001
1000
0001
1000
0001
0220
0000
0000
0000
,
1330
0000
0001
1000
0001
1000
0001
1000
0220
0000
0000
0000
0331
0000
1000
0001
1000
0001
1000
0001
0220
0000
0000
0000
1330
0000
0001
1000
0001
1000
0001
1000
,
0220
0000
0000
0000
0000
0000
0000
0330
,
1100
0001
0010
0001
1100
0010
0100
0010
0101
0010
0100
0010
0101
1000
0010
1000
,
0110
1000
0010
1000
0110
0001
1000
0001
1100
0001
1000
0001
1100
0010
1000
0010
,
0101
0010
1000
0010
0101
1000
0100
1000
0011
0100
1000
0100
0011
1000
0001
1000
,
0110
1000
0001
1000
0110
0001
0100
0001
1010
0001
0100
0001
1010
0100
0010
0100
,
1010
0100
0001
0100
1010
0001
1000
0001
1100
0001
1000
0001
1100
0010
0001
0010
,
1001
0010
0001
0010
1001
0100
0010
0100
1010
0100
0010
0100
1010
0001
0010
0001
,
1100
0001
0010
0001
1100
0010
1000
0010
0101
1000
0010
1000
0101
0010
0100
0010
,
1001
0010
0100
0010
1001
0100
1000
0100
0011
0100
1000
0100
0011
1000
0001
1000
,
0011
1000
0100
1000
0011
0100
0010
0100
1010
0100
0010
0100
1010
0001
0100
0001
,
0110
0001
0100
0001
0110
1000
0001
1000
0011
1000
0001
1000
0011
0100
0001
0100
,
1010
0100
0001
0100
1010
0001
0010
0001
1100
0010
0001
0010
1100
0001
1000
0001
,
0110
0001
1000
0001
0110
1000
0010
1000
0101
1000
0010
1000
0101
0010
0100
0010
,
1100
0001
0010
0001
1100
0010
0100
0010
0101
0010
0100
0010
0101
1000
0010
1000
,
0110
1000
0010
1000
0110
0001
1000
0001
1100
0001
1000
0001
1100
0010
1000
0010
,
0101
0010
1000
0010
0101
1000
0100
1000
0011
0100
1000
0100
0011
1000
0001
1000
,
0110
1000
0001
1000
0010
0000
1000
0000
0000
0000
0001
0000
1000
0000
0000
0000
,
1001
0100
0010
0100
1011
0100
0010
0001
0010
0100
0010
0100
1011
0100
0010
0100
,
0001
1000
0100
0010
1101
0010
0001
0010
0100
1000
0001
1000
0111
1000
0010
0001
,
0010
0100
0010
0001
1110
0001
0010
0100
0001
0010
0001
0100
1011
0100
0010
0100
,
1000
0010
0100
0010
1101
0010
0100
0010
1000
0001
1000
0001
1110
0001
0100
0010
,
0100
1000
0010
1000
0111
1000
0010
0100
1000
0100
0010
0100
1011
0100
1000
0010
,
0001
0100
1000
0010
1101
0010
0001
0100
0001
1000
0100
0001
1110
0001
0100
0010
,
0100
0001
1000
0010
1101
0010
0100
0001
0010
0001
1000
0100
1011
0100
1000
0001
,
0100
0001
1000
0010
1101
0010
0001
0100
0010
1000
0010
0001
1110
0001
1000
0100
,
1000
0010
0001
0010
1101
0010
1000
0100
1000
0001
0010
0001
1110
0001
0010
0100
,
0010
0001
0100
0010
1101
0010
1000
0010
0100
0001
0100
0001
1110
0001
1000
0001
,
1000
0010
0001
1000
0111
1000
0010
1000
0010
0001
0100
0010
1101
0010
1000
0100
,
1000
0010
0001
0100
1011
0100
0010
0001
0100
0010
0001
1000
0111
1000
0100
0010
,
0100
0001
1000
0001
1110
0001
0010
0001
0100
1000
0010
1000
0111
1000
0001
0010
,
0001
1000
0001
0100
1011
0100
0010
0100
0010
0001
1000
0010
0100
0010
1000
0001
,
0010
0100
0010
0001
1000
0001
0010
0100
0010
0100
1000
0001
1000
0010
0100
0010
,
2200
0000
0000
0000
0000
0000
0000
0000
0000
0000
0000
0000
0000
0000
0000
0000
0000
0000
0000
0000
0000
0000
0000
0000
3301
1000
0010
0100
0001
1000
0010
0100
,
2002
3003
0000
0000
0000
0000
0000
0000
0000
0000
0000
0000
0000
0000
0000
0000
;
