#TITLE:Nuguns;
#SUBTITLE:;
#ARTIST:System of a Down;
#TITLETRANSLIT:;
#SUBTITLETRANSLIT:;
#ARTISTTRANSLIT:;
#CREDIT:;
#BANNER:../Beast - bn.png;
#BACKGROUND:../Beast - bg.png;
#LYRICSPATH:;
#CDTITLE:;
#MUSIC:Nuguns.ogg;
#OFFSET:-0.222;
#SAMPLESTART:40.280;
#SAMPLELENGTH:20.000;
#SELECTABLE:YES;
#DISPLAYBPM:145.000;
#BPMS:0.000=141.000,12.000=144.800,23.000=148.000,24.000=144.000,28.000=144.500,40.000=143.700,43.000=138.000,44.000=140.000,47.500=143.900,64.000=144.000,72.000=144.860,88.000=142.750,92.000=142.600,96.000=145.100,107.000=145.000,108.000=144.000,109.000=143.000,112.000=144.430,124.000=143.000,127.000=138.000,128.000=142.700,132.000=143.000,148.000=145.500,156.000=145.580,165.000=145.000,168.000=142.000,172.000=142.300,176.000=143.500,180.000=142.000,184.000=145.200,192.000=142.500,196.000=144.360,207.000=144.000,208.000=143.000,211.000=141.000,220.000=145.700,248.000=143.000,252.000=148.500,264.000=146.000,268.000=148.850,276.000=146.000,279.000=148.000,280.000=142.850,284.000=144.450,296.000=142.000,300.000=144.500,312.000=142.600,316.000=145.120,328.000=143.000,332.000=144.900,344.000=141.600,348.000=141.200;
#STOPS:;
#BGCHANGES:;
// cache tags:
#FIRSTBEAT:0.000;
#LASTBEAT:356.500;
#SONGFILENAME:Songs/Beast Aoreo BEAST! 2/Nuguns - [Aoreo]/Nuguns.sm;
#HASMUSIC:1;
#HASBANNER:1;
#MUSICLENGTH:151.196;
// end cache tags

//---------------dance-single - J. Nero----------------
#NOTES:
     dance-single:
     J. Nero:
     Challenge:
     13:
     1.000,1.000,0.529,1.000,1.000,992.000,80.000,170.000,0.000,0.000:
2002
3003
2020
3030
0202
0303
2002
3003
,
2200
3300
0220
0330
0022
0033
0202
0303
,
2020
3030
2002
3003
0202
0303
2002
3003
,
1000
0010
1000
0001
0010
0100
0010
0001
1000
0100
1000
0001
0200
0000
0000
0000
,
0301
0010
0100
0010
0001
1000
0001
0010
0100
1000
0001
1000
0020
0000
0000
0000
,
1030
0010
0100
0010
1000
0001
0100
0001
0010
0100
1000
0001
1000
0100
1000
0010
,
0200
0300
0202
0303
2002
3003
2200
3300
,
0001
1000
0100
1000
0010
1000
0100
1000
0001
1000
0100
1000
0020
0030
0000
0000
,
1000
0001
0100
0001
0010
0001
0100
0001
1000
0001
0100
0001
0020
0030
0000
0000
,
0001
0100
0001
0100
0010
1000
0010
1000
0001
1000
0100
0010
0001
1000
0001
0100
,
0002
0003
0202
0303
2020
3030
2002
3003
,
0001
0000
0010
0000
0010
0000
0001
0000
0100
0000
0100
0000
0010
0000
1000
0100
,
1000
0000
0010
0000
0110
0000
0100
0001
0010
0001
1000
0000
0001
0000
0100
0010
,
0100
0000
0000
0000
0001
0000
0000
0000
1001
0000
0000
0000
1000
0000
0100
0000
1000
0000
0100
0000
0010
0000
0000
0000
0200
0300
0000
0000
1000
0000
0001
0000
,
1000
0000
0010
0000
0110
0000
0100
0001
1000
0001
1000
0000
0100
0000
1000
0001
,
0100
0000
0010
0000
0100
0000
0001
1000
0001
0010
0100
0000
1000
0000
0010
0100
,
0010
0000
0100
0000
0201
0300
0000
0000
0001
0000
1000
0000
2100
3000
0000
0000
,
0100
0000
1000
0000
2001
3000
0000
0000
0010
0000
0100
0000
0201
0300
0000
0000
,
0001
0000
0000
0000
0001
0000
0000
0000
2000
3000
0000
0000
0001
0000
0100
0000
0010
0000
0100
0000
0001
0000
0000
0000
1000
0000
0000
0000
0001
0000
0100
0000
,
0010
0000
0100
0000
0001
0000
1000
0100
1000
0100
0010
0000
0001
0000
1000
0001
,
1000
0000
0010
0000
0100
0000
0001
0010
0100
0010
0001
0000
1000
0000
0100
1000
,
0010
0000
0100
0000
0010
0000
0100
0001
1000
0001
1000
0000
0010
0000
0100
0001
,
1000
0100
0100
1000
0010
0010
0100
0001
,
0202
0303
2002
3003
2200
3300
0022
0033
,
0001
0010
0100
0010
0001
1000
0100
1000
0010
0100
0010
1000
0002
0000
0000
0000
,
1003
0100
1000
0010
0100
0010
0100
0001
1000
0100
1000
0010
0200
0000
0000
0000
,
0310
1000
0100
0010
0001
0010
0100
1000
0001
0100
0010
1000
0001
0100
0001
0100
,
0020
0030
2020
3030
0202
0303
2002
3003
,
1000
0001
0100
0001
0010
0001
0100
0001
1000
0001
0100
0001
0020
0030
0000
0000
,
0001
1000
0100
1000
0010
1000
0100
1000
0001
1000
0100
1000
0020
0030
0000
0000
,
1000
0010
0100
0010
1000
0100
0010
0100
1000
0100
0010
0001
0100
0001
1000
0001
,
0200
0000
0000
0000
0000
0000
0300
0000
0000
0000
0000
0000
0202
0000
0000
0000
0000
0000
0303
0000
0000
0000
0000
0000
2002
0000
0000
0000
0000
0000
3003
0000
0000
0000
0000
0000
2200
0000
0000
0000
3300
0000
0100
0000
0000
1000
0000
0000
,
0001
0000
0000
0000
0102
0000
0000
0000
0100
0000
0000
0000
0103
0000
0001
1000
,
0100
0000
1000
0000
1001
0000
0001
0010
0100
0010
0001
0000
1000
0000
0001
0100
,
0010
0000
0000
0000
1000
0000
0000
0000
1010
0000
0000
0000
0010
0000
0100
0000
0001
0000
0010
0000
0100
0000
0000
0000
2000
3000
0000
0000
0001
0000
1000
0000
,
0010
0000
0100
0000
0101
0000
0001
0100
0010
0100
0001
0000
1000
0000
0100
1000
,
0001
0000
0010
0000
0110
0000
0100
1000
0001
0100
0010
0000
0100
0000
0001
1000
,
0100
0000
1000
0000
2001
3000
0000
0000
0001
0000
0100
0000
0210
0300
0000
0000
,
0010
0000
1000
0000
2100
3000
0000
0000
0100
0000
0010
0000
0021
0030
0000
0000
,
0001
0000
0000
0000
0100
0000
0000
0000
0040
0030
0000
0000
1000
0000
0001
0000
0100
0000
0010
0000
0100
0000
0000
0000
0001
0000
0000
0000
0010
0000
0001
0000
,
0010
0000
0100
0000
1100
0000
1000
0001
1000
0001
0100
0000
0010
0000
0100
0001
,
1000
0000
0001
0000
0011
0000
0010
0100
0010
0001
1000
0000
0001
0000
1000
0010
,
0100
0000
0010
0000
0100
0000
0001
0010
0100
0010
0001
0000
1000
0000
0001
1000
,
0001
0100
0100
0010
1000
0001
0001
0010
,
0220
0330
2200
3300
2002
3003
0202
0303
,
0100
0001
0010
0001
1000
0001
0010
0100
1000
0001
0100
0010
0200
0000
0000
0000
,
0301
1000
0010
1000
0001
0100
0010
1000
0010
1000
0100
0010
0002
0000
0000
0000
,
0013
0001
0100
0001
0010
0100
1000
0100
0010
0001
1000
0001
0010
0100
1000
0001
,
0200
0300
0202
0303
2002
3003
2200
3300
,
1000
0001
0100
0001
0010
0001
0100
0001
1000
0001
0100
0001
0020
0030
0000
0000
,
0001
1000
0100
1000
0010
1000
0100
1000
0001
1000
0100
1000
0020
0030
0000
0000
,
1000
0001
0100
0010
0100
0001
1000
0100
0010
0001
1000
0100
1000
0001
0010
0100
,
2000
0000
3000
0000
2020
0000
3030
0000
0202
0000
0303
0000
1002
0000
1003
0010
,
0200
0000
0000
0000
0302
0000
0000
0000
1000
0000
0000
0000
1000
0003
0001
1000
,
0200
0000
2300
0000
0001
0000
0001
3000
,
1000
0001
0100
0001
1000
0010
1000
0001
0010
0100
1000
0001
1000
0100
0010
0100
1000
0001
0100
0010
0100
0001
1000
0001
,
0010
0100
1000
0001
1000
0010
0100
0001
1000
0010
1000
0001
0100
0010
0100
0001
1000
0001
0010
0100
1000
0001
1000
0010
,
0100
0000
0001
0000
0100
0000
0001
0000
0100
0000
0001
0000
0100
0000
0000
0000
0000
0000
0001
0000
0000
0000
0000
0000
2000
0000
0000
3000
0000
0000
0000
0000
0000
0000
0000
0000
0100
0000
0000
0000
0000
0000
1000
0000
0000
0000
0000
0000
,
0020
0030
0000
0000
0100
0000
0001
0000
0020
0030
0000
0000
0001
0000
1000
0000
,
0100
1000
0001
0100
0001
1000
0010
0100
0001
1000
0001
0010
0100
1000
0001
1000
0010
0100
0010
1000
0001
0100
0010
0100
,
0001
1000
0100
0010
0001
1000
0001
1000
0100
1000
0001
0100
0010
0100
0001
1000
0100
1000
0001
0000
0000
0100
0000
0000
,
0010
0000
1000
0000
0001
0000
0100
0000
0010
0000
1000
0000
0001
0100
0010
1000
,
0200
0300
2200
3300
0220
0330
0022
0033
,
0001
1000
0001
1000
0010
0100
0010
1000
0001
0010
0100
1000
0001
1000
0100
0010
0001
1000
0100
1000
0001
0100
0001
1000
,
0010
0100
0001
1000
0001
0010
0100
1000
0001
1000
0100
0010
0100
1000
0001
1000
0001
1000
0001
0000
0000
0000
0000
0000
,
1000
0000
0100
0000
1000
0000
0001
0000
0100
0001
0010
0000
0100
1000
0010
0000
,
2020
3030
0000
0000
0220
0330
0000
0000
0202
0303
0000
0000
2002
3003
0000
0000
,
1000
0100
1000
0001
0100
0001
1000
0010
0100
0001
1000
0100
1000
0001
0100
0010
0100
0001
1000
0001
0010
0100
1000
0001
,
1000
0100
0010
0100
1000
0001
0100
0010
0100
0001
1000
0010
0100
0010
1000
0001
1000
0100
0010
0100
1000
0001
0100
0001
,
1000
0000
0001
0000
0101
0000
0100
0001
1000
0000
0100
0000
1000
0100
0010
0100
,
2000
3000
2020
3030
0202
0303
2002
3003
,
1000
0100
0010
0100
1000
0001
1000
0010
0100
0001
0010
0001
0200
0000
0000
0000
,
0310
1000
0001
1000
0100
0010
0001
1000
0010
0100
0010
1000
0002
0000
0000
0000
,
1003
0100
1000
0001
0100
0001
1000
0010
0100
0010
1000
0100
0010
0001
0100
0010
,
2000
3000
2002
3003
0202
0303
2020
3030
,
1000
0001
0100
0001
0010
0001
0100
0001
1000
0001
0100
0001
0020
0030
0000
0000
,
0001
1000
0100
1000
0010
1000
0100
1000
0001
1000
0100
1000
0020
0030
0000
0000
,
0100
0001
0010
0001
0100
0010
1000
0001
0010
0100
1000
0001
0100
0010
1000
0001
,
2000
3000
2020
3030
0202
0303
2002
3003
,
1000
0100
1000
0010
0100
0001
0010
0100
1000
0010
0100
0001
1000
0100
0010
0001
,
0100
0010
1000
0001
0010
0100
1000
0001
1000
0010
0100
0001
0010
0001
1000
0001
,
0100
0001
1000
0010
0100
0010
1000
0001
0010
0100
1000
0100
0010
0100
1000
0001
,
2000
3000
2020
3030
0202
0303
2002
3003
,
1000
0100
0010
0100
1000
0100
0010
0001
0100
0001
0010
0001
0100
0001
1000
0010
,
0100
0001
0010
0100
1000
0100
0010
0100
1000
0001
0100
0001
0010
0001
0100
0010
,
1000
0010
0100
0010
1000
0001
0010
0100
1000
0001
0100
0010
1000
0010
0100
0001
,
2000
0000
3000
0000
2020
0000
3030
0000
0220
0000
0330
0000
0201
0000
0301
1000
,
0200
0000
0000
0000
2300
0000
0000
0000
0001
0000
0000
0000
0001
3000
1000
0001
,
0200
0000
0000
0000
0320
0000
0000
0000
0100
0000
0000
0030
1001
0000
0200
0000
,
0000
0300
0000
0000
0000
0000
0000
0000
;
