#TITLE:Speedcore Dandy;
#SUBTITLE:;
#ARTIST:m1dy;
#TITLETRANSLIT:;
#SUBTITLETRANSLIT:;
#ARTISTTRANSLIT:;
#CREDIT:;
#BANNER:speedcoredandy-bn.PNG;
#BACKGROUND:speedcoredandy-bg.PNG;
#LYRICSPATH:;
#CDTITLE:OMEGAspike.PNG;
#MUSIC:speedcore dandy.mp3;
#OFFSET:-0.150;
#SAMPLESTART:57.880;
#SAMPLELENGTH:15.000;
#SELECTABLE:YES;
#BPMS:0.000=216.001;
#STOPS:;
#BGCHANGES:;
// cache tags:
#FIRSTBEAT:0.000;
#LASTBEAT:660.000;
#SONGFILENAME:Songs/toune 2/(OMEGAspike)Speedcore Dandy/speedcore dandy.sm;
#HASMUSIC:1;
#HASBANNER:1;
#MUSICLENGTH:185.184;
// end cache tags

//---------------dance-single - ----------------
#NOTES:
     dance-single:
     :
     Hard:
     14:
     1.000,1.000,1.000,0.302,0.378,1305.000,1031.000,56.000,0.000,4.000:
0010
0100
0010
0100
0010
0000
0100
0001
0100
0001
0100
0000
0010
1000
0010
0000
,
0100
0001
0010
0100
1000
0000
0100
0010
0001
0100
0010
0000
2002
0000
3003
0000
,
0100
0010
0001
1000
0100
0000
0010
0001
0100
0010
1000
0000
0010
0100
0001
0000
,
1000
0100
0010
0100
1000
0000
0010
0100
0001
0010
0100
0000
2002
0000
3003
0000
,
0010
0100
0001
0100
0010
0000
0100
0010
1000
0010
0100
0000
0001
0010
0100
0000
,
1000
0010
0100
0010
1000
0000
0001
1000
0100
1000
0001
0000
0220
0000
0000
0000
,
1331
0000
0000
0000
,
1001
0000
0000
0000
1001
0000
0000
0000
1100
0011
1100
0011
1100
0011
1100
0000
,
0011
0101
1010
1001
0110
1010
0101
1001
,
0110
1010
0101
1001
0011
1100
0011
1001
,
0110
1010
0101
1001
0110
1100
0101
0011
,
1010
0000
0101
0000
1001
0000
0110
0000
1100
0000
0011
0000
1100
0001
0110
1000
,
0101
1001
1010
0110
1100
0011
0110
0011
,
1100
0110
1010
0101
1001
0110
1010
0101
,
1010
0101
1001
0110
1010
0101
1001
0011
,
1001
0000
0000
0000
1001
0000
0000
0000
0011
1100
0011
1100
0011
1100
0011
1100
,
0011
0101
0011
1100
1010
1100
0110
1001
,
0101
1010
1100
0011
0110
0101
1100
0110
,
1001
0101
1010
1001
0101
0011
1100
0110
,
0101
0000
1001
0000
0101
0000
1010
0000
1001
0000
0110
0000
1001
0010
0101
0010
,
1100
0011
0101
1010
1001
0110
1010
0101
,
1010
0101
1001
1010
0110
0101
1001
0101
,
0010
1000
0100
0010
0001
0000
0010
0100
1000
0001
0100
0000
0010
1000
0001
0100
,
0020
0000
0230
0000
,
0311
1010
0101
1001
0110
1010
0011
0101
,
1010
0110
0011
1100
0110
1010
0101
1001
,
0110
1010
0110
0101
0110
1010
0110
0011
,
1100
0000
0110
0000
1100
0000
0110
0000
0011
1000
0101
0010
1001
0000
1010
0000
,
0101
1001
0110
1100
0110
0101
1001
0101
,
1010
1001
1100
0011
0110
1001
0101
1010
,
0101
1001
0101
1010
1001
0110
1010
0101
,
1000
0010
1000
0001
1000
0010
1000
0001
0200
0000
0000
0000
0000
0000
0000
0000
,
1310
1001
0101
1001
0110
1010
0101
0011
,
1100
0110
1010
0101
1010
0110
0011
1100
,
0110
1001
0101
1100
0011
1010
0110
0101
,
1001
0000
1010
0000
1001
0000
0101
0010
1001
0010
1100
0000
0110
0000
1001
0000
,
1010
0101
1001
0101
0110
1010
0101
1100
,
0011
0110
0101
1010
1100
0110
0101
1001
,
0010
0100
0010
1000
0100
0000
0010
0001
0010
0100
1000
0000
0010
1000
0100
0000
,
0001
0100
0001
0100
0010
0000
0100
1000
0100
0010
0001
0000
0010
0100
1000
0000
,
0101
0000
0101
0000
0101
0000
0101
0000
0101
0010
0101
0000
0101
0000
0101
0000
,
1001
1001
1001
1001
,
1100
0000
1100
0000
1100
0000
1100
0000
1100
0010
1100
0000
1100
0000
1100
0000
,
1001
0000
0000
0000
1001
0000
0000
0000
1001
0000
0000
0000
1001
0010
0100
0000
,
1010
0000
1010
0000
1010
0000
1010
0000
1010
0100
1010
0000
1010
0000
1010
0000
,
1001
1001
1001
1001
,
0110
0000
0110
0000
0110
0000
0110
0000
0110
0001
0110
0000
0110
0000
0110
0000
,
1001
0000
0000
0000
1001
0000
0000
0000
0011
1100
0011
1100
0011
1100
0011
1100
,
0011
0000
0101
0000
1001
0000
1010
0000
1001
0010
0101
0000
1010
0000
0110
0000
,
1010
0101
0011
1100
0110
0011
0110
1010
,
0101
0000
1001
0000
0110
0000
0011
0000
1100
0001
0110
0000
1010
0000
0101
0000
,
1010
0000
0101
0000
1001
0000
0110
0000
1010
0000
0101
0000
1001
0010
0101
0000
,
1010
0000
0101
0000
0011
0000
1100
0000
0011
0100
1001
0000
0101
0000
1010
0000
,
0101
1010
1001
0110
0011
0110
1010
0101
,
1010
0000
0000
0000
,
0000
0000
0000
0000
,
1100
0000
0001
0020
0000
0031
0010
0100
,
0020
2030
3020
2030
3020
0230
0302
1003
,
0110
0000
0001
2000
0000
3001
1000
0100
,
0020
2030
3002
0203
0302
0203
0320
1030
,
0101
0010
1000
0000
0001
0100
1000
0000
0001
0010
1000
0000
0001
0100
1000
0000
,
0100
0010
0001
0000
1000
0100
0010
0000
0100
0010
0001
0000
1000
0100
0010
0000
,
1001
0010
0100
0000
0010
0100
1000
0000
0001
0010
0100
0000
0010
0100
1001
0000
,
0000
0000
1100
0000
0110
0000
0101
0000
1001
0000
0110
0000
1010
0101
1010
0101
,
1010
0110
0101
1010
1001
0101
0011
1100
,
0011
0110
1001
0101
1010
1100
0110
1100
,
0011
0101
1010
1001
0110
1100
0101
1001
,
0110
0000
1010
0000
0101
0000
1001
0000
0110
1000
0011
0000
0110
0000
1001
0000
,
0110
1010
0110
0101
1001
0101
1010
1100
,
0011
0101
1010
1001
1100
0110
0101
1001
,
0110
1010
0110
0101
1001
0101
1010
1001
,
0110
1100
0110
0011
0101
1001
1010
0110
,
1100
0011
0101
1100
0110
1001
0101
1001
,
1010
0110
0011
1100
0110
0101
1001
1010
,
0101
1001
0110
1010
0101
1001
0011
1100
,
0011
0000
0101
0000
1010
0000
1001
0000
0101
0010
1100
0000
0110
0000
1100
0000
,
0101
1001
0110
1010
0101
1001
0011
1100
,
0110
0101
1001
1010
1001
0110
1010
1001
,
0101
0000
0000
0000
0000
0000
0000
1100
,
0000
0000
0011
0000
0101
0000
1010
0000
0001
0010
0100
1000
0100
0010
0001
0000
,
2000
0000
3001
0020
0000
0130
1000
0001
,
0110
2000
3002
0203
0302
2003
3020
0130
,
0011
0000
0100
2000
0000
3010
0100
0001
,
0220
0000
0000
0330
,
1010
1100
1010
0110
0101
0110
0101
1001
,
0110
1010
0101
1001
0011
1100
0110
1001
,
0101
1010
0110
0011
1100
0110
1001
0101
,
1010
0000
0110
0000
0011
0000
1100
0000
0110
0000
1001
0000
1100
0010
0101
0010
,
1100
0101
1001
0110
1001
0011
1100
0110
,
1001
0110
1010
0110
0101
1001
0101
1010
,
0011
1100
0110
0101
1001
0110
1010
0101
,
0010
1000
0010
1000
0010
0100
0001
0010
0000
0000
0100
0000
2000
0000
3000
0000
,
0011
0101
1001
1010
1100
0110
1001
0101
,
1001
1010
1100
0110
0011
0101
1001
1010
,
0101
1001
1010
1001
0110
1010
0110
0101
,
1001
0110
1100
0011
0101
1010
1001
0110
,
1100
0011
0101
1001
1010
0011
1100
0110
,
1001
0110
1010
0101
1001
0110
1100
0011
,
2100
0000
3000
0000
,
0011
1100
0011
1100
0011
1100
0011
1100
0011
1100
0011
1100
0011
1100
0011
1100
,
0012
0000
0003
1001
,
0110
1010
0101
1001
0101
1010
1001
0110
,
1100
0000
0000
0000
0000
0000
0000
0000
0011
0000
0000
0000
0000
0000
0000
0000
0110
0000
0000
0000
0000
0000
0000
0000
0101
0000
0000
0000
0000
0000
0000
0000
1010
0000
0000
0000
0000
0000
0000
0000
1100
0000
0000
0000
0000
0000
0000
0000
0220
0330
0000
0000
0000
0000
0000
0000
1001
0000
0000
0000
0000
0000
0000
0000
,
1010
0101
1001
0110
1010
0101
0011
0110
,
1100
0000
0000
0000
0110
0000
0000
0000
0101
0000
0000
0000
1010
0000
0000
0000
1001
0000
0000
0000
0110
0000
0000
0000
2002
3003
0000
0000
0110
0000
0000
0000
,
0101
1001
1010
0110
0011
1100
0110
1001
,
0110
0000
1010
0000
0101
0000
1001
0000
0011
0000
0110
0000
2002
3003
0110
0000
,
1010
0101
1001
1010
1100
0011
1100
1001
,
0101
1000
0011
1000
0011
0100
1001
0000
0020
0000
0000
0000
2230
3300
0000
0000
,
0011
1010
1100
0101
0011
1010
0101
1001
,
1010
0000
1100
0000
0011
0000
0101
0000
1001
0000
1010
0000
2002
3003
0110
0000
,
1010
0101
1001
0110
1100
0011
0110
0101
,
1010
0000
1100
0000
0110
0000
1001
0000
0101
0010
1001
0000
2200
3300
0011
0000
,
1010
0101
1001
1010
0101
0011
1100
0110
,
0101
0000
1001
0000
1010
0000
1100
0000
0011
0000
0101
0000
2020
3030
0101
0000
,
1000
0100
0010
0001
0010
0000
0100
1000
0100
0010
0001
0000
0010
0100
1000
0000
,
0001
0100
0010
1000
0100
0000
0010
0001
0010
0100
1000
0000
0101
0000
0000
0000
,
1001
0000
1001
0000
1001
0000
1001
0000
1001
0110
1001
0000
1001
0000
1001
0000
,
0110
0110
0110
0110
,
1100
0000
1100
0000
1100
0000
1100
0000
1100
0011
1100
0000
1100
0000
1100
0000
,
1001
0000
0000
0000
1001
0000
0000
0000
1001
0000
0000
0000
1001
0100
0010
0000
,
0101
0000
0101
0000
0101
0000
0101
0000
0101
1010
0101
0000
0101
0000
0101
0000
,
1001
1001
1001
1001
,
0110
0000
0110
0000
0110
0000
0110
0000
0110
1001
0110
0000
0110
0000
0110
0000
,
1001
0000
0000
0000
1001
0000
0000
0000
1100
0011
1100
0011
1100
0011
1100
0000
,
0011
0000
0101
0000
1010
0000
1001
0000
0110
1000
0011
0000
0110
0000
1100
0000
,
0011
0110
1100
0110
0101
1001
1010
1001
,
0110
0000
1010
0000
0101
0000
1001
0000
1100
0010
0101
0000
1010
0000
1001
0000
,
0110
0000
1010
0000
0101
0000
1100
0000
0011
0000
0110
0000
1010
0001
1100
0000
,
0011
0000
0101
0000
1010
0000
1001
0000
0110
1000
0011
0000
1100
0000
1001
0000
,
1010
0110
0101
0011
1100
0110
1001
0101
,
1010
0000
0000
0000
,
0000
0000
0000
1001
,
1001
0101
1001
1010
1100
0011
0101
1100
,
0110
1010
0101
1001
0011
1100
0110
1010
,
0101
0011
0110
1010
0110
0101
1001
1010
,
0101
0000
1001
0000
0110
0000
1010
0000
0011
0100
1010
0000
0110
0000
1001
0000
,
0110
0101
1001
1010
0101
0011
1100
0110
,
1001
1010
0101
1001
0110
1100
0011
1100
,
0101
1001
0110
1010
0011
1100
0110
1001
,
0110
1010
0101
1001
0110
1100
0011
1100
,
0110
0101
1001
1010
0110
1010
0101
0011
,
1100
0110
0101
1001
0110
1100
0011
0110
,
1100
0011
1001
0110
1001
0101
1010
1100
,
0011
0000
0101
0000
1010
0000
0101
0000
1010
0100
0011
0000
1100
0000
0011
0000
,
1100
0110
0101
1001
0110
1010
0101
0011
,
1100
0110
1010
0101
1001
0110
0101
1001
,
0110
0000
0000
0000
0000
0000
0000
1100
,
0000
0000
0011
0000
0101
0000
1001
0000
1010
0101
1010
0000
1001
0000
0110
0000
,
1010
0110
1010
0101
0110
0101
1100
0011
,
0110
0101
1010
0110
1010
0101
1001
0110
,
1100
0011
0110
0101
1010
1100
0110
0101
,
1001
0000
0110
0000
1010
0000
0110
0000
1001
0100
0011
0000
0110
0000
0101
0000
,
1010
0101
1001
0110
0011
0110
0011
1010
,
0110
1010
0101
1001
0110
1010
0110
0101
,
1001
0110
0101
0110
1010
1001
1100
0011
,
1001
0000
0110
0000
1001
0000
0101
0000
1010
0100
0011
0000
1100
0000
1001
0000
,
0110
1100
0110
0101
,
1001
0110
1010
1001
,
0110
1010
0101
1001
,
0110
0000
0000
0000
1100
0000
0000
0000
0011
1100
0011
0000
0110
0000
1001
0000
,
0110
1010
0101
1001
,
0110
1100
0011
0110
,
0101
0000
0000
0000
0000
0000
0000
1001
,
0000
0000
0110
0000
1010
0000
0101
0000
1100
0011
1100
0000
1001
0000
0220
0000
,
0330
0000
0000
0000
;
