#TITLE:Headstrong Groove;
#SUBTITLE:(Dj Muster Mix);
#ARTIST:Johnny Fiasco;
#TITLETRANSLIT:;
#SUBTITLETRANSLIT:;
#ARTISTTRANSLIT:;
#CREDIT:;
#BANNER:;
#BACKGROUND:;
#LYRICSPATH:;
#CDTITLE:;
#MUSIC:Headstrong Groove (Dj Muster Mix).mp3;
#OFFSET:0.000;
#SAMPLESTART:46.501;
#SAMPLELENGTH:5.000;
#SELECTABLE:YES;
#BPMS:0.000=129.029;
#STOPS:;
#BGCHANGES:;
// cache tags:
#FIRSTBEAT:1.000;
#LASTBEAT:193.000;
#SONGFILENAME:Songs/new cedric/Headstrong Groove/Headstrong groove.sm;
#HASMUSIC:1;
#HASBANNER:0;
#MUSICLENGTH:90.070;
// end cache tags

//---------------dance-single - Light----------------
#NOTES:
     dance-single:
     Light:
     Easy:
     3:
     0.251,0.214,0.100,0.011,0.000,148.000,9.000,1.000,0.000,0.000:
0000
1000
0001
0010
,
0100
0010
0100
0000
,
0001
1000
0100
1000
,
0010
0000
1000
0100
,
0001
0010
0100
0000
,
0010
0001
0100
1000
,
0001
0000
1000
0100
,
0010
0001
0100
0000
,
0010
0100
1000
0100
,
0001
0000
0100
0001
,
0010
0100
1000
0000
,
0001
1000
0100
0001
,
0010
0000
0100
0010
,
0001
0010
1000
0000
,
0010
0001
0100
0000
,
0100
0001
1000
0001
,
0010
0000
0100
1000
,
0001
1000
0100
0000
,
0010
0001
0100
0001
,
1000
0000
0010
0001
,
0100
1000
0001
0000
,
0100
0001
0010
1000
,
0100
0000
0001
0100
,
1000
0100
0010
0000
,
0100
0001
0010
0001
,
1000
0000
0100
0001
,
0010
0001
0100
0000
,
0001
0100
1000
0010
,
0010
0000
0100
0100
,
0001
0001
1000
0000
,
0010
0010
0100
0100
,
0001
0000
1000
1000
,
0010
0010
0100
0000
,
0001
1000
0010
1000
,
0100
0000
0010
0001
,
1000
0100
0001
0000
,
0100
1000
0010
1000
,
0100
0000
0010
1000
,
0001
0100
1000
0000
,
0200
0000
0000
0000
,
0301
0000
1100
0000
,
0010
0000
0101
0000
,
0010
0000
1001
0000
,
0001
0000
1100
0000
,
0010
0000
0101
0000
,
0001
0000
0100
0000
,
1010
0000
0100
0000
,
0011
0000
0100
0000
,
1001
1001
0000
0000
;

//---------------dance-single - Beginner----------------
#NOTES:
     dance-single:
     Beginner:
     Beginner:
     1:
     0.154,0.134,0.000,0.000,0.000,97.000,0.000,0.000,0.000,0.000:
0000
1000
0000
0010
,
0100
0000
0100
0000
,
0001
0000
0100
0000
,
0010
0000
1000
0000
,
0001
0000
0100
0000
,
0010
0000
0100
0000
,
0001
0000
1000
0000
,
0010
0000
0100
0000
,
0010
0000
1000
0000
,
0001
0000
0100
0000
,
0010
0000
1000
0000
,
0001
0000
0100
0000
,
0010
0000
0100
0000
,
0001
0000
1000
0000
,
0010
0000
0100
0000
,
0001
0000
1000
0000
,
0010
0000
0100
0000
,
0001
0000
0100
0000
,
0010
0000
0100
0000
,
1000
0000
0010
0000
,
0100
0000
0001
0000
,
0100
0000
0010
0000
,
0100
0000
0001
0000
,
1000
0000
0010
0000
,
0100
0000
0010
0000
,
1000
0000
0100
0000
,
0010
0000
0100
0000
,
0001
0000
1000
0000
,
0010
0000
0100
0000
,
0001
0000
1000
0000
,
0010
0000
0100
0000
,
0001
0000
1000
0000
,
0010
0000
0100
0000
,
0001
0000
0010
0000
,
0100
0000
0010
0000
,
1000
0000
0001
0000
,
0100
0000
0010
0000
,
0100
0000
0010
0000
,
0001
0000
1000
0000
,
0100
0000
0000
0000
,
0001
0000
0100
0000
,
0010
0000
0100
0000
,
0010
0000
1000
0000
,
0001
0000
0100
0000
,
0010
0000
1000
0000
,
0001
0000
0100
0000
,
0010
0000
0100
0000
,
0010
0000
0100
0000
,
0001
1000
0000
0000
;

//---------------dance-single - Standard----------------
#NOTES:
     dance-single:
     Standard:
     Medium:
     6:
     0.425,0.375,0.200,0.033,0.017,247.000,18.000,3.000,0.000,0.000:
0000
0000
0000
0000
1000
0000
0000
1000
0000
0000
1000
0000
0000
0000
0001
0000
,
0100
0000
0010
0000
0101
0000
0100
0010
,
0001
0000
0100
0000
0110
0000
0001
0100
,
0010
0000
1000
0000
1010
0000
0100
0010
,
0001
0000
0100
1000
0100
0000
0010
0001
,
0010
0000
0100
1000
0100
0000
0001
0010
,
0001
0000
0100
0000
1010
0000
0100
0001
,
0010
0000
0100
1000
0100
0000
0010
0001
,
0010
0000
0000
0000
1000
0000
0000
0010
0000
0000
1000
0000
0000
0000
0100
0000
,
0001
0000
0100
1000
0100
0000
0010
0000
,
0011
0000
1000
0100
1000
0000
0001
0100
,
0001
0000
0100
1000
0100
0000
0010
0001
,
0010
0000
0100
1000
0100
0000
0001
0010
,
0001
0000
0100
0100
1000
0000
0010
0100
,
0010
0000
0100
0010
0100
0000
0001
0100
,
0001
0000
1000
0100
1000
0000
0010
0001
,
0010
0000
0000
0000
0100
0000
0000
0010
0000
0000
0100
0000
0000
0000
0100
0000
,
0000
0001
0000
1000
0000
0001
0001
0100
,
0000
0010
0000
0100
0000
0100
1000
0100
,
0000
0010
0000
0110
0000
0010
0100
0010
,
0000
1000
0000
0001
0000
1000
0001
1000
,
0000
0001
0000
0100
0000
0010
1000
0010
,
0000
0100
0010
0100
0000
0100
1000
0100
,
0000
0010
0001
0100
0000
0010
1000
0010
,
0000
0100
0001
0100
0000
0010
1000
0010
,
0000
0100
0010
0100
0000
1000
0100
1000
,
0000
0001
0100
0001
0000
0010
0100
0010
,
0000
0100
0010
0100
0000
0100
0010
0100
,
0000
1000
0100
1000
0000
0001
0010
0001
,
0000
0100
0000
0110
0000
1000
0001
0101
,
0000
0001
0000
1010
0000
0100
0010
0101
,
0000
0001
0000
1000
0000
0100
0010
1001
,
0000
0010
0000
0100
0000
0010
0000
0010
,
0000
1000
0000
0001
0000
0100
0000
0010
,
0000
0100
0000
0010
0000
0100
0000
0010
,
0000
1000
0000
0010
0000
0100
0000
0001
,
0200
0010
0010
1300
,
0200
0010
0010
0001
,
0001
1000
1000
0010
,
0310
0020
0000
0000
,
0001
0000
0100
0000
0100
0100
0100
0000
,
0001
0000
0100
0000
0130
0010
0100
0000
,
0010
0000
1001
0000
1000
0100
1000
0000
,
0001
0000
0110
0000
0100
1000
0100
0000
,
0010
0000
1000
0000
1000
0100
1000
0000
,
0001
0000
1001
0000
0100
0010
0100
0000
,
0010
0000
0110
0000
0100
0010
0100
0000
,
0010
0000
0101
0000
0100
0001
0010
0000
,
0011
1100
0000
0000
;

//---------------dance-single - Heavy----------------
#NOTES:
     dance-single:
     Heavy:
     Hard:
     8:
     0.530,0.562,0.078,0.044,0.305,323.000,7.000,4.000,0.000,0.000:
0000
0000
0000
0000
1000
0000
0000
0001
0000
0000
1000
0000
0000
0010
0000
0000
,
0100
0000
0000
0010
0000
0000
1000
0000
0000
0100
0000
0000
0010
0000
0000
0001
,
0000
0000
0100
0000
0000
1000
0000
0000
0100
0000
0000
0010
0100
0000
0010
0000
,
0100
0010
0000
0100
0000
0010
0100
0000
1000
0001
0000
0000
1000
0000
0100
0000
,
0001
1000
0000
0001
0000
1000
0010
0000
0100
0001
0000
0000
0001
0000
1000
0000
,
0010
0100
0000
0010
0000
1000
0001
0000
0100
0010
0000
0000
1000
0000
0010
0000
,
0001
1000
0000
0010
0000
0001
0100
0000
1000
0001
0000
1000
0001
0000
0100
0000
,
0010
0100
0000
0010
0000
1000
0010
0000
0100
0001
0000
0100
0001
0000
1000
0000
,
0010
0100
0000
0000
0001
0000
0000
1000
0000
0000
0100
0000
0000
0010
0000
0000
,
0001
0000
0000
0100
0000
0000
1000
0000
0100
0000
0000
0010
0000
0000
0100
0000
,
0000
0010
0000
0000
0100
0000
0000
0000
1000
0000
0001
0000
0100
0000
1000
0000
,
0001
0100
0010
0000
0100
0001
1000
0001
,
0010
0100
1000
0001
0100
0001
1000
0100
,
0001
1000
0010
0100
1000
0010
0001
0100
,
0010
1000
0001
1000
0100
1000
0010
0100
,
0001
0010
0000
0010
1000
0100
0001
0100
,
0010
0000
0100
0000
0000
0010
0000
0000
0100
0000
0000
1000
0000
0000
0010
0000
,
0000
0001
0000
0000
0010
0000
0000
1000
0000
0000
0100
0000
0000
0001
0000
0000
,
0010
0000
0000
0100
0000
0000
0000
0010
0100
0000
0100
0010
0000
0001
0000
0100
,
1000
0000
0100
0000
1000
0100
0000
0001
0010
0000
0100
1000
0000
0010
0000
1000
,
0100
0000
0010
0000
1000
0001
0000
1000
0001
0000
1000
0010
0000
0100
0000
0010
,
0100
0000
0100
0001
0010
1000
0001
1000
,
1100
0000
0100
0010
0001
1000
0100
0001
,
1001
0000
0001
1000
0010
0100
1000
0001
,
0101
0000
0001
0100
0010
0100
0001
0010
,
0000
1000
0100
1000
0100
0010
0100
0001
,
0000
0001
0010
0001
0100
1000
0001
1000
,
0000
0100
0001
0010
1000
0010
1000
0010
,
0000
0100
1000
0010
0100
0001
0001
0001
,
0000
0100
1000
0100
1000
0100
1000
0010
,
0000
0010
0100
0010
0100
1000
0010
1000
,
0000
0001
0100
0010
1000
0100
0001
0000
,
2000
0100
0100
0010
,
0001
0001
0010
0001
,
0100
0010
0010
0010
,
3020
1000
0001
0001
,
0032
0010
0010
0100
,
0100
0010
0013
0001
,
0001
0100
1000
0001
,
0200
0000
0000
0000
,
0301
1000
0001
0100
1000
0000
0001
0100
,
0010
1000
0001
1000
0101
0000
0010
0100
,
0010
0100
0010
0100
1001
0000
1000
0100
,
0001
0100
1000
0100
1100
0000
0010
0100
,
0010
0001
1000
0001
1000
0000
0001
0100
,
0001
0010
1000
0010
0001
1000
0001
0100
,
0010
0000
0100
0010
0001
0100
1000
0001
,
0010
0100
1000
0000
1000
0010
0100
0010
,
1000
0001
1001
0000
0000
0000
0000
0000
;
