#TITLE:Phantoms;
#SUBTITLE:~Speedy Mix~;
#ARTIST:Toby Emerson;
#TITLETRANSLIT:;
#SUBTITLETRANSLIT:;
#ARTISTTRANSLIT:;
#CREDIT:J. DeGarmo;
#BANNER:Phantoms-banner.PNG;
#BACKGROUND:Phantoms-bg.PNG;
#LYRICSPATH:;
#CDTITLE:CDTITLE.jpg;
#MUSIC:Phantoms ~Speedy Mix~.ogg;
#OFFSET:0.000;
#SAMPLESTART:7.059;
#SAMPLELENGTH:11.294;
#SELECTABLE:YES;
#BPMS:0.000=170.000,100.000=85.000,116.000=170.000;
#STOPS:;
#BGCHANGES:;
// cache tags:
#FIRSTBEAT:15.750;
#LASTBEAT:283.500;
#SONGFILENAME:Songs/Definitive Keyboard Megapack/Phantoms ~Speedy Mix~(Leone510)/Phantoms ~Speedy Mix~.sm;
#HASMUSIC:1;
#HASBANNER:1;
#MUSICLENGTH:109.058;
// end cache tags

//---------------dance-double - J. DeGarmo----------------
#NOTES:
     dance-double:
     J. DeGarmo:
     Challenge:
     13:
     1.000,1.000,0.816,0.073,1.000,724.000,89.000,8.000,27.000,0.000:























00000000
00000000
00000000
00000000
,
00000000
00000000
00000000
00000000
,
00000000
00000000
00000000
00000000
,
00000000
00000000
00000000
00000000
00000000
00000000
00000000
00000000
00000000
00000000
00000000
00000000
00000000
00000000
00000000
00000000
00000000
00000000
00000000
00000000
00000000
00000000
00000000
00000000
00000000
00000000
00000000
00000000
00000000
00000000
00001000
00010000
,
00001000
01000000
00000000
00100000
00000000
00000000
00000000
00000000
00000000
00000000
00000000
00000000
00000000
00000000
00000000
00000000
,
10000000
00000000
00100000
00000000
01000000
00010000
00000000
00100000
00000000
00001000
00010000
00000000
00000100
00000010
00000000
00000001
,
00000000
00001000
00000001
00000000
00000100
00000010
00000000
00000010
00000000
00001000
00000100
00000000
00010000
00001000
00100000
00001000
,
00010000
00000000
01000000
00000000
00100000
10000000
00000000
00010000
00000000
01000000
00001000
00000000
00010000
01000000
00000000
10000000
,
00000000
00010000
00100000
00000000
00001000
00000010
00000000
00000001
00000000
00000010
00000100
00000000
00001000
00000010
00000100
00000001
,
00000010
00000000
00000100
00000000
00001000
00000100
00000000
00010000
00000000
00001000
00100000
00000000
01000000
10000000
00000000
00100000
,
00000000
00010000
00100000
00000000
01000000
00001000
00000000
00001000
00000000
00100000
00010000
00000000
00000010
00000001
00001000
00000001
,
00000100
00000000
00010000
00000000
01000000
10000000
00000000
00100000
00000000
01000000
10000000
00000000
01000000
00010000
00000000
00100000
,
00000000
00001000
00010000
00000000
00000100
00001000
00000000
00001000
00000000
00001000
00000010
00000000
00000100
00000001
00001000
00000100
,
00010000
00000000
01000000
00000000
10000000
00000000
00010000
00100000
00110000
00000000
00001000
00000000
00010000
00000000
00000100
00001000
,
00001100
00000000
00000010
00000000
00000001
00000000
00000100
00000010
00000110
00000000
00000001
00000000
00001000
00000000
00000100
00010000
,
00010100
00000000
00001000
00000000
00100000
00000000
01000000
10000000
11000000
00000000
00100000
00000000
01000000
00000000
00010000
00100000
,
00110000
00000000
00000100
00000000
00001000
00000000
00000001
00000100
00000101
00000000
00000010
00000000
00000100
00000000
00010000
00001000
,
00011000
00000000
01000000
00000000
10000000
00000000
00100000
01000000
01100000
00000000
00010000
00000000
00100000
00000000
01000000
10000000
,
11000000
00000000
00100000
00000000
01000000
00000000
00010000
00100000
00110000
00000000
00000100
00000000
00001000
00000000
00000100
00000010
,
00000110
00000000
00000001
00000000
00000100
00000000
00000001
00000010
00000011
00000000
00000001
00000000
00001000
00000000
00000010
00001000
,
00001010
00000000
00000100
00000000
00010000
00000000
00001000
00100000
00101000
00000000
01000000
00000000
10000000
00000000
00000000
00000000
,
00100000
10000000
01000000
00010000
10000000
00100000
00001000
00010000
,
00000010
00000001
00001000
00000100
00000001
00001000
00000100
00010000
,
01000000
10000000
00100000
00010000
10000000
01000000
00001000
00010000
,
00000100
00000001
00001000
00000010
00000100
00000001
00000100
00001000
,
00001100
00000010
00000100
00001002
00000000
00001003
00001100
00000000
00101000
00010000
01000000
01200000
00000000
10300000
01100000
00000000
,
01010000
00000000
00001000
00000000
00100000
00000000
00021000
00000000
00000000
00000000
00000000
00000000
00030100
00000000
00001000
00000000
00000001
00000010
00000001
00000010
00000100
00001000
00000100
00001000
00000010
00000000
00000000
00000M00
00MM00M0
00000000
0000M000
00000000
,
00110000
01000000
00100000
20010000
00000000
00000000
30010000
00000000
00010100
00001000
00000010
00000210
00000000
00000000
00000310
00000000
,
00001010
00000000
00000000
00000000
00010000
00000000
00000000
00000000
00000100
00000000
00000000
00000000
00012000
00000000
00000000
00000000
00000000
00000000
00000000
00000000
00000000
00000000
00000000
00000000
00103000
00000000
00000000
00000000
00000000
00000000
00010000
10000000
00010000
00000000
01000000
00000000
00000000
00000000
00100000
00000000
00000000
00000000
10000000
00000000
00000000
00000000
01000000
00000000
00000000
00000000
00100000
00000000
00001000
00000000
00010000
00000000
00000100
00000000
00001000
00000000
00000010
00000000
00000100
00000000
,
00000000
00000101
00000000
00000000
00000110
00000000
00000000
00001001
00000000
00000000
00001100
00000000
00000000
00011000
00000000
00101000
,
00000000
00110000
00000000
00000000
01100000
00000000
00000000
11000000
00000000
00000000
10010000
00000000
00000000
01010000
00000000
00110000
,
00000000
00011000
00000000
00000000
00001010
00000000
00000000
00000110
00000000
00000000
00001001
00000000
00000000
00000101
00000000
00000110
,
00000000
00001010
00000000
00000000
00001100
00000000
00000000
00010100
00000000
00000000
00101000
00000000
00000000
01100000
00000000
11000000
,
00000000
10100000
00000000
00000000
01100000
00000000
00000000
10010000
00000000
00000000
00110000
00000000
00000000
00011000
00000000
00010100
,
00000000
00001100
00000000
00000000
00000110
00000000
00000000
00000011
00000000
00000000
00001001
00000000
00000000
00001010
00000000
00001100
,
00000000
00011000
00000000
00000000
01010000
00000000
00000000
01100000
00000000
00000000
10010000
00000000
00000000
10100000
00000000
01100000
,
00000000
01010000
00000000
00000000
00110000
00000000
00000000
00101000
00000000
00000000
00010100
00000000
00000000
00000110
00000000
00000000
,
00000001
00000010
00000001
00000000
00001000
00000100
00000000
00010000
00000000
00010000
00001000
00000000
01000000
00100000
01000000
00100000
,
10000000
00100000
10000000
00000000
00010000
01000000
00000000
00100000
00000000
00100000
01000000
00000000
00001000
00010000
00001000
00100000
,
00001000
00010000
00001000
00000000
00100000
01000000
00000000
10000000
00000000
00010000
00100000
00000000
00001000
00010000
00000100
00001000
,
00000010
00000100
00000001
00000000
00001000
00000100
00000000
00010000
00000000
00001000
00000100
00000000
00000010
00000001
00000010
00000100
,
00001000
00000010
00000100
00000000
00000001
00001000
00000000
00000010
00000000
00010000
00001000
00000000
00100000
01000000
00100000
00010000
,
00100000
01000000
00100000
00000000
00010000
01000000
00000000
10000000
00000000
01000000
00100000
00000000
10000000
00010000
01000000
00001000
,
00100000
00001000
00010000
00000000
00000100
00000010
00000000
00000001
00000000
00000100
00001000
00000000
00000100
00000010
00001000
00000001
,
00000010
00000100
00001000
00000000
00000100
00010000
00000000
00001000
00000000
00100000
01000000
00000000
10000000
00000000
00010000
00000000
,
10000000
00000000
01000000
00000000
00100000
00000000
01000000
10000000
11000000
00000000
00010000
01000000
01010000
00000000
00000000
00000000
,
00001000
00000000
00010000
00000000
00000100
00000000
00000010
00000001
00000011
00000000
00000100
00001000
00001100
00000000
00000000
00000000
,
00000010
00000000
00001000
00000000
00000100
00000000
00010000
00000100
00010100
00000000
00001000
00100000
00101000
00000000
00000000
00000000
,
01000000
00000000
10000000
00000000
00100000
00000000
01000000
00010000
01010000
00000000
00100000
10000000
10100000
00000000
00000000
00000000
,
10000000
00100000
01000000
00000000
00010000
00000000
00100000
00001000
00010000
00000000
00000100
00000000
00000110
00000000
00000000
00000000
,
00000001
00001000
00000010
00000000
00000100
00000000
00000010
00001000
00000100
00000000
00010000
00000000
00011000
00000000
00000000
00000000
,
00100000
01000000
10000000
00000000
00100000
00000000
10000000
00010000
01000000
00000000
00001000
00000000
00011000
00000000
00000000
00000000
,
00001000
00000000
00000100
00000000
00000010
00000000
00000001
00000000
00002000
00000000
00000000
00000000
00000200
00000000
00000000
00003300
,
00010000
00001000
00010000
00001000
00100000
00001000
00100000
00001000
00100000
00010000
00100000
00010000
01000000
00010000
01000000
00010000
,
01000000
00100000
01000000
00100000
10000000
00100000
10000000
00100000
10000000
00010000
10000000
00010000
00100000
00010000
00100000
00010000
,
00100000
00001000
00100000
00001000
00010000
00001000
00010000
00001000
00010000
00000100
00010000
00000100
00000010
00000100
00000010
00000100
,
00000010
00000001
00000010
00000001
00001000
00000001
00001000
00000001
00001000
00000010
00001000
00000010
00000100
00000010
00000100
00000010
,
00000100
00000001
00000100
00000001
00000010
00000001
00000010
00000001
00000010
00000100
00000010
00000100
00001000
00000100
00001000
00000100
,
00010000
00001000
00010000
00001000
00100000
00010000
00100000
00010000
10000000
01000000
10000000
01000000
00100000
00010000
00100000
00010000
,
10000000
01000000
00100000
00010000
10000000
01000000
00100000
00010000
00100000
00001000
00010000
00000100
00001000
00000010
00000100
00000001
,
00001000
00000100
00000010
00000001
00001000
00000100
00000010
00000001
00000010
00000100
00001000
00000001
00000010
00000100
00001000
00000100
,
00010000
00001000
00100000
00010000
01000000
00100000
10000000
01000000
00100000
01000000
10000000
00010000
00100000
00010000
01000000
00010000
,
00100000
00001000
00010000
00000100
00010000
00000100
00001000
00000010
00000100
00000001
00000010
00000100
00000010
00000001
00001000
00000100
,
00000010
00000100
00001000
00000100
00010000
00001000
00100000
01000000
00100000
00010000
00100000
01000000
10000000
01000000
00100000
00010000
,
01000000
00100000
10000000
00010000
00100000
00001000
00010000
00000100
00000010
00000001
00000100
00000010
00001000
00000100
00000010
00000001
,
00000100
00000010
00001000
00000100
00010000
00001000
00100000
00010000
01000000
00100000
10000000
01000000
10000000
00100000
01000000
00010000
,
00100000
00001000
00010000
00000100
00001000
00000010
00000100
00000001
00000010
00000001
00000010
00000100
00001000
00000010
00000100
00000010
,
00010000
00001000
00100000
00001000
00000010
00001000
01000000
00010000
01000000
00100000
10000000
00010000
01000000
10000000
01000000
00010000
,
01000000
00001000
00100000
00001000
00010000
00000100
00000010
00000001
00000100
00001000
00000100
00000010
00001000
00100000
01000000
10000000
,
01000000
00000000
000MM000
000MM000
000MM000
000MM000
000MM000
0MMMMMM0
,
00MMMM00
00000000
000MM000
00000000
00000000
00000000
00000000
00000000
00000000
00000000
00000000
00101000
00000000
00000000
00010100
00000000
;

//---------------dance-double - J. DeGarmo----------------
#NOTES:
     dance-double:
     J. DeGarmo:
     Hard:
     10:
     0.699,0.812,0.229,0.064,0.491,502.000,25.000,7.000,0.000,0.000:



























00000000
00000000
00000000
00000000
,
00000000
00000000
00000000
00000000
,
00000000
00000000
00000000
00000000
,
00000000
00000000
00000000
00000000
,
00000000
00000000
00000000
00000000
,
01000000
00000000
00100000
00000000
10000000
01000000
10000000
00000000
00010000
00000000
00100000
00000000
00001000
00010000
00001000
00000000
,
00100000
00001000
00010000
00000100
00000010
00000001
00000100
00000000
,
00000010
00000000
00001000
00000000
00000001
00000010
00000001
00000000
00001000
00000000
00000100
00000000
00010000
00001000
00010000
00000000
,
01000000
10000000
00100000
01000000
00010000
00100000
00001000
00000000
,
01000000
00100000
10000000
00000000
00100000
00010000
00100000
00000000
,
01000000
00001000
00100000
00010000
00000010
00000001
00000100
00000000
,
00001000
00000100
00000010
00000000
00010000
00001000
00100000
00000000
,
10000000
00100000
01000000
10000000
00010000
00100000
01000000
01000000
,
01000000
00000000
10000000
00000000
00100000
00000000
00000000
01000000
00010000
00000000
00100000
00000000
00001000
00000000
00000000
00000000
,
00010000
00000000
00000010
00000000
00000100
00000000
00000000
00000001
00001000
00000000
00000100
00000000
00000010
00000000
00000000
00000000
,
00000001
00000000
00000000
00000001
00000100
00000000
00000000
00000100
00000010
00000000
00000000
00000010
00001000
00000000
00000000
00001000
,
01000000
00000000
00000000
01000000
10000000
00000000
00000000
10000000
00100000
00000000
01000000
00000000
00010000
00000000
01000000
00000000
,
00100000
10000000
00010000
00000000
00100000
00001000
00010000
00000000
,
00000010
00000100
00001000
00000100
00000001
00000010
00000100
00000000
,
00010000
00000000
00000000
00010000
00001000
00000000
00000000
00001000
00100000
00000000
00000000
00100000
01000000
00000000
00000000
01000000
,
10000000
00100000
00010000
00100000
01000000
00001000
00010000
00000000
,
00001100
00000011
00001010
00011000
,
00101000
00110000
11000000
10100000
,
01010000
00011000
00001010
00001001
,
00001010
00101000
10010000
11000000
,
10000000
00100000
01000000
00020000
00000000
00130000
00001000
00000000
00010000
00000010
00000100
00000002
00000000
00000103
00001000
00000000
,
00000100
00000010
00000100
00000020
00000000
00000000
00001030
00000100
00000001
00000100
00010000
02000000
00000000
00000000
00000000
00000000
,
13000000
00010000
00100000
20000000
00000000
00000000
30100000
00000000
00001000
00010000
00000100
00000002
00000000
00000000
00000103
00000000
,
00010000
00001000
00010000
02000000
00000000
00000000
13000000
00000000
00100000
00000000
00000000
01000000
00000000
00000000
00100000
00000000
,
00000000
10000000
00000000
00000000
00010000
00000000
00000000
00100000
00000000
00000000
00001000
00000000
00000000
00010000
00000000
00000100
,
00000000
00000010
00000000
00000000
00000001
00000000
00000000
00000100
00000000
00000000
00000010
00000000
00000000
00001000
00000000
00000100
,
00000000
00010000
00000000
00000000
01000000
00000000
00000000
10000000
00000000
00000000
00100000
00000000
00000000
01000000
00000000
00100000
,
00000000
10000000
00000000
00000000
01000000
00000000
00000000
00010000
00000000
00000000
00000100
00000000
00000000
00000010
00000000
00000001
,
00000000
00000100
00000000
00000000
00001000
00000000
00000000
00000100
00000000
00000000
00000010
00000000
00000000
00010000
00000000
00001000
,
00000000
00100000
00000000
00000000
10000000
00000000
00000000
00100000
00000000
00000000
01000000
00000000
00000000
10000000
00000000
00100000
,
00000000
00001000
00000000
00000000
00100000
00000000
00000000
01000000
00000000
00000000
00001000
00000000
00000000
00010000
00000000
00000010
,
00000000
00000001
00000000
00000000
00000010
00000000
00000000
00001000
00000000
00000000
00000100
00000000
00000000
00000010
00000000
00000000
,
00000001
00000010
00000001
00000010
00000001
00000000
00000100
00000000
00000010
00000000
00001000
00000000
00000100
00000000
00010000
00000000
,
00001000
01000000
00100000
10000000
00010000
00100000
01000000
00000000
,
10000000
01000000
10000000
01000000
10000000
00000000
00100000
00000000
01000000
00000000
00010000
00000000
00100000
00000000
00001000
00000000
,
00010000
00000010
00000100
00000001
00001000
00000100
00000010
00000000
,
00000100
00000001
00000100
00001000
00000010
00010000
01000000
10000000
,
00100000
01000000
10000000
01000000
00100000
00010000
00100000
00000000
,
10000000
01000000
10000000
00000000
11000000
00000000
00000000
00100000
00010000
00000000
00100000
00000000
00001000
00000000
00010000
00000000
,
00000100
00001000
00000100
00000000
00001100
00000000
00000000
00000010
00000001
00000000
00000100
00000000
00000010
00000000
00000000
00000000
,
00001000
00000000
00000010
00000000
00000100
00000000
00000001
00000010
00000001
00000000
00001000
00000000
00001000
00000000
00000000
00000000
,
00000100
00000000
00010000
00000000
00001000
00000000
01000000
00010000
01000000
00000000
00100000
00000000
00100000
00000000
00000000
00000000
,
10000000
00000000
00100000
00000000
01000000
00000000
00010000
10000000
00010000
00000000
00100000
00000000
00100000
00000000
00000000
00000000
,
00001000
00000000
00010000
00000000
00000100
00000000
00000010
00000001
00000010
00000000
00000100
00000000
00000100
00000000
00000000
00000000
,
00001000
00000000
01000000
00000000
10000000
00000000
00010000
00100000
00010000
00000000
10000000
00000000
10100000
00000000
00000000
00000000
,
01000000
00000000
00010000
00000000
00100000
00000000
00001000
00010000
00001000
00000000
00000100
00000000
00000110
00000000
00000000
00000000
,
00000101
00000000
00000000
00000001
00000010
00000000
00000000
00000000
00001100
00000000
00000000
00001000
00000010
00000000
00000000
00000000
,
00011000
00000000
00000000
00001000
00100000
00000000
00000000
00000000
01100000
00000000
00000000
00000000
10010000
00000000
00000000
00000000
,
10000000
00100000
00010000
00100000
10000000
01000000
00010000
01000000
,
10000000
00010000
00100000
00001000
00000010
00000001
00000100
00001000
,
00000100
00000001
00000010
00001000
00000010
00000100
00000001
00000100
,
00010000
01000000
00010000
01000000
10000000
00100000
10000000
00100000
,
00010000
00100000
01000000
00001000
00000100
00001000
00000100
00000001
,
00000010
00000001
00001000
01000000
10000000
00100000
00001000
00100000
,
10000000
00010000
01000000
00001000
00000010
00000001
00000100
00001000
,
01000000
00100000
00010000
00100000
10000000
01000000
00100000
00010000
,
10000000
00000000
00100000
00000000
00001000
00000000
00100000
01000000
00100000
00000000
10000000
00000000
00010000
00000000
00100000
00001000
,
00100000
00000000
00010000
00000000
00000010
00000000
00000100
00001000
00000100
00000000
00000001
00000000
00000100
00000000
00001000
00000100
,
00001000
00000000
01000000
00000000
10000000
00000000
00100000
10000000
00100000
00000000
01000000
00000000
10000000
00000000
01000000
00010000
,
01000000
00000000
00100000
00000000
10000000
00000000
00010000
00100000
00010000
00000000
00000010
00000000
00000100
00000000
00001000
00000100
,
00001000
00000000
00000010
00000100
00000010
00000000
00001000
00000001
00001000
00000000
00000100
00010000
00000100
00000000
00010000
00001000
,
00010000
00000000
01000000
10000000
01000000
00000000
00100000
00010000
00100000
00000000
00010000
10000000
00010000
00000000
01000000
00001000
,
01000000
00000000
00001000
00100000
00001000
00000000
00010000
00000100
00010000
00000000
00000010
00000100
00000010
00000000
00000100
00001000
,
00000100
00000000
00000001
00000010
00000001
00000000
00001000
00000100
00001000
00000000
01000000
10000000
01000000
00000000
00100000
00010000
,
00100000
00000000
00000000
00000000
,
00000000
00000000
00000000
00000000
00000000
00000000
00000000
00000000
00000000
00000000
00000000
00010000
00000000
00000000
00000100
00000000
;

//---------------dance-double - J. DeGarmo----------------
#NOTES:
     dance-double:
     J. DeGarmo:
     Medium:
     8:
     0.438,0.475,0.220,0.147,0.326,294.000,24.000,16.000,0.000,0.000:

















00000000
00000000
00000000
00000000
,
00000000
00000000
00000000
00000000
,
00000000
00000000
00000000
00000000
,
00000000
00000000
00000000
00000000
,
00000000
00000000
00000000
00000000
,
00000000
00000000
00000001
00000000
00000000
00000100
00000000
00000000
00000000
00000000
00000010
00000000
00000000
00010000
00000000
00000000
,
00000000
00000000
00001000
00000000
00000000
01000000
00000000
00000000
00000000
00000000
00100000
00000000
00000000
10000000
01000000
10000000
,
00000000
00000000
00100000
00000000
00000000
01000000
00000000
00000000
00000000
00000000
00001000
00000000
00000000
00010000
00000000
00000000
,
00000000
00000000
00000100
00000000
00000000
00001000
00000000
00000000
00000000
00000000
00000100
00000000
00000000
00000010
00000001
00000010
,
00000000
00000000
00001000
00000000
00000000
00000010
00000000
00000100
00000000
00000000
00010000
00000000
00000000
01000000
00000000
00100000
,
00000000
00000000
00010000
00000000
00000000
00100000
00000000
10000000
00000000
00000000
00100000
00000000
00000000
00010000
00100000
00010000
,
00000000
00000000
00000010
00000000
00000000
00000001
00000000
00000100
00000000
00000000
00000001
00000000
00000000
00000010
00000000
00000000
,
00000000
00000000
00001000
00000000
00000000
01000000
00000000
00010000
00000000
00000000
00100000
00000000
00010000
10000000
00010000
10000000
,
00000000
00000000
00010000
00000000
00000000
00100000
00000000
00100000
00000000
00000000
00001000
00000000
00000000
00010000
00000000
00010000
,
00000000
00000000
00000010
00000000
00000000
00000100
00000000
00000100
00000000
00000000
00000100
00000000
00000001
00000010
00000001
00000010
,
00000000
00000000
00001000
00000000
00000000
00000010
00000000
00000000
00000000
00000000
00000100
00000000
00000000
00010000
00001000
00010000
,
00000000
00000000
00001000
00000000
01000000
00000000
00000000
00000000
00000000
00000000
00100000
00000000
10000000
01000000
10000000
01000000
,
00000000
00000000
00100000
00000000
00000000
00001000
00000000
00010000
00000000
00000000
00000010
00000000
00000000
00000100
00000000
00001000
,
00000000
00000000
00000100
00000000
00000000
00000001
00000000
00000010
00000000
00000000
00000100
00000000
00010000
00001000
00010000
00001000
,
00000000
00000000
01000000
00000000
00000000
10000000
00000000
00000000
00000000
00000000
01000000
00000000
00000000
00010000
00000000
00000000
,
00000000
00000000
00100000
00000000
00000000
01000000
00000000
00000000
00000000
00000000
01000000
00000000
00000000
01000000
10000000
00000000
,
01000000
00100000
00001000
00011000
,
00000100
00000010
00000001
00000101
,
00000010
00001000
00000100
00101000
,
01000000
10000000
00100000
11000000
,
00010000
00000000
00000000
01000000
00000000
00100000
01000000
00000000
00100000
00000000
00000000
10000000
00000000
01000000
10000000
00000000
,
01000000
00000000
00000000
00000000
00000000
00000000
10000000
01000000
00000000
00000000
00000000
00000000
00000000
00000000
00000000
00000000
,
00001000
00000000
00000000
00000000
00000000
00000000
00000000
00000000
00000010
00000000
00000000
00000001
00000000
00000000
00000100
00000000
,
00001000
00000000
00000000
00000100
00000000
00000000
00000010
00000000
00001000
00000000
00000000
00000001
00000000
00000000
00000010
00000000
,
00000002
00000000
00000000
00000000
,
00002003
00000000
00000000
00000000
,
00003200
00000000
00000000
00000000
,
00020300
00000000
00000000
00000000
,
00032000
00000000
00000000
00000000
,
02003000
00000000
00000000
00000000
,
03200000
00000000
00000000
00000000
,
20300000
00000000
00000000
00000000
,
30010000
01010000
00100000
11000000
,
00010000
00110000
00001000
00011000
,
00000100
00000110
00000001
00001001
,
00000010
00001100
00000100
00000011
,
00000001
00000100
00000000
00000000
00000010
00000000
00000000
00000000
00001000
00000000
00000100
00000000
00010000
00000000
00000000
00000000
,
00001000
01000000
00000000
00000000
00100000
00000000
00000000
00000000
10000000
00000000
00010000
00000000
01000000
00000000
00000000
00000000
,
00002000
00100000
00010000
00103000
,
00020000
00000100
00001000
00030100
,
00001000
00000000
00000000
00000000
00000010
00000000
00000000
00000100
00000000
00000000
00000001
00000000
00000010
00000000
00000000
00000000
,
00000100
00000000
00000000
00000000
00010000
00000000
00000000
00001000
00000000
00000000
01000000
00000000
00100000
00000000
00000000
00000000
,
10000000
00100000
01000000
00010000
,
00100000
00001000
00010000
00001000
00100000
00000000
00000000
00000000
,
00001000
00000000
00000000
00000000
00010000
00000000
00000000
00000100
00000000
00000000
00000010
00000000
00000001
00000000
00000000
00000000
,
00000100
00000000
00000000
00000000
00000010
00000000
00000000
00001000
00000000
00000000
00000100
00000000
00000010
00000000
00000000
00000000
,
00000100
00010000
00001000
01000000
,
00100000
01000000
00100000
00000000
10000000
00000000
00000000
00000000
,
00110000
00000000
00000000
00000000
00001000
00000000
00000000
00010100
00000000
00000000
00000000
00000000
00001000
00000000
00000010
00000000
,
00000100
00000000
00000000
00000000
00000001
00000000
00000000
00001100
00000000
00000000
00000000
00000000
00000010
00000000
00000001
00000000
,
00000100
00000000
00000000
00000000
00010000
00000000
00000000
01100000
00000000
00000000
00000000
00000000
10000000
00000000
00100000
00000000
,
01000000
00000000
00000000
00000000
00100000
00000000
00000000
01010000
00000000
00000000
00000000
00000000
00001000
00000000
00010000
00000000
,
00001000
00000000
00000000
00000000
00100000
00000000
00000000
00010100
00000000
00000000
00000000
00000000
00001000
00000000
00000010
00000000
,
00000100
00000000
00000000
00000000
00000001
00000000
00000000
00001100
00000000
00000000
00000000
00000000
00000010
00000000
00000001
00000000
,
00000100
00000010
00010000
00001000
,
02000000
00000000
00000000
00002000
00000000
03000000
00020000
00003000
,
00030100
00000000
00000010
00000001
00000000
00000000
00000100
00000000
,
00001010
00000000
00000000
00101000
00000000
01000000
10000000
00000000
,
00100000
01000000
00010000
00000000
00100000
00000000
00001000
00010000
,
00000020
00000000
00000000
00000230
00000000
00000000
00000302
00000000
00000000
00000003
00000000
00000000
00000000
00000000
00000000
00000000
,
00000001
00000010
00000100
00000000
00010000
00001000
00100000
00000000
,
11000000
00000000
00000000
01100000
00000000
00000000
00110000
00000000
,
00100000
00001000
00010000
00000100
00000001
00000100
00001000
00000010
,
00001000
00100000
00010000
00100000
10000000
01000000
00010000
01000000
,
10000000
00000000
00000000
00000000
;

//---------------dance-double - J. DeGarmo----------------
#NOTES:
     dance-double:
     J. DeGarmo:
     Easy:
     6:
     0.334,0.506,0.193,0.000,0.023,234.000,21.000,0.000,0.000,0.000:






00000000
00000000
00000000
00000000
,
00000000
00000000
00000000
00000000
,
00000000
00000000
00000000
00000000
,
00000000
00000000
00000000
00000000
,
00000000
00000000
00000000
00000000
,
00100000
00001000
00010000
00000100
,
00001000
00000010
00000100
00000001
,
00000010
00000100
00000001
00000100
,
00001000
00000010
00001000
01000000
,
10000000
00100000
01000000
10000000
,
01000000
00010000
00100000
00001000
,
00000010
00000001
00000100
00001000
,
00000100
00000010
00001000
00000100
,
00010000
00001000
01000000
10000000
,
01000000
00010000
00100000
10000000
,
00100000
00001000
00010000
00000010
,
00000001
00000010
00001000
00000100
,
00000001
00000100
00010000
00001000
,
00100000
01000000
00001000
01000000
,
10000000
00100000
00001000
00100000
,
10000000
01000000
00100000
00010000
,
10000000
00000000
00010000
00000000
,
01000000
00000000
00001000
00000000
,
00010000
00000000
00000010
00000000
,
00000100
00000000
00000001
00000000
,
00001000
00000000
00000000
00001000
00000000
00000000
00001000
00000000
00000100
00000000
00000000
00000100
00000000
00000000
00000100
00000000
,
00000010
00000000
00000000
00000001
00001000
00000000
00000000
00000000
,
01000000
00000000
00000000
00000000
00000000
00000000
00000000
00000000
10000000
00000000
00000000
10000000
00000000
00000000
10000000
00000000
,
00100000
00000000
00000000
00100000
00000000
00000000
00100000
00000000
01000000
00000000
00000000
01000000
00000000
00000000
01000000
00000000
,
00010000
00000000
00000000
00000000
,
01000000
00000000
00000000
00000000
,
00001000
00000000
00000000
00000000
,
00010000
00000000
00000000
00000000
,
00000100
00000000
00000000
00000000
,
00001000
00000000
00000000
00000000
,
00000010
00000000
00000000
00000000
,
00000100
00000000
00000100
00000000
,
00000001
00000100
00001000
00000100
,
00000001
00000100
00001000
00000100
,
00010000
00001000
00100000
01000000
,
10000000
00010000
00010000
00010000
,
10000000
01000000
00010000
01000000
,
10000000
01000000
00010000
01000000
,
00001000
00010000
00000100
00000010
,
00000001
00001000
00001000
00001000
,
00000001
00000100
00000001
00000010
,
00000100
00000100
00000100
00000100
,
00010000
00001000
00100000
01000000
,
10000000
10000000
10000000
10000000
,
00100000
01000000
10000000
01000000
,
00001000
00001000
00001000
00001000
,
00010000
00000100
00000010
00000001
,
00001001
00000000
00011000
00000000
,
10010000
01000000
00100000
10000000
,
01010000
00100000
01000000
00001000
,
00110000
00001000
00010000
00000100
,
00000011
00001000
00000010
00000100
,
00001010
00000100
00010000
01000000
,
10100000
00010000
01000000
00100000
,
11000000
00100000
01000000
00001000
,
00011000
00000010
00001000
00001000
,
00000001
00000010
00000001
00000010
00000001
00000000
00000000
00000000
,
00001000
00000100
00001000
00000100
00001000
00000000
00000000
00000000
,
00100000
00010000
00100000
00010000
00100000
00000000
00000000
00000000
,
10000000
01000000
10000000
01000000
10000000
00000000
00000000
00000000
,
00010000
00100000
00010000
00000000
00011000
00000000
00001100
00000000
,
00000001
00000100
00000001
00000000
00001010
00000000
00010100
00000000
,
00001000
01000000
00001000
00000000
01010000
00000000
10100000
00000000
,
01010000
00011000
00101000
00010100
,
00011000
00000000
00000000
00000000
;

//---------------dance-single - ----------------
#NOTES:
     dance-single:
     :
     Hard:
     12:
     1.000,1.000,1.000,0.092,1.000,697.000,301.000,10.000,0.000,48.000:
0000
0000
0000
0000
,
0000
0000
0000
0000
,
0000
0000
0000
0000
,
0000
0000
0000
0000
0000
0000
0000
0000
0000
0000
0000
0000
0000
0000
0000
0000
0000
0000
0000
0000
0000
0000
0000
0000
0000
0000
0000
0000
0000
0000
0001
0010
,
0100
1000
0001
0000
0100
0000
0000
0000
0000
0000
0000
0000
0000
0000
0000
0000
,
1010
0000
0001
0000
0010
1000
0000
0000
0101
0000
1000
0000
0100
0001
0000
0000
,
0100
0000
0001
0000
0101
0000
0010
0000
1100
0000
0010
0000
1001
0010
0100
1000
,
0011
0000
1100
0000
0011
0100
0000
1001
0000
0000
0101
0000
1010
0001
0000
1001
,
0000
0000
0101
0000
0110
0000
1001
0000
1100
0000
1001
0000
0101
0010
0001
0010
,
1100
0000
0101
0000
0011
0100
0000
0110
0000
0000
1100
0000
0101
0010
0000
1010
,
0000
0000
1100
0000
0101
1000
0000
0001
1010
0000
1001
0000
1100
0010
0001
0010
,
0101
0000
1010
0000
0011
0100
0000
1001
0000
0000
0101
0000
1010
0001
0000
1001
,
0000
0000
0101
0000
0110
0000
1001
0000
1100
0000
1001
0000
0101
0010
0001
0010
,
1100
0000
0101
0000
0011
0100
0000
0110
0000
0000
1100
0000
0101
0010
0000
1010
,
0000
0000
1100
0000
0101
1000
0000
0001
1010
0000
1001
0000
1100
0010
0001
0010
,
0101
0000
1010
0000
0011
0100
0000
1001
0000
0000
0101
0000
1010
0001
0000
1001
,
0000
0000
0101
0000
0110
0000
1001
0000
1100
0000
1001
0000
0101
0010
0001
0010
,
1100
0000
0101
0000
0011
0100
0000
0110
0000
0000
1100
0000
0101
0010
0000
1010
,
0000
0000
1100
0000
0101
1000
0000
0001
1010
0000
1001
0000
1100
0010
0001
0010
,
0101
0000
1010
0000
0101
1000
0000
1100
0000
0000
0110
0000
0101
0010
0000
0011
,
0000
0000
0110
0000
1001
0000
0011
0000
1010
0000
1001
0000
0110
0001
0010
0100
,
1010
0100
1101
0010
1100
0100
1011
0010
,
1100
0010
1101
0100
0101
0010
1110
0100
,
1001
0010
1110
0010
1001
0100
0111
0010
,
1100
0100
1011
0010
1100
0010
1101
0000
,
0100
0010
0001
0010
0000
0100
1000
0000
0100
0010
0001
0010
0000
0010
0100
0000
,
0100
0010
0001
0010
0000
0000
0100
1000
0001
0010
0100
1000
0000
0000
0000
0000
,
1000
0100
0010
0001
0000
0000
0000
0000
0100
0010
0100
0001
0000
0000
0100
0000
,
1000
0000
0001
0000
0010
0000
1000
0000
0000
0000
0000
0000
0001
0000
0000
1000
0001
0100
0000
0000
0000
0000
0100
0000
0000
0000
0000
0000
0010
0000
0000
0000
,
0011
0100
0002
0000
1010
0000
0003
0101
0000
0000
1100
0000
0000
1002
0000
0010
,
0000
1103
0000
0000
1100
0000
0000
0101
0000
0000
1001
0000
0000
0201
0000
0010
,
0000
1301
0000
0000
0101
0000
0000
1001
0000
0000
0101
0000
0000
1002
0000
0010
,
0000
1103
0000
0000
1100
0000
0000
0101
0000
0000
1001
0000
0000
0201
0000
0010
,
0000
1301
0000
0000
0101
0000
0000
1001
0000
0000
0101
0000
0000
1002
0000
0010
,
0000
1103
0000
0000
1100
0000
0000
0101
0000
0000
1001
0000
0000
0201
0000
0010
,
0000
1301
0000
0000
0101
0000
0000
1001
0000
0000
0101
0000
0000
1002
0000
0010
,
0000
0000
0000
1103
0000
0000
0000
0000
0000
0000
0000
0000
1100
0000
0000
0000
0000
0000
0000
0000
0000
0101
0000
0000
0000
0000
0000
0000
0000
0000
1001
0000
0000
0000
0000
0000
0001
0000
0000
0010
0000
0000
0100
0000
1000
0000
0010
0000
,
1001
0000
0010
0000
0101
0010
1000
0000
0011
0000
0100
0000
1010
0100
0001
0000
,
1100
0000
0010
0000
0101
0010
1000
0000
0101
0000
0100
0000
1010
0100
0010
0000
,
1001
0000
0010
0000
0101
0010
1000
0000
0011
0000
0100
0000
1010
0100
0001
0000
,
1100
0000
0010
0000
0101
0010
1000
0000
0101
0000
0100
0000
1010
0100
0010
0000
,
1001
0000
0010
0000
0101
0010
1000
0000
0011
0000
0100
0000
1010
0100
0001
0000
,
1100
0000
0010
0000
0101
0010
1000
0000
0101
0000
0100
0000
1010
0100
0010
0000
,
1001
0000
0010
0000
0101
0010
1000
0000
0011
0000
0100
0000
1010
0100
0001
0000
,
1100
0000
0010
0000
0101
0010
1000
0000
0101
0000
0100
0000
1010
0100
0010
0000
,
1100
0000
1100
0001
0110
1000
0011
0000
0110
0000
1000
0000
0101
0000
1010
0000
,
0101
0000
0011
0100
1001
0010
0101
0000
1100
0000
0010
0000
1001
0000
0110
0000
,
1100
0000
0110
0001
1010
0100
1010
0000
0110
0000
0100
0000
1010
0000
0101
0000
,
0110
0000
1100
0001
1010
0100
0011
0000
1010
0000
0100
0000
0011
0000
1010
0000
,
1100
0000
1100
0001
0110
1000
0011
0000
0110
0000
1000
0000
0101
0000
1010
0000
,
0101
0000
0011
0100
1001
0010
0101
0000
1100
0000
0010
0000
1001
0000
0110
0000
,
1100
0000
0110
0001
1010
0100
1010
0000
0110
0000
0100
0000
1010
0000
0101
0000
,
0110
0000
1100
0001
1010
0100
0011
0000
1010
0000
0100
0000
0011
0000
1010
0000
,
0101
0010
0001
1000
0111
1000
0001
0010
0101
1000
0001
0010
1110
0001
1000
0010
,
1001
0100
0001
0010
1101
0010
0100
0010
1001
0010
0100
1000
0111
1000
0100
1000
,
0011
0100
0001
0010
1101
0010
0001
1000
0110
1000
0001
0100
1011
0100
1000
0010
,
1001
0100
0001
0010
1101
0010
1000
0010
0101
0010
1000
0010
1101
0010
0100
1000
,
0101
0010
0001
1000
0111
1000
0010
0001
0110
1000
0001
0100
1011
0100
0001
0010
,
1001
0100
0001
0010
1101
0010
0001
0010
1101
0010
0100
1000
0101
0010
0100
1000
,
0111
1000
0001
0010
0101
1000
0010
0001
1110
0001
0010
0100
1010
0001
1000
0010
,
1101
0010
0001
0010
1100
0010
0100
0010
1101
0010
0100
1000
0101
0010
0100
1000
,
0101
0010
0001
1000
0111
1000
0001
0010
0101
1000
0001
0010
1110
0001
1000
0010
,
1001
0100
0001
0010
1101
0010
0100
0010
1001
0010
0100
1000
0111
1000
0100
1000
,
0011
0100
0001
0010
1101
0010
0001
1000
0110
1000
0001
0100
1011
0100
1000
0010
,
1001
0100
0001
0010
1101
0010
1000
0010
0101
0010
1000
0010
1101
0010
0100
1000
,
0101
0010
0001
1000
0111
1000
0010
0001
0110
1000
0001
0100
1011
0100
0001
0010
,
1001
0100
0001
0010
1101
0010
0001
0010
1101
0010
0100
1000
0101
0010
0100
1000
,
0111
1000
0001
0010
0101
1000
0010
0001
1110
0001
0010
0100
1010
0001
1000
0010
,
1101
0010
0001
0010
1100
0010
0100
0010
1101
0010
0100
1000
0101
0010
0100
1000
,
0220
0330
0000
0000
0000
0000
0000
0000
,
0000
0000
0000
0000
0000
0000
0000
0000
0000
0000
0000
1000
0000
0000
0001
0000
;
