#TITLE:Cagayake! GIRLS;
#SUBTITLE:K-ON! OP theme;
#ARTIST:K-ON! Girls;
#TITLETRANSLIT:;
#SUBTITLETRANSLIT:;
#ARTISTTRANSLIT:;
#CREDIT:ALICE_;
#BANNER:Cagayake! GIRLS.png;
#BACKGROUND:Cagayake! GIRLS.jpg;
#LYRICSPATH:;
#CDTITLE:cdtitle.png;
#MUSIC:Cagayake! GIRLS.mp3;
#OFFSET:0.250;
#SAMPLESTART:59.724;
#SAMPLELENGTH:12.000;
#SELECTABLE:YES;
#BPMS:0.000=170.000,251.000=169.980;
#STOPS:;
#BGCHANGES:0.688=Cagayake! GIRLS.avi=1.000=0=0=1,
251.500=Cagayake! GIRLS.jpg=1.000=1=0=1,
99999=-nosongbg-=1.000=0=0=0 // don't automatically add -songbackground-
;
// cache tags:
#FIRSTBEAT:2.000;
#LASTBEAT:251.000;
#SONGFILENAME:Songs/alice 4th complete step/Cagayake! GIRLS/Cagayake! GIRLS.sm;
#HASMUSIC:1;
#HASBANNER:1;
#MUSICLENGTH:89.739;
// end cache tags

//---------------dance-single - ----------------
#NOTES:
     dance-single:
     :
     Hard:
     7:
     0.643,0.594,0.212,0.134,0.000,373.000,19.000,12.000,0.000,0.000:
0000
0000
0000
0000
1000
0001
1000
0001
,
1000
0100
0010
0000
0000
1000
0100
0001
,
0000
1000
0100
0010
0000
2002
0000
3003
,
0001
0100
0010
0000
0000
0001
0100
1000
,
0000
0001
0100
0010
0000
2002
0000
3003
,
1000
0001
0100
0010
2000
0000
3000
0000
,
0001
1000
0010
1000
0100
1000
0010
0100
,
0000
0100
0001
0010
0100
0000
0011
0000
,
1000
0100
1000
0100
0010
0100
0010
0001
,
0000
1000
0010
0100
0001
1000
1000
0000
,
1000
0001
0010
0001
0100
0001
1000
0010
,
0000
0100
0001
1000
0010
0010
0010
0000
,
0100
0001
0100
1000
0100
0010
0100
0001
,
0000
0001
1000
0010
0000
0001
0010
1000
,
0100
0000
0100
0000
1000
0001
0000
0100
,
0000
0100
0010
1000
0001
0010
0100
0000
,
0010
0000
0010
0000
0001
1000
0100
0001
,
0000
0100
1000
0100
1000
0001
0100
0000
,
0001
0001
1000
1000
,
0010
0100
0010
0100
0000
0000
0000
0000
,
1000
1000
0001
0001
,
0100
0010
1000
0001
0000
0000
0000
0000
,
1000
0100
1000
0100
0001
0100
0001
0100
,
1000
0010
0001
0010
0200
0000
0300
0000
,
0101
0001
0010
0100
1000
0010
0100
0001
,
1000
0100
0010
0001
0200
0000
0300
0000
,
1000
1000
0001
0001
,
0100
0010
0100
0010
0000
0000
0000
0000
,
0001
0001
1000
1000
,
0010
0100
0001
1000
0000
0000
0000
0000
,
0010
0001
0010
0001
1000
0001
1000
0001
,
0100
0010
1000
0001
0020
0000
0030
0000
,
1100
1000
0010
0100
0001
0010
0100
1000
,
0010
1000
0100
0010
0002
0000
0003
0000
,
1000
0000
0100
1000
0000
0001
0100
0000
,
0001
1000
0000
0001
0100
0010
0100
0001
,
1000
0000
0001
0010
0000
0100
1000
0000
,
0001
1000
0000
0010
1000
0100
1000
0001
,
0010
0000
0001
0100
0000
1000
0100
0000
,
0001
0010
0000
0001
1000
0001
0010
0001
,
0100
0000
0010
1000
0000
0100
0001
0000
,
0100
1000
0000
0010
0100
0001
0010
0001
,
0100
0010
0010
0010
1000
0001
0100
0100
,
0001
1000
0100
0010
0100
1000
0010
0100
,
0001
1000
0100
0010
0001
1000
0010
0000
,
0100
0001
0010
0001
1000
0100
0010
0001
,
0000
0100
0001
1000
0000
0110
1001
0000
,
1000
0001
0100
0010
0100
0001
0010
0200
,
0300
1000
0001
0100
0010
0010
1001
0000
,
0000
1000
0010
1000
0100
1000
0010
0100
,
0000
0001
1000
0010
0000
0110
0110
0000
,
1000
0001
1000
0100
0001
0100
0010
0001
,
0000
0001
1000
0010
0100
1000
0100
0000
,
0001
1000
0010
0100
0001
0010
1000
0010
,
0000
0100
0010
0001
0000
1000
0110
0000
,
0001
1000
0001
1000
0010
0100
0001
1000
,
0000
1000
0100
0001
0100
0100
1001
0000
,
0010
1000
0010
1000
0001
0100
0001
0020
,
0000
0000
0000
0230
0000
0000
0300
1000
,
0001
0000
0101
0000
0100
0010
0000
1001
,
0000
1100
0000
0010
0001
0100
0010
0000
,
1001
0000
1001
0000
0100
0010
0000
1001
,
0000
1001
0010
0100
1000
1000
0100
0000
;

//---------------dance-single - ----------------
#NOTES:
     dance-single:
     :
     Medium:
     6:
     0.505,0.524,0.223,0.178,0.000,281.000,20.000,16.000,0.000,0.000:
0000
0000
0000
0000
1000
0001
1000
0001
,
0100
0100
0010
0010
,
1000
0001
0100
0010
,
1000
1000
0001
0001
,
0100
0010
1000
0001
,
1000
0100
0010
0001
1000
0000
0000
0000
,
0001
0001
1000
1000
,
0010
0000
0100
0000
0001
1000
0001
0000
,
0000
1000
0000
1000
0000
0001
0000
0001
,
0000
0100
0000
0100
0010
1000
0001
0000
,
0010
0010
0100
0100
,
1000
0000
0001
0000
0100
0010
0100
0000
,
0000
0001
0000
0001
0000
1000
0000
2000
,
0000
0000
3000
0020
0000
0000
0030
0100
,
0001
0000
0001
0000
1000
0100
0000
0001
,
0000
0001
0001
0000
1000
0100
1000
0000
,
0010
0000
0010
0000
0100
0001
1000
0001
,
0000
0010
0000
0010
0001
0100
1000
0000
,
0100
0101
0100
0101
,
1000
0010
1000
0001
0000
0000
0000
0000
,
0100
1100
0100
1100
,
0001
0010
0001
1000
0000
0000
0110
0000
,
2001
0100
0001
0010
,
0001
0000
0100
0000
3020
0000
0000
0030
,
1002
0100
0010
0100
,
1000
0000
0010
0003
0200
0000
0000
0300
,
0001
0011
1000
1010
,
0100
0001
1000
0001
0000
0000
0000
0000
,
0100
1100
0001
1001
,
0010
1000
0001
0100
0000
0000
0000
0000
,
0012
1000
0100
1000
,
0010
0000
1000
0000
0203
0000
0000
0300
,
2010
0001
0100
0001
,
0010
0000
0001
0000
3200
0000
0000
0300
,
1000
0100
0010
0001
1000
0001
0100
0000
,
0010
1000
0100
0000
0001
0000
0100
0000
,
0001
0100
0010
1000
0001
1000
0100
0000
,
0010
0001
0100
0000
1001
0000
0100
0000
,
1000
0010
0100
0001
0010
0100
1000
0000
,
0001
0100
1000
0000
0210
0000
0301
0000
,
1000
0100
0010
0001
0100
0010
1000
0001
,
0000
0100
0000
0001
0000
0010
0100
0020
,
0000
0000
0130
1001
,
0010
0010
0100
0100
,
0001
0000
1000
0000
0010
0100
0001
0000
,
0000
1000
0000
1000
0000
0001
0000
0001
,
0000
1000
0000
1000
0010
0100
0001
0000
,
1000
1000
0001
0001
,
0100
0000
0010
0000
1000
0001
1001
0000
,
0000
0010
0000
0100
0000
0001
0000
2000
,
0000
0000
0000
3002
0000
0100
0103
0000
,
0000
0010
0000
0010
0000
0100
0000
0100
,
0000
1000
0000
1000
0001
0100
0001
0000
,
1000
1000
0001
0001
,
0010
0000
1001
0000
0100
0010
0001
0000
,
0000
1000
0000
1000
0000
0001
0000
0001
,
0000
0100
0000
0001
1000
0010
0110
0000
,
1000
0000
0001
0000
0100
1000
0001
0020
,
0000
0000
0000
0230
0000
0000
0000
0310
,
0001
0000
0001
0000
1000
0100
0000
0010
,
0000
0010
0010
0000
0100
1000
0001
0000
,
1000
0000
1000
0000
0001
0100
0000
0010
,
0000
0010
0010
0100
0001
1000
1001
0000
;

//---------------dance-single - ----------------
#NOTES:
     dance-single:
     :
     Easy:
     3:
     0.350,0.348,0.033,0.022,0.000,215.000,3.000,2.000,0.000,0.000:
0000
0000
0000
0000
,
1000
0100
0010
0001
,
1000
0100
0010
0001
,
1000
0010
0100
0001
,
1000
0010
0100
0001
,
2000
0000
0000
3000
,
0001
0001
1000
1000
,
0010
0100
0001
1000
,
1000
0100
0010
0001
,
0001
0100
1000
0010
,
1000
1000
0001
0001
,
0100
0010
1000
1000
,
0001
0100
1000
0100
,
0001
0000
1000
0000
,
0100
0100
0010
0010
,
1000
0001
0100
0000
,
0010
0010
0100
0100
,
0001
1000
0100
0000
,
1000
0001
1000
0001
,
0100
0001
1000
0000
,
0001
1000
0001
1000
,
0010
1000
0001
0000
,
0100
0100
0010
0010
,
0100
0010
0100
0000
,
0001
0001
1000
1000
,
0001
1000
0001
0000
,
0010
0001
0010
1000
,
0001
1000
0100
0000
,
0010
1000
0010
0001
,
1000
0001
0100
0000
,
0001
0001
1000
1000
,
0010
0100
0010
0000
,
1000
1000
0001
0001
,
0100
0010
0100
0000
,
1000
0100
0001
0100
,
1000
0000
0000
0000
,
0001
0100
1000
0100
,
0001
0000
0000
0000
,
1000
0010
0001
0100
,
0010
0000
0000
0000
,
0001
0100
1000
0010
,
0001
1000
0001
0100
,
0020
0000
0000
0030
,
1000
0001
0001
1000
,
0010
0100
0001
1000
,
0001
0010
0100
1000
,
1000
0100
0010
0001
,
0100
0010
0010
1000
,
0001
1000
0100
0110
,
1000
1000
0001
0001
,
1000
0000
0010
0000
,
0100
0001
1000
0010
,
1000
0001
0100
1001
,
0010
0010
0100
0100
,
1000
0001
0100
0101
,
0001
1000
0010
1000
,
0100
1000
0010
0001
,
1000
0100
0001
0100
,
1000
0000
0001
0000
,
0100
0100
0010
0010
,
0100
0010
1000
0000
,
0001
0001
1000
1000
,
0010
0100
0001
0000
;

//---------------dance-single - ----------------
#NOTES:
     dance-single:
     :
     Challenge:
     14:
     1.000,1.000,1.000,0.914,0.730,584.000,171.000,82.000,0.000,37.000:
0000
0000
0000
0000
1011
1100
1010
0110
,
1001
0000
0100
0001
0010
0000
0100
1000
0010
0000
0100
0001
0010
0000
0100
1000
,
0010
0000
0100
0001
0010
0000
0100
1000
0010
0000
0102
0010
1000
0010
0103
0000
,
1001
0000
0010
0100
0001
0000
0100
0010
1000
0000
0010
0100
0001
0000
0100
0010
,
1000
0000
0010
0100
0001
0000
0100
0010
1000
0000
2010
0100
0001
0100
3010
0000
,
1001
0000
1000
1000
0001
0001
1000
0001
0100
0010
1000
0000
0000
0000
0000
0000
,
0101
1000
0010
1000
0001
1000
0100
1000
0010
1000
0100
1000
0001
1000
0010
0100
,
0001
0000
0110
0000
0001
0000
1100
0000
0011
1000
0100
0000
1001
0000
0100
0000
,
1000
0000
1010
0000
0011
0000
0100
1000
0010
0000
0101
0000
1100
0001
0010
0000
,
0000
0110
0000
0220
0000
1000
0331
0100
,
1000
0001
0010
0001
0100
0001
0010
0001
1000
0001
0100
0001
0010
0001
0100
0010
,
1000
0000
0110
0000
1000
0000
0011
0000
1100
0001
0010
0000
1001
0000
0010
0100
,
0001
0000
1000
0000
0011
0000
0100
0001
0010
0000
1001
0000
0110
0000
1001
0000
,
0000
0000
0100
0010
1000
0001
0100
0000
1010
0000
0001
1000
0010
0100
0011
0000
,
1001
0000
1001
0000
0110
0110
0000
1001
,
0000
1001
0010
0001
0110
1010
0101
0000
,
0110
0000
0110
0000
1001
1001
0000
0110
,
0000
0000
0110
0000
0000
0000
1100
0000
0010
0000
0001
1000
0110
0000
0000
0000
,
1010
0000
0000
0000
1001
0000
0100
0010
1000
0000
1000
0000
0011
0000
0000
0000
,
0101
0000
1001
0000
0001
0001
1100
0010
,
0110
0000
0000
0000
1001
0000
0100
0010
1000
0000
1000
0000
0101
0000
0010
0000
,
1001
0000
0000
0000
0011
0000
0100
0001
0010
0000
0010
0000
1000
0100
0010
0001
,
2000
3200
2301
3020
2030
3020
2031
3200
,
2300
3200
1320
0032
2000
0010
3113
0100
,
0002
0023
1032
0203
0302
2003
3102
0023
,
0032
0023
0231
2300
0002
0100
3113
1000
,
0101
0000
0000
0000
1001
0000
0001
0100
0010
0000
0010
0000
0101
0000
0000
0000
,
1010
0000
1001
0000
0100
0100
0011
1000
,
1100
0000
0000
0000
0101
0000
0010
1000
0100
0000
0100
0000
1010
0000
1000
0000
,
0101
0000
0000
0000
0011
0000
0100
1000
0010
0000
0010
0000
0001
0010
0100
1000
,
0002
0023
1032
0203
0302
0203
1302
0023
,
0032
0023
0231
2300
0002
0100
3113
0001
,
2010
3200
2301
3020
2030
3002
2013
3200
,
2300
0000
3200
0000
1320
0000
0032
0000
2000
0000
0010
0100
3013
0000
0100
0000
,
1001
1000
0100
1001
0001
0010
1001
0100
,
0010
0000
1001
0000
0010
0100
0010
0000
1000
0001
0100
0001
1000
0010
0100
0001
,
0010
1000
0100
1000
0010
0100
0001
1000
0020
0000
0000
0000
1001
0000
0100
0030
,
0000
0000
0100
0001
0100
0001
1000
0010
0100
0001
1000
0010
0100
0001
0010
1000
,
0101
0010
1000
0101
1000
0010
1001
0100
,
0010
0000
0101
0000
1000
0000
0102
0000
0013
1000
0100
1000
0010
0100
0001
0100
,
1020
0100
0031
1010
0100
0001
0101
0020
,
1030
0100
0001
0010
0001
0100
0001
0010
1000
0000
0110
0000
0110
0000
0110
0000
,
1001
0000
0011
0011
0000
1100
1100
0000
0110
0000
1000
0001
0100
0010
1000
0001
,
0110
1100
0010
1010
0001
0110
0001
1001
,
0100
1010
0100
1001
0011
1010
0220
1330
,
0001
0010
0001
0100
0001
0010
0001
1000
0010
0001
0010
0100
0010
0001
0010
0100
,
1000
0101
1000
0011
1000
0110
0220
0330
,
1001
0011
1000
1100
0010
1010
0001
0110
,
1000
0101
0010
1001
1010
0011
0220
0331
,
1000
0100
0001
0100
1000
0100
0010
0100
1000
0010
0001
1000
0100
0010
0002
0000
,
0000
0000
1100
0000
0000
0000
1013
0000
0000
0000
0010
0100
0001
1000
0100
0000
,
0011
1000
0001
1000
0010
1000
0001
0100
0010
1000
0001
0010
0001
0100
1010
0000
,
0000
1010
0000
1100
0011
1000
0110
1000
,
0100
0001
0100
0001
0010
0001
1000
0010
0100
1000
0100
1000
0001
0010
1001
0000
,
0000
1001
0000
0220
0000
1000
0331
1000
,
0001
0010
1000
0010
0001
0100
0001
0010
1000
0100
1000
0001
0100
0010
1000
0000
,
0000
0101
0001
1100
0110
0220
2332
3003
,
1020
0000
0230
0000
1320
0000
0230
0000
1302
0000
0023
0000
0132
0003
1001
0000
,
0000
0000
1010
0000
0000
0000
0101
0000
0000
0010
1000
0010
0100
0001
1000
0010
,
0101
1000
1001
0010
0101
1001
0010
2100
,
0010
3011
0100
0010
1001
1001
0100
1000
,
0011
0100
0101
0010
1001
1001
0010
0102
,
1000
0000
0113
0000
0011
0000
0100
0000
1010
0010
0100
0011
1000
0000
0000
0000
;
