#TITLE:Dream Star;
#SUBTITLE:;
#ARTIST:infinity Lovewn☆;
#TITLETRANSLIT:;
#SUBTITLETRANSLIT:;
#ARTISTTRANSLIT:infinity Lovewn star;
#CREDIT:;
#BANNER:Dreamstar-BN.png;
#BACKGROUND:Dreamstar-BG.png;
#LYRICSPATH:;
#CDTITLE:cdtitle.png;
#MUSIC:Dream_star.mp3;
#OFFSET:0.000;
#SAMPLESTART:30.769;
#SAMPLELENGTH:12.000;
#SELECTABLE:YES;
#BPMS:0.000=195.000;
#STOPS:;
#BGCHANGES:;
// cache tags:
#FIRSTBEAT:24.000;
#LASTBEAT:320.000;
#SONGFILENAME:Songs/Japanese Collaboration Mix/Dream_star/Dream_star.sm;
#HASMUSIC:1;
#HASBANNER:1;
#MUSICLENGTH:100.818;
// end cache tags

//---------------dance-single - maniac----------------
#NOTES:
     dance-single:
     maniac:
     Hard:
     9:
     0.727,0.754,0.813,0.198,0.218,411.000,82.000,20.000,0.000,0.000:
0000
0000
0000
0000
,
0000
0000
0000
0000
,
0000
0000
0000
0000
,
0000
0000
0000
0000
,
0000
0000
0000
0000
,
0000
0000
0000
0000
,
1001
0000
0000
0000
,
1001
0000
0000
0000
,
1001
0000
1001
0000
,
1001
0110
1100
0102
,
0013
1010
0100
0101
,
1000
1100
0010
0011
,
1000
1010
0001
0101
,
0100
0000
0011
0000
1000
0001
0010
0100
,
1000
1010
0100
0101
,
0010
0011
0100
1100
,
0001
1001
0010
0110
,
1000
0000
1100
0000
0010
0100
0001
1000
,
0010
0101
1000
0110
,
0001
1100
0010
0101
,
0010
1001
1000
0101
,
0010
0000
1100
0000
0001
0100
0010
1000
,
0010
0101
1100
0101
,
1000
0101
0011
0101
,
0100
1010
0011
1010
,
0101
0011
0110
1100
,
1002
0000
0100
0003
0010
0100
2000
3001
,
0000
0110
0000
0010
0001
0000
1000
0020
,
0030
0100
0001
1000
0010
0100
0001
2000
,
3000
0010
0100
0002
0003
1000
0010
0200
,
0000
0000
0000
0300
0010
0100
0001
1000
,
0000
0010
1000
0000
0101
0000
1000
0200
,
0300
0010
0001
1000
0010
0100
0002
1003
,
0000
0110
0000
1100
0000
0011
0000
0100
,
0020
0000
1000
0030
0100
0010
2000
3010
,
0000
0011
0000
1000
0001
0000
0100
0020
,
0030
1000
0100
0010
0001
0010
0100
2000
,
3000
0001
0100
0020
0030
1000
0100
2000
,
3000
0010
1000
0100
1000
0001
0100
0020
,
0030
0100
0010
0000
1100
0000
0001
0200
,
0300
0010
1000
0001
0100
1000
0100
0001
,
0000
1010
0000
0101
0000
1100
0000
0100
,
0010
0000
0000
0001
0000
0000
0100
0000
0010
0000
0000
1000
0000
0000
0001
0000
,
0100
0000
0000
0010
0000
0000
1000
0000
0001
0000
0000
0100
0000
0000
0001
0000
,
0010
0000
0000
0100
0000
0000
1000
0000
0010
0000
0000
0100
0000
0000
0001
0000
,
1000
0000
0000
0100
0000
0000
0001
0000
0100
0000
0000
0010
0000
0000
0001
0000
,
1000
0000
0000
0010
0000
0000
0001
0000
1000
0000
0000
0100
0000
0000
0001
0000
,
0010
0000
0000
0100
0000
0000
1000
0000
0010
0000
0000
0100
0000
0000
0001
0000
,
1000
0000
0000
0100
0000
0000
0001
0000
0100
0000
0000
1000
0000
0000
0010
0000
,
0110
1001
0101
1010
,
0001
0000
0000
0100
0001
0000
0100
0000
0010
0000
0000
1000
0010
0000
1000
0000
,
0001
0000
0000
1000
0001
0000
1000
0000
0010
0000
0000
1000
0010
0000
1000
0000
,
0100
0000
0000
0010
0100
0000
0010
0000
0001
0000
0000
0010
0001
0000
0010
0000
,
0001
0000
0000
0100
0001
0000
0100
0000
0010
0000
0000
1000
0010
0000
1000
0000
,
0100
0000
0000
1000
0100
0000
1000
0000
0001
0000
0000
0100
0001
0000
0100
0000
,
0010
0000
0000
0100
0010
0000
0100
0000
0001
0000
0000
1000
0001
0000
1000
0000
,
0010
0000
0000
1000
0010
0000
1000
0000
0100
0000
0000
0010
0100
0000
0010
0000
,
0001
0000
0000
1000
0001
0000
0100
0000
0010
0000
0000
1000
0010
0000
0100
0000
,
0001
0001
0001
0001
,
0110
1000
1000
1000
,
0110
0001
0110
1000
,
0011
1010
0101
1100
,
0101
0000
0000
0100
0010
0000
0000
0000
1010
0000
0000
0100
0010
0000
0000
0000
,
0101
0000
0000
1000
0010
0000
0000
0000
0110
0000
0000
1000
0100
0000
0000
0000
,
1010
0000
0000
0001
0100
0000
0000
0000
1001
0000
0000
0100
0001
0000
0000
0000
,
1010
0000
0000
0100
0001
0000
0000
0000
0110
0000
0000
0001
0100
0000
0010
0000
,
1010
0000
0000
1000
0001
0000
0000
0000
0110
0000
0000
1000
0100
0000
0000
0000
,
0011
0000
0000
1000
0010
0000
0000
0000
0101
0000
0000
0000
1000
0010
0000
0000
,
1100
0000
0000
0010
0001
0000
0100
0000
0010
0000
0000
0100
0001
0000
1000
0000
,
0110
1001
0110
1001
,
0100
0010
1000
0001
0100
0010
0001
0010
,
1000
0100
1000
0100
0001
0100
0010
1000
,
0010
0001
0100
0010
1000
0010
0100
0001
,
1000
0100
0010
0001
0100
0010
0001
0010
,
1000
0001
0100
1000
0100
0010
1000
0001
,
0100
0010
1000
0100
1000
0010
0100
0010
,
0100
0001
0010
1000
0001
0100
1000
0100
,
0010
0001
1000
0010
1000
0100
0010
0001
,
0020
0000
0000
0130
,
2002
0000
0000
0000
,
3003
0000
0000
0000
;
