#TITLE:Zombie Voter;
#SUBTITLE:;
#ARTIST:RoughSketch;
#TITLETRANSLIT:;
#SUBTITLETRANSLIT:;
#ARTISTTRANSLIT:;
#CREDIT:Rynker;
#BANNER:zombie voter bn.png;
#BACKGROUND:zombie voter bg.png;
#LYRICSPATH:;
#CDTITLE:;
#MUSIC:RoughSketch - Zombie Voter (vs DJ Myosuke).ogg;
#OFFSET:-0.059;
#SAMPLESTART:34.854;
#SAMPLELENGTH:12.000;
#SELECTABLE:YES;
#DISPLAYBPM:220.000;
#BPMS:0.000=220.000,504.000=250.000,536.000=280.000,548.000=290.000,552.000=290.000,560.333=280.000,561.000=270.000,561.667=250.000,562.333=240.000,563.000=220.000;
#STOPS:;
#BGCHANGES:;
// cache tags:
#FIRSTBEAT:15.000;
#LASTBEAT:577.667;
#SONGFILENAME:Songs/SPEEEDCOOOORE 2/Zombie Voter - [Rynker]/zombie voter.sm;
#HASMUSIC:1;
#HASBANNER:1;
#MUSICLENGTH:156.227;
// end cache tags

//---------------dance-single - Rynker----------------
#NOTES:
     dance-single:
     Rynker:
     Challenge:
     14:
     1.000,1.000,0.499,1.000,0.518,1000.000,78.000,180.000,0.000,2.000:

0000
0000
0000
0000
,
0000
0000
0000
0000
,
0000
0000
0000
0000
,
0000
0000
0000
0000
0000
0000
0000
0000
0000
0000
0000
0000
0001
0100
0001
0100
,
0001
0100
0010
1000
0100
0010
0100
1000
,
0001
0000
0100
0000
0010
0000
0100
0000
0001
0100
0001
0000
1000
0000
0100
0000
,
0010
0100
1000
0001
0100
0010
0100
0001
,
0010
0100
1000
0100
0010
0001
2000
0000
,
3010
0100
0010
0000
0100
0000
0001
0000
0010
0000
0100
0000
0010
0000
0001
0000
,
1000
0000
0010
0000
0100
0000
0010
0000
1000
0000
0001
0000
0010
0000
0100
1000
,
0100
0000
0010
0000
0001
0000
0100
0000
0010
0100
0001
0000
1000
0000
0100
0010
,
0001
0000
1000
0000
0001
0000
0100
0010
2000
0000
0000
0000
0000
0000
0000
0000
,
3001
0000
0100
0000
0010
0000
1000
0010
0100
0000
0001
0000
0010
0000
0100
0000
,
1000
0100
0010
0000
0001
0000
1000
0001
0100
0000
0001
0000
0010
0000
0100
1000
,
0010
0000
0100
0001
1000
0000
0010
1000
0001
0000
0100
0000
0001
0000
0010
0001
,
0100
0000
0010
0000
1000
0000
0100
0010
0001
0000
1000
0000
0100
0000
0010
0001
,
0100
0000
0010
1000
0001
0000
0100
0001
0100
0010
1000
0001
1000
0000
0010
1000
,
0100
1000
0001
0000
0010
0000
0001
0010
0100
0000
1000
0100
0010
0001
0100
0010
,
0100
0010
1000
0001
1000
0000
0001
0100
0010
0000
0100
0001
0010
0000
0100
1000
,
0010
0000
1000
0000
0001
0000
0100
0001
1000
0000
0100
0000
0010
0001
0100
0001
,
1000
0000
0000
0000
0000
0000
0000
0000
0000
0000
0000
0000
0002
0003
0002
0003
,
0002
0000
0000
0000
0000
0000
0003
0000
1000
0001
0100
0000
0010
0000
1000
0000
,
0012
0003
0012
0003
0012
0003
0012
0003
,
0012
0000
0003
0000
0012
0000
0003
0000
1000
0010
1000
0000
2000
0000
0000
3000
,
0120
0030
0120
0030
0120
0030
0110
0101
,
2001
3000
2001
3000
2001
3000
2002
3003
,
1020
0000
0030
0000
1020
0000
0030
0000
1000
0010
1000
0000
1000
0000
1100
0000
,
1001
0000
0201
0300
0201
0300
0201
0300
,
0102
0000
0000
0000
0003
0000
0000
0000
1000
0000
0400
0300
0010
0000
0004
0003
,
1100
0000
0000
0000
0000
0000
0000
0000
1000
0100
0010
0001
1000
0000
1000
0000
,
0012
0003
0021
1031
1020
0030
1020
0030
,
1020
0000
0030
0000
1020
0000
0030
0000
0010
1000
0010
0000
0010
0000
0100
0000
,
0201
0300
0201
0300
0201
0300
0201
1301
,
2100
3000
2100
3000
2100
3000
2100
3000
,
1020
0030
1020
0030
1020
0030
1020
0030
,
2020
0000
0000
0000
0000
0000
3030
0000
0000
0000
0000
0000
1000
0001
0010
0001
,
0200
0301
0010
0100
1000
0010
0200
0310
,
2000
0000
3001
0000
0010
0000
0100
0000
2000
0001
3010
0000
0100
0000
1000
0100
,
0020
0000
0031
0000
0100
0000
0010
0000
2000
0000
3001
0000
0010
0000
0001
0100
,
0020
0000
0130
0000
0010
0000
1000
0001
0010
0000
0100
1000
0001
0000
0000
0000
,
1000
0001
0010
0000
0100
0000
1000
0000
0010
0000
0100
0000
0001
0000
0100
0010
,
1000
0000
0100
0000
0010
0000
0001
0000
0100
0000
0001
1000
0010
0000
0100
0001
,
1000
0000
0010
0000
0100
0000
0001
0000
0010
0000
0100
0000
0010
0100
1000
0000
,
0001
0000
0100
0000
0010
0000
0100
0000
0001
0000
0010
0100
2000
0000
0000
3000
,
0001
0010
0100
0000
1000
0000
0001
0000
0100
0000
0010
1000
0001
0000
0100
0000
,
0010
1000
0001
0000
0100
0000
0001
0000
0010
0100
1000
0000
0001
0000
0010
0100
,
0010
0100
1000
0000
0001
0000
0100
0000
0010
1000
0010
1000
0001
0000
1000
0000
,
0001
0000
0010
0100
1000
0000
0001
0000
0100
0001
1000
0000
0001
0000
0000
0000
,
1000
0010
0100
0001
1000
0010
0100
0010
1000
0100
0010
0100
0010
0001
0100
0010
,
0100
0001
1000
0100
0010
0001
1000
0001
0100
0010
1000
0100
0010
0100
1000
0010
,
0100
0001
0010
0100
0010
0001
1000
0001
0100
0010
0100
0001
1000
0100
0010
0100
,
1000
0010
0100
0001
0010
0100
1000
0100
1000
0010
0100
0001
1000
0010
1000
0010
,
0100
0001
0001
1000
,
1000
0100
0100
0010
,
0010
0001
0001
1000
,
1000
0010
0010
0100
,
1001
0001
1000
0100
0010
0100
1000
0001
,
0100
0000
0010
0000
1000
0001
1000
0001
1000
0001
0010
0100
0010
0001
1000
0001
,
1000
0000
0000
0000
,
0001
0000
0000
0000
0001
0000
1000
0100
1000
0000
0010
0000
0100
0000
0001
0000
,
0020
0000
0000
0000
0000
0000
0000
0000
0000
0000
0000
0000
0000
0030
0100
1000
,
0200
0000
0000
0300
0200
0000
0000
0300
0200
0000
0000
0300
0200
0000
0000
0300
,
2000
0000
0000
0000
0000
0000
0000
3000
0002
0000
0203
0000
0320
0000
2030
0000
,
3002
0000
0000
0000
,
0023
0000
0000
0000
0000
0000
0000
0000
0000
0000
0000
0000
0030
0000
0100
1000
,
0200
2300
3002
0203
,
0320
0000
0000
0000
0000
0000
0000
0030
0200
0000
0302
0000
0023
0000
0230
0000
,
2300
0000
0000
3000
2000
0000
0000
3000
2000
0000
0000
3000
2000
0000
0000
3000
,
0021
0000
0000
0000
0000
0000
0000
0000
0000
0000
0000
0000
0030
0000
0001
0010
,
0002
0023
0230
2300
,
3020
0000
0000
0000
0000
0230
0302
2003
,
3020
0000
0000
0030
0020
0000
0000
0030
0020
0000
0000
0030
0020
0000
0000
0030
,
0200
0000
0000
0000
0000
0000
0000
0000
0000
0000
0000
0000
0300
0000
0001
1000
,
0002
0203
0320
0230
,
0302
0000
0000
0000
0000
0000
0000
0003
0020
0000
0230
0000
2300
0000
3002
0000
,
0023
0000
0000
0000
0030
0000
0100
1000
0100
0000
1000
0000
0010
0000
0100
0000
,
1002
0000
0003
0000
0002
0000
0003
0000
0002
0000
0003
0000
0002
0000
0013
0100
,
0020
0000
0030
0000
0020
0000
0030
0000
0020
0000
0030
0000
0010
0000
0200
0300
,
2000
0000
3000
0000
2000
0000
3000
0000
2000
0000
3010
0100
0010
0000
0100
0000
,
0002
0000
0003
0000
0001
0000
2000
3000
0020
0000
0030
0000
0020
0000
0030
0000
,
0200
0000
0300
0000
0200
0000
0301
1000
0002
0000
0003
0000
0002
0000
1003
0100
,
2000
0000
3100
0000
0020
0000
0030
0000
0020
0000
0030
0000
0002
0000
0203
0300
,
0020
0030
2000
3000
2000
3010
0100
0001
,
0020
0030
0020
0030
0200
0310
0200
1300
,
2001
0000
0000
0000
3002
0000
0003
0000
0002
0000
0003
0000
0002
0000
0013
0100
,
0020
0030
0200
0300
0200
1300
0010
0100
,
0002
0003
0002
0003
2000
3100
0020
0031
,
2000
0000
3000
0000
2000
0000
3000
0000
0010
0100
0010
0000
0200
0000
0300
0000
,
0002
0000
0003
0000
1000
0100
1000
0000
0200
0000
0300
0000
0020
0000
0031
1000
,
0001
0000
0200
0300
0020
0030
2000
3000
,
0100
0010
0001
0100
0010
0100
0001
1000
,
0002
0000
2003
0000
,
3010
0000
0000
0000
0010
0000
0000
0000
0010
0000
1000
0000
0010
1000
0010
1000
,
0010
0000
0000
0000
0010
0000
1000
0010
1000
0000
0001
0000
0100
0001
0010
0100
,
0010
0000
0100
0000
1000
0000
0010
0000
0100
0000
0001
0000
0010
0000
0001
0010
,
0100
1000
0001
0100
0010
1000
0100
0010
,
0001
1000
0001
0100
0010
0100
0001
1000
,
0100
0000
0010
0000
0001
0010
0100
0000
1000
0000
0001
0000
0200
0000
0000
0000
,
0310
1000
0001
0000
0010
0000
0100
0000
1000
0000
0001
0000
0010
0000
0100
0000
,
1000
0000
0010
0000
0100
0000
0001
0000
0100
0000
0010
0100
0001
0000
1000
0010
,
0100
0001
0010
0100
1000
0010
0100
0001
,
0102
0003
2001
3000
1200
0300
0120
0030
,
0001
0010
0001
0000
0010
0000
0100
0000
1000
0000
0001
0000
0100
0000
0010
1000
,
0001
0100
0010
0100
0001
0010
0100
1000
,
0001
0000
0100
0000
0010
0000
0100
0000
0001
0000
1000
0100
0010
0000
0001
0000
,
0100
0000
0010
0000
0100
0000
0001
0000
0010
0100
1000
0000
0001
0000
0001
0000
,
0100
0010
1000
0000
0010
0000
0100
0000
0001
0000
0010
0000
0100
0000
1000
0100
,
0010
0100
1000
0001
0100
0010
0100
0001
,
0010
0001
0100
0000
0010
0000
1000
0001
0010
0000
0100
0000
1000
0001
0010
0000
,
0012
0000
0000
0000
0003
0000
0001
0100
0001
0000
0100
0000
0010
0000
1000
0000
,
2010
0000
3000
0000
2010
0000
3000
0000
2010
0000
3000
0000
2010
0000
3001
0010
,
0001
0000
0021
0030
0021
0030
0001
0010
,
0100
0000
2100
3000
2100
3000
0100
1000
,
0010
0000
0100
0001
0010
0000
0010
0001
,
0100
0000
0000
0000
0102
0000
0003
0000
0102
0000
0003
0000
0102
0000
1003
0100
,
1000
0100
0010
0000
0120
0030
0010
0100
,
1000
1001
1001
0000
0001
0100
0010
0100
,
0001
0000
0010
0000
0100
1000
1000
0000
,
2010
0000
3000
0000
1010
0000
1001
0000
1002
0000
0003
0000
0011
0000
0010
0100
,
0010
0000
0210
0300
0100
1000
0010
0100
,
0101
0000
0001
0100
0010
1000
0100
0010
,
0001
0000
0000
0000
0001
0000
0000
0000
0001
1000
0010
0000
0100
0000
0000
0000
,
0001
0000
0010
0000
0100
0000
1000
0000
0010
0000
0100
0000
0010
0000
1000
0001
,
0010
0100
0010
0001
0100
0010
0100
0000
,
2001
3000
2001
3000
0001
0100
0001
0010
,
0200
0000
0000
0000
0300
0000
1000
0100
1000
0100
1000
0000
0001
0000
0100
0000
,
0010
0000
0100
0000
0001
0000
0010
0000
0100
0000
1000
0000
0001
0000
0100
0010
,
1000
0010
0100
0001
0010
0100
1000
1000
,
1000
0000
0010
0000
0100
0000
0001
0000
0010
0000
0100
0000
0010
0000
0001
1000
,
0001
0000
0100
0010
1000
0000
0010
0100
,
0001
0000
0010
0000
0100
0000
0010
0000
0001
0000
0100
0000
0010
0000
1000
0001
,
1000
0001
0010
0100
0010
0001
0100
0010
,
1000
0000
0001
0000
0010
0000
0100
0000
1000
0000
0001
0100
0010
0000
1000
0000
,
0001
0000
0001
0000
0001
1000
0001
1000
,
1000
0000
0100
0000
0010
0001
0010
0000
0001
0000
1000
0000
0010
0000
0100
0001
,
0100
0000
0010
0000
1000
0000
0001
0000
0010
0001
0010
0000
0100
0000
0000
0000
,
1000
0000
0010
0000
0100
0001
0100
0000
0001
0000
1000
0000
0001
1000
0001
1000
,
0001
0000
1000
0000
0100
0000
0010
0001
0010
0000
0001
0000
0100
0000
0000
0000
,
0001
0000
1000
0010
1000
0000
0010
0000
0100
0010
0100
0000
0001
0100
0001
0000
,
1000
0000
0001
1000
0001
0000
0100
0000
0001
0100
0001
0000
1000
0000
0000
0000
,
0004
4000
0000
0000
0000
0000
0000
0000
0000
0000
0000
0000
0000
0000
0000
0000
,
0000
0000
0000
0000
,
0000
0000
0000
0000
,
0000
0000
0000
0000
,
0000
0000
0000
0000
0000
3003
0000
0000
0000
0000
0000
0000
;
