#TITLE:Stupid-MF;
#SUBTITLE:;
#ARTIST:Mindless Self Indulgence;
#TITLETRANSLIT:;
#SUBTITLETRANSLIT:;
#ARTISTTRANSLIT:;
#CREDIT:;
#BANNER:smfbn.png;
#BACKGROUND:smfbg.png;
#LYRICSPATH:;
#CDTITLE:;
#MUSIC:Stupid-MF.mp3;
#OFFSET:-0.319;
#SAMPLESTART:39.813;
#SAMPLELENGTH:12.000;
#SELECTABLE:YES;
#BPMS:0.000=152.025,1.000=152.034,2.000=152.025,3.000=152.034,4.000=152.025,5.000=152.034,6.000=152.025,7.000=152.034,8.000=152.025,9.000=152.034,11.000=159.043,12.000=152.034,13.000=152.025,14.000=152.034,15.000=152.025,16.000=152.034,17.000=152.025,18.000=152.034,19.000=152.025,20.000=152.034,21.000=152.025,22.000=152.034,24.000=152.025,25.000=152.034,26.000=152.025,27.000=152.034,28.000=152.025,29.000=152.034,30.000=152.025,31.000=152.034,32.000=152.025,33.000=152.034,35.000=152.025,36.000=152.034,37.000=152.025,38.000=152.034,39.000=152.025,40.000=152.034,41.000=152.025,42.000=152.034,44.000=152.025,45.000=152.034,46.000=152.025,47.000=152.034,48.000=152.025,49.000=152.034,51.000=152.025,52.000=152.034,53.000=152.025,54.000=152.034,55.000=152.025,56.000=152.034,57.000=152.025,58.000=152.034,60.000=152.025,61.000=152.034,62.000=152.025,63.000=152.034,64.000=152.025,65.000=152.034,66.000=152.025,67.000=152.034,68.000=152.025,69.000=152.034,70.000=152.025,71.000=152.034,72.000=152.025,73.000=152.034,74.000=152.025,75.000=152.034,76.000=152.025,77.000=152.034,78.000=152.025,79.000=152.034,80.000=152.025,81.000=152.034,82.000=152.025,83.000=152.034,84.000=152.025,85.000=152.034,86.000=152.025,87.000=152.034,88.000=152.025,89.000=152.034,90.000=152.025,91.000=152.034,92.000=152.025,93.000=152.034,94.000=152.025,95.000=149.830,96.000=152.025,97.000=152.034,98.000=152.025,99.000=152.034,100.000=152.025,101.000=152.034,102.000=152.025,103.000=152.034,104.000=152.025,105.000=152.034,106.000=152.025,107.000=152.034,108.000=152.025,109.000=152.034,110.000=152.025,111.000=152.034,112.000=152.025,113.000=152.034,114.000=152.025,115.000=152.034,116.000=152.025,117.000=152.034,118.000=152.025,119.000=152.034,120.000=152.025,121.000=152.034,122.000=152.025,123.000=152.034,124.000=152.025,125.000=152.034,126.000=152.025,127.000=152.034,128.000=152.025,129.000=152.034,130.000=152.025,131.000=152.034,132.000=152.025,133.000=152.034,134.000=152.025,135.000=152.034,136.000=152.025,137.000=152.034,138.000=152.025,139.000=152.034,140.000=152.025,141.000=152.034,142.000=152.025,143.000=152.034,144.000=152.025,145.000=152.034,146.000=152.025,147.000=152.034,148.000=152.025,149.000=152.034,150.000=152.025,151.000=152.034,152.000=152.025,153.000=152.034,154.000=152.025,155.000=152.034,156.000=152.025,157.000=152.034,158.000=152.025,159.000=152.034,160.000=152.025,161.000=152.034,162.000=152.025,163.000=152.034,164.000=152.025,165.000=152.034,166.000=152.025,167.000=152.034,168.000=152.025,169.000=152.034,170.000=152.025,171.000=152.034,172.000=152.025,173.000=152.034,174.000=152.025,175.000=152.034,176.000=152.025,177.000=152.034,178.000=152.025,179.000=152.034,180.000=152.025,181.000=152.034,182.000=152.025,183.000=152.034,184.000=152.025,185.000=152.034,186.000=152.025,187.000=152.034,188.000=152.025,189.000=152.034,190.000=152.025,191.000=152.034,192.000=152.025,193.000=152.034,194.000=152.025,195.000=152.034,196.000=152.025,197.000=152.034,198.000=152.025,199.000=152.034,200.000=152.025,201.000=152.034,202.000=152.025,203.000=152.034,204.000=152.025,205.000=152.034,206.000=152.025,207.000=152.034,208.000=152.025,209.000=152.034,210.000=152.025,211.000=152.034,212.000=152.025,213.000=152.034,214.000=152.025,215.000=152.034,216.000=152.025,217.000=152.034,218.000=152.025,219.000=152.034,220.000=152.025,221.000=152.034,222.000=152.025,223.000=152.034,224.000=152.025,225.000=152.034,226.000=152.025,227.000=152.034,228.000=152.025,229.000=152.034,230.000=152.025,231.000=152.034,232.000=152.025,233.000=152.034,234.000=152.025,235.000=152.034,236.000=152.025,237.000=152.034,238.000=152.025,239.000=152.034,240.000=152.025,241.000=152.034,242.000=152.025,243.000=152.034,244.000=152.025,245.000=152.034,246.000=152.025,247.000=152.034,248.000=152.025,249.000=152.034,250.000=152.025,251.000=152.034,252.000=152.025,253.000=152.034,254.000=152.025,255.000=152.034,256.000=152.025,257.000=152.034,258.000=152.025,259.000=152.034,260.000=152.025,261.000=152.034,262.000=152.025,263.000=147.689,264.000=152.025,265.000=152.034,266.000=152.025,267.000=152.034,268.000=152.025,269.000=152.034,270.000=152.025,271.000=152.034,272.000=152.025,273.000=152.034,274.000=152.025,275.000=152.034,276.000=152.025,277.000=152.034,278.000=152.025,279.000=152.034,280.000=152.025,281.000=152.034,282.000=152.025,283.000=152.034,284.000=152.025,285.000=152.034,286.000=152.025,287.000=152.034,288.000=152.025,289.000=152.034,290.000=152.025,291.000=152.034,292.000=152.025,293.000=152.034,294.000=152.025,295.000=152.034,296.000=152.025,297.000=152.034,298.000=152.025,299.000=152.034,300.000=152.025,301.000=152.034,302.000=152.025,303.000=152.034,304.000=152.025,305.000=152.034,306.000=152.025,307.000=152.034,308.000=152.025,309.000=152.034,310.000=152.025,311.000=152.034,312.000=152.025,313.000=152.034,314.000=152.025,315.000=152.034,316.000=152.025,317.000=152.034,318.000=152.025,319.000=152.034,320.000=152.025,321.000=152.034,322.000=152.025,323.000=152.034,324.000=152.025,325.000=152.034,326.000=152.025,327.000=152.034,328.000=152.025,329.000=152.034,330.000=152.025,331.000=149.830,332.000=152.025,333.000=152.034,334.000=152.025,335.000=152.034,336.000=152.025,337.000=152.034,338.000=152.025,339.000=152.034,340.000=152.025,341.000=152.034,342.000=152.025,343.000=152.034,344.000=152.025,345.000=152.034,346.000=152.025,347.000=152.034,348.000=152.025,349.000=152.034,350.000=152.025,351.000=152.034,352.000=152.025,353.000=152.034,354.000=152.025,355.000=152.034,356.000=152.025,357.000=152.034,358.000=152.025,359.000=152.034,360.000=152.025,361.000=152.034,362.000=152.025,363.000=152.034,364.000=152.025,365.000=152.034,366.000=152.025;
#STOPS:;
#BGCHANGES:;
// cache tags:
#FIRSTBEAT:8.000;
#LASTBEAT:363.250;
#SONGFILENAME:Songs/Farewell, My Little Stepmania Pack/Stupid-MF[wc]/Stupid-MF.sm;
#HASMUSIC:1;
#HASBANNER:1;
#MUSICLENGTH:145.266;
// end cache tags

//---------------dance-single - ----------------
#NOTES:
     dance-single:
     :
     Hard:
     4:
     1.000,1.000,1.000,0.000,1.000,989.000,389.000,0.000,0.000,0.000:
0000
0000
0000
0000
,
0000
0000
0000
0000
,
1000
0001
0100
0010
,
1001
0000
0100
0000
0010
0100
1001
0000
0100
0000
1001
0000
0010
0100
0010
0000
,
1001
0100
0001
0010
1100
0000
1001
0100
0010
1000
0010
0100
1010
0001
0010
0100
,
0110
0001
1000
0010
1100
0010
0101
0000
0100
0010
1001
0010
0101
0001
0100
0010
,
1100
0010
1000
0001
0110
0000
1100
0010
0001
0100
1000
0100
1001
0010
0100
1000
,
0110
0001
0010
0001
1100
0010
0101
0000
0000
0000
0011
0000
0101
0010
0000
0001
,
1010
0100
0010
0001
0110
0000
1010
0100
0010
0100
1000
0001
0110
0001
0100
0001
,
1100
0010
1000
0010
1100
0001
0110
1000
0100
0010
0101
0010
1001
1000
0010
0100
,
1010
0001
0010
0001
0110
0000
0011
0100
1000
0010
0001
0010
1100
0001
0010
0001
,
0110
1000
0010
0001
0110
1000
0101
0000
0000
0000
0110
0000
1100
1000
0010
0000
,
1100
0000
0101
1100
0100
0011
0011
1010
,
1001
0000
0011
0101
0000
1100
1100
0010
,
1001
0000
0110
1010
1000
0101
0101
0110
,
1001
0000
0011
1001
0000
1100
1100
0000
,
1010
0100
0010
1000
0101
0010
0001
1000
0110
0001
1010
0100
1000
0010
0101
1000
,
0110
0001
0010
0100
0011
1000
0100
0001
1010
0100
1001
0100
0010
0001
1010
0001
,
0110
1000
0001
0010
1100
0010
0001
0100
0011
1000
0101
0010
1000
0001
0110
0001
,
1100
0010
0100
1000
0011
0100
1000
0010
0101
1000
0110
0001
1000
0010
0101
0010
,
1100
0001
0010
0001
1010
0100
1000
0001
1100
0010
1001
0010
0100
1000
0110
0001
,
1010
0100
1000
0001
0110
1000
0100
0010
1100
0010
0101
1000
0001
0100
1001
0010
,
1100
0010
0001
0100
1010
0100
0010
0001
0110
0001
1010
0100
0001
0100
1010
0001
,
0110
1000
0100
1000
0011
0100
1000
0010
0101
1000
0110
0001
0100
0001
1010
0100
,
1001
0100
0010
0100
0010
0010
0001
0010
1100
0001
0100
0001
0010
0010
0100
1000
,
0101
0000
0000
0000
0010
0010
0000
0010
0101
1000
0001
1000
0011
1000
0001
1100
,
0011
0000
0000
0000
0100
0100
0000
0000
0101
0000
0000
0000
0100
0100
0000
0000
,
1010
0000
0000
0000
0000
0000
0000
0000
0000
0000
0000
0000
0100
0000
0000
0100
0000
0000
0000
0000
0100
0000
0000
0000
1010
0000
0000
0001
0000
0000
1000
0000
0000
0001
0000
0000
1100
0000
0000
0001
0000
0000
1000
0000
0000
0011
0000
0000
,
1100
0000
0000
0000
0011
0000
0110
0000
1000
0000
0010
0000
0101
1000
0000
0000
,
1001
0000
0001
0000
1010
0000
0110
0000
0001
0000
1001
0000
1010
0010
0000
0000
,
1100
0000
0000
0000
,
1100
0000
0000
0000
0101
0000
0110
0000
1000
0000
0011
0000
1100
0100
0000
0000
,
0101
0000
1000
0000
0011
0000
0110
0000
1000
0000
0010
0000
1100
0001
0000
0000
,
0110
0000
1000
0000
0101
0000
0011
0000
0010
0000
1010
0000
1100
0100
0000
0000
,
1000
0000
0000
0000
0000
0000
0000
0000
0000
0000
0000
0000
0000
1000
0001
0000
,
0110
1000
0010
0001
1100
0000
0110
1000
0001
0100
0001
1000
0101
0010
0001
0100
,
1001
0010
0100
0001
1100
0001
1010
0000
1000
0001
0110
0001
1010
0010
1000
0001
,
1100
0001
0100
0010
1001
0000
1100
0001
0010
1000
0100
1000
0110
0001
1000
0100
,
1001
0010
0001
0010
1100
0001
1010
0000
0000
0000
0110
0000
1010
0001
0000
0010
,
0101
1000
0100
0010
1001
0000
0110
1000
0001
1000
0100
0010
1001
0100
1000
0010
,
1100
0001
0100
0010
1100
0010
1001
0100
0010
0001
1010
0001
0110
0100
0001
1000
,
0101
0010
0100
0010
1001
0000
0011
1000
0100
0001
0010
0001
1100
0010
0100
0010
,
1001
0100
0001
0010
1001
0100
1010
0000
0000
0000
1001
0000
1100
0100
0001
0000
,
1100
0000
1010
1100
0100
0011
0011
0101
,
0110
0000
0011
1010
0000
1100
1100
0001
,
0110
0000
1001
0101
0100
1010
1010
1001
,
0110
0000
0011
0110
0000
1100
1100
0000
,
0101
1000
0001
0100
1010
0001
0010
0100
1001
0010
0101
1000
0100
0001
1010
0100
,
1001
0010
0001
1000
0011
0100
1000
0010
0101
1000
0110
1000
0100
0010
0101
0010
,
1001
0100
0010
0001
1100
0001
0010
1000
0011
0100
1010
0001
0100
0010
1001
0010
,
1100
0001
1000
0100
0011
1000
0100
0001
1010
0100
1001
0010
0100
0001
1010
0001
,
1100
0010
0001
0010
0101
1000
0100
0010
1100
0001
0110
0001
1000
0100
1001
0010
,
0101
1000
0100
0010
1001
0100
1000
0001
1100
0001
1010
0100
0010
1000
0110
0001
,
1100
0001
0010
1000
0101
1000
0010
0100
1001
0010
0101
1000
0010
1000
0101
0010
,
1001
0100
1000
0100
0011
1000
0100
0001
1010
0100
1001
0010
1000
0010
0101
1000
,
0110
1000
0001
1000
0001
0001
0010
0001
1100
0010
1000
0010
0001
0001
1000
0100
,
1010
0000
0000
0000
0001
0001
0000
0001
1010
0100
0010
0100
0011
0100
0010
1100
,
0011
0000
0000
0000
1000
1000
0000
0000
1010
0000
0000
0000
1000
1000
0000
0000
,
0101
0000
0000
0000
0000
0000
0000
0000
0000
0000
0000
0000
1000
0000
0000
1000
0000
0000
0000
0000
1000
0000
0000
0000
0101
0000
0000
0010
0000
0000
0100
0000
0000
0010
0000
0000
1100
0000
0000
0010
0000
0000
0100
0000
0000
0011
0000
0000
,
1100
0000
0000
0000
0011
0000
1001
0000
0100
0000
0001
0000
1010
0100
0000
0000
,
0110
0000
0010
0000
0101
0000
1001
0000
0010
0000
0110
0000
0101
0001
0000
0000
,
1100
0000
0000
0000
,
1100
0000
0000
0000
1010
0000
1001
0000
0100
0000
0011
0000
1100
1000
0000
0000
,
1010
0000
0100
0000
0011
0000
1001
0000
0100
0000
0001
0000
1100
0010
0000
0000
,
1001
0000
0100
0000
1010
0000
0011
0000
0001
0000
0101
0000
1100
1000
0000
0000
,
0100
0000
0000
0000
,
1100
0010
0001
0100
0011
1000
0110
0001
1000
0100
0001
0100
1010
0001
0100
1000
,
0110
0001
0100
0001
1010
0100
0011
1000
0100
1000
0011
1000
0110
0101
0010
0001
,
1100
0010
0100
1000
0101
0010
1001
0100
0010
1000
0001
1000
0110
0001
0100
0010
,
1100
0001
0100
0001
1010
0100
0011
1000
0010
1000
0101
1000
0110
1010
0001
0010
,
1100
0010
0101
1000
0110
1000
0101
0010
1000
0001
1010
0100
1001
0010
0101
1000
,
0100
0010
0101
1000
0011
1000
0110
0001
0100
0001
0110
1000
0011
1001
0110
0001
,
0100
0010
0101
1000
0110
0001
1100
0010
0100
0001
1100
0010
1001
0100
1010
0001
,
0100
0010
0101
0010
1001
0100
0011
1000
0100
1000
0011
0100
1001
1100
0110
0001
,
0100
1000
0101
0010
1100
0001
1010
0001
0100
0010
1100
0001
0110
0001
1010
0100
,
0010
0001
1010
0001
0110
1000
0011
0100
1000
0001
1010
0000
0101
0010
1001
0100
,
0011
0000
0010
0000
1010
0000
1100
0000
0010
0000
0001
0000
1010
0100
0000
0000
,
0011
0000
0100
0000
0101
0000
1100
0000
0010
0000
1100
0000
0011
0001
0000
0000
,
0110
0000
0000
0000
,
1100
0000
0000
0000
0011
0000
0101
0000
1000
0000
0110
0000
1001
0001
0000
0000
,
0110
0000
1000
0000
0011
0000
1100
0000
0010
0000
0001
0000
0101
1000
0000
0000
,
1100
0000
0100
0000
0110
0000
1010
0000
0100
0000
0011
0000
0110
0100
0001
0000
,
1100
0000
0000
0000
,
0110
0010
1001
0110
0010
0010
1100
0001
,
1010
0000
0010
0000
1001
0000
0101
0010
0010
0000
1100
0000
0101
0100
0000
0000
,
0110
0010
1010
0101
0010
0010
1100
0001
,
0011
0000
0010
0000
0101
0000
1100
0010
0010
0000
0011
0000
0101
0100
0000
0000
,
0011
0010
1001
1100
0010
0010
1010
0001
,
0110
0000
0010
0000
1100
0000
0101
0010
0010
0000
0011
0000
1100
0100
0000
0000
,
0110
0010
1100
0101
0010
0010
1100
0001
,
0011
0000
0010
0000
1001
0000
1100
0010
0010
0000
0001
0000
0100
0100
0000
0000
,
0000
0000
0000
0000
;
