#TITLE:monotune survivor;
#SUBTITLE:;
#ARTIST:MRYM's husbandry;
#TITLETRANSLIT:;
#SUBTITLETRANSLIT:;
#ARTISTTRANSLIT:;
#CREDIT:;
#BANNER:monotune_survivor.png;
#BACKGROUND:monotune_survivor-bg.png;
#LYRICSPATH:monotune_survivor.lrc;
#CDTITLE:cdtitle.png;
#MUSIC:monotune_survivor.mp3;
#OFFSET:-6.233;
#SAMPLESTART:25.400;
#SAMPLELENGTH:12.000;
#SELECTABLE:YES;
#DISPLAYBPM:20000000000.000;
#BPMS:0.000=325.001,34.500=170.001,37.500=324.800,165.000=161.960,197.000=321.699,219.000=324.999,260.000=139.200,291.000=161.960,303.250=161.620,306.000=352.999,401.500=647.275,438.000=105.260,445.500=-45.000,449.500=47.420,454.500=312.640,455.000=219.041,455.500=336.859,456.000=300.000;
#STOPS:132.250=0.090
,260.000=1.800
,302.875=1.580
;
#BGCHANGES:;
// cache tags:
#FIRSTBEAT:0.000;
#LASTBEAT:457.625;
#SONGFILENAME:Songs/Japanese Collaboration Mix/monotune_survivor/monotune_survivor.sm;
#HASMUSIC:1;
#HASBANNER:1;
#MUSICLENGTH:108.956;
// end cache tags

//---------------dance-single - Hard----------------
#NOTES:
     dance-single:
     Hard:
     Hard:
     10:
     0.798,1.000,0.110,0.569,0.193,535.000,12.000,62.000,1.000,0.000:
1000
0001
0000
0001
1000
0100
1000
0000
,
1000
0000
0100
0000
1000
0100
1000
0000
,
1000
0001
0000
0001
1000
0100
1000
0000
,
0100
0000
1000
0000
0010
0100
0001
0000
,
1000
0010
0000
0001
0100
0000
0001
0000
,
0001
1000
0100
1000
,
0001
0100
0000
0010
1000
0000
0100
0000
,
1000
0100
0010
0001
0010
0200
2000
0000
,
0000
0000
0000
0000
0000
0000
0000
0000
0000
0000
0000
0000
0000
0000
0000
0000
0000
0000
0000
0000
0000
0000
0000
0000
0000
0000
0000
0000
0000
0000
0000
0000
0000
0000
0000
0000
0000
0000
0000
0000
0000
3300
0000
0000
0000
0000
0000
0000
0000
0000
0000
0000
0000
0000
0000
0000
0000
0000
0001
0000
0000
0000
0000
0000
,
0000
0001
0000
0000
0000
0001
0000
0000
0000
0100
0000
0000
0001
0000
0000
0000
0010
0000
0000
0000
0100
0000
0000
0000
2000
0000
0000
0000
0100
0000
0000
0000
,
0000
0100
3000
1000
0100
0010
0002
0010
,
0000
0010
0003
0001
0010
0100
2000
0100
,
0000
0100
3000
1000
0100
0010
0002
0010
,
0000
0010
0003
0001
0010
0100
2000
0100
,
0000
0100
3000
1000
0100
0010
0002
0010
,
0000
0010
0003
0001
0010
0100
2000
0100
,
0000
0100
3000
1000
0100
0010
0001
0010
,
0100
1000
0000
1000
0001
0000
0001
1000
,
0000
0100
0000
0001
1000
0000
1000
0001
,
0000
0100
0000
1000
0001
0000
0001
1000
,
0000
0100
0000
1000
0001
1000
0001
1000
,
0000
0100
0000
1000
0001
0000
0001
1000
,
0000
0100
0000
0001
1000
0000
1000
0001
,
0000
0100
0000
1000
0001
0000
0001
1000
,
0000
0100
0000
1001
0000
0000
0000
0110
,
0000
0000
0000
0010
0000
1000
0100
0000
,
0100
1000
0000
0100
0000
0001
0100
0000
,
0100
0001
0000
0010
0000
0001
0100
0000
,
0100
0001
0000
0100
0000
0001
0000
0100
,
0000
0010
0000
1000
0100
0000
0100
1000
,
0000
0010
0000
0100
0010
0000
0100
0001
,
0000
0010
0000
0001
0100
0000
0100
0001
,
0000
0100
0000
1000
0100
0000
0200
0020
,
0000
0330
0001
0000
1000
0001
0000
0001
,
1000
0000
1000
0100
0000
0100
0010
0100
,
0010
0000
1000
0000
0001
1000
0000
1000
,
0001
0000
0001
0010
0000
0010
0100
0010
,
0100
0000
0001
0000
1000
0001
0000
0001
,
1000
0000
1000
0100
0000
0100
0010
0100
,
0010
0000
1000
0000
0001
1000
0000
1000
,
0001
0000
0001
0020
0200
0000
0000
0000
,
0330
0000
0000
0000
2001
0000
0000
3200
0000
0000
0320
0000
0000
0000
0032
0000
,
0000
0013
0000
0000
0002
0000
0000
0023
0000
0000
0230
0000
0000
0000
2300
0000
,
0000
3100
0000
0000
2000
0000
0000
3200
0000
0000
0320
0000
0000
0032
0000
0000
,
0010
0003
0001
0000
0002
0000
0000
0023
0000
0000
0230
0000
0000
0000
2300
0000
,
0000
3100
0000
0000
2000
0000
0000
3200
0000
0000
0320
0000
0000
0000
0032
0000
,
0000
0013
0000
0000
0002
0000
0000
0023
0000
0000
0230
0000
0000
0000
2300
0000
,
0000
3100
0000
0000
2000
0000
0000
3200
0000
0000
0320
0000
0000
0032
0000
0000
,
0010
0003
0001
0000
0002
0000
0000
0023
0000
0000
0230
0000
0000
0000
2300
0000
,
0000
3100
1000
0000
0100
0000
1000
0000
0100
0000
0000
0000
0001
0000
0000
0000
,
0100
0000
0010
1000
0100
0000
0001
0000
,
0100
0000
0001
0010
0001
0000
0100
0000
,
0001
0000
0100
0010
0100
0000
0001
0000
,
1000
0000
0001
1000
0100
0000
1000
0000
,
0010
0000
0001
0100
0010
0000
1000
0000
,
0001
0000
0010
0001
0100
0000
0010
0000
,
0100
0000
0001
0100
0010
1000
0010
0100
,
0001
0100
0001
0001
,
0100
0000
0010
1000
0100
0000
0001
0000
,
0100
0000
0001
0010
0001
0000
0100
0000
,
0001
0000
0001
1000
0100
0000
1000
0000
,
0001
0000
0001
1000
0100
0000
1000
0000
,
0010
0000
0001
0100
0010
0000
1000
0000
,
0001
0000
0010
0001
0100
0000
0010
0000
,
0100
0000
0001
0100
0010
1000
0001
0000
,
1100
0000
0000
0000
0001
0000
1000
0000
0001
1000
0100
0000
0000
0000
0100
0000
,
0010
0100
0010
0000
0001
0000
1000
0000
0001
1000
0100
0000
0000
0000
0001
0000
,
0010
0000
0010
0001
0001
0001
0010
0001
,
0001
0000
0100
1000
1000
1000
0100
1000
,
1000
0000
0000
0000
1001
0000
0000
1001
0000
0000
0100
0000
0010
0000
0100
0000
,
0010
0000
0000
0000
1001
0000
0000
1001
0000
0000
0010
0000
0100
0000
0010
0000
,
0100
0000
0000
0000
1001
0000
0000
1001
0000
0000
0100
0000
0010
0000
0100
0000
,
0010
0000
0110
0000
1001
0000
1000
0001
,
0100
0000
0000
0010
0000
0000
1000
0000
0000
0001
0000
0000
0100
0000
0000
0010
0000
0000
1000
0000
0000
0000
0001
0000
,
0100
0000
0000
0000
0010
0000
0000
0000
1000
0000
0000
0000
0001
0000
0000
0000
0100
0000
0000
0000
0010
0000
0000
0000
1000
0000
0000
0000
0001
0000
0000
0000
0100
0000
0000
0000
0010
0000
0000
1000
0000
0000
0001
0000
0000
1000
0000
0000
,
0001
1000
0001
1000
0001
1000
0001
1000
0001
1000
0001
1000
0001
0000
0000
0000
,
0000
0000
0000
0100
0100
0000
0001
0000
,
0010
0001
0100
0001
,
0010
0001
0100
0001
,
0010
1000
0100
0001
,
0100
0010
0100
0001
,
0010
0001
0100
0001
,
0010
0001
0100
0001
,
0010
1000
0100
0001
,
0100
0020
0200
0330
,
0001
0010
0100
2000
0000
0000
3100
0000
,
1000
0100
0010
0002
0000
0000
0013
0000
,
0001
0010
0100
2000
0000
0000
3100
0000
,
1000
0100
0010
0002
0000
0000
0013
0000
,
0001
0010
0100
2000
0000
0000
3100
0000
,
1000
0100
0010
0002
0000
0000
0013
0000
,
0001
0010
0100
2000
0000
0000
3100
0000
,
1000
0001
1000
0001
,
1000
0001
1000
0001
,
2000
3001
0002
1003
,
2000
3001
0002
1003
,
2000
3001
0002
1003
,
1000
0001
1000
0001
,
1000
0001
1000
0001
,
1000
0001
1000
0001
1000
0001
1000
0001
,
1000
0001
1000
0200
0000
0020
0000
0000
,
0000
0000
0000
0000
,
0000
0000
0000
0000
,
0000
0000
0000
0000
,
0000
0000
0000
0000
,
0000
0000
0000
0000
,
0000
0000
0000
0000
,
0000
0000
0000
0000
,
0000
0000
0000
0000
,
0000
0000
0330
0000
,
0000
0000
0000
0000
,
0000
0000
0000
0000
,
0000
0000
0000
0010
0000
0000
0000
0000
,
0000
0000
0000
0000
,
0000
0000
0000
0000
0000
0000
0000
0000
0000
0000
0000
0000
0000
00M0
0000
0000
0000
0000
0000
0000
0000
0000
0000
0000
0000
0000
0000
0000
0000
0000
0000
0000
;
