#TITLE:The Skies Are Not Enough;
#SUBTITLE:;
#ARTIST:dbk2;
#TITLETRANSLIT:;
#SUBTITLETRANSLIT:;
#ARTISTTRANSLIT:;
#CREDIT:Mad Matt;
#BANNER:../Banner.png;
#BACKGROUND:../bg.png;
#LYRICSPATH:;
#CDTITLE:;
#MUSIC:The Skies Are Not Enough.ogg;
#OFFSET:-0.020;
#SAMPLESTART:79.700;
#SAMPLELENGTH:17.100;
#SELECTABLE:YES;
#BPMS:0.000=250.000;
#STOPS:;
#BGCHANGES:;
// cache tags:
#FIRSTBEAT:16.000;
#LASTBEAT:490.000;
#SONGFILENAME:Songs/Tachyon Epsilon/The Skies Are Not Enough - [Mad Matt]/The Skies Are Not Enough.sm;
#HASMUSIC:1;
#HASBANNER:1;
#MUSICLENGTH:120.032;
// end cache tags

//---------------dance-single - Mad Matt----------------
#NOTES:
     dance-single:
     Mad Matt:
     Hard:
     19:
     1.000,1.000,0.017,0.142,1.000,1212.000,2.000,17.000,0.000,0.000:














0000
0000
0000
0000
,
0000
0000
0000
0000
,
0000
0000
0000
0000
,
0000
0000
0000
0000
,
1000
0000
0010
1000
0001
0010
0100
1000
,
1000
0000
0100
1000
0001
0100
0010
1000
,
1000
0000
0010
0100
0001
1000
0100
0010
,
0010
0000
0001
0010
0100
1000
0001
0100
,
0100
0000
0010
1000
0001
1000
0100
0010
,
0010
0000
0001
1000
0010
1000
0001
0100
,
0100
0000
0010
1000
0001
0100
0010
1000
,
1000
0000
0001
0100
0001
0000
1000
0000
0001
0100
0001
0000
1000
0000
0100
0010
,
0001
0000
0100
0001
1000
0100
0010
0001
,
0001
0000
0010
0001
1000
0010
0100
0001
,
0001
0000
0100
0010
1000
0001
0010
0100
,
0100
0000
1000
0100
0010
0001
1000
0010
,
0010
0000
0100
0001
1000
0001
0010
0100
,
0100
0000
1000
0001
0100
0001
1000
0010
,
0010
0000
0100
0001
1000
0010
0100
0001
,
0001
0000
1000
0010
1000
0000
0001
0000
1000
0010
1000
0000
0001
0000
0010
0100
,
2000
0000
0000
0000
0000
0000
3010
0100
,
0002
0000
0000
0000
0000
0000
0000
0000
0000
0000
0000
0000
0013
0100
1000
0001
,
0200
0000
0000
0000
0000
0000
0310
1000
,
0002
0000
0000
0000
0000
0000
0000
0000
0000
0000
0000
0000
0103
0010
1000
0001
,
0020
0000
0000
0000
0000
0000
0130
1000
,
0002
0000
0000
0000
0000
0000
0000
0000
0000
0000
0000
0000
0013
0100
1000
0001
,
0200
0000
0000
0000
0000
0000
0310
1000
,
0002
0000
0000
0000
,
1003
0100
0010
0001
1000
0001
0010
0001
,
1000
0010
0100
0001
1000
0001
0100
0001
,
1000
0100
0010
0100
1000
0100
0010
0001
,
1000
0010
0100
0001
1000
0100
1000
0001
,
0100
0010
1000
0001
1000
0100
1000
0010
,
0100
0001
1000
0100
0010
0001
1000
0010
,
0100
0001
1000
0100
1000
0001
0100
0010
1000
0001
0010
0001
,
1000
0100
1000
0001
1000
0010
0100
0001
1000
0010
1000
0001
1000
0100
0010
0001
,
1000
0000
0010
1000
0001
0010
0100
1000
,
1000
0000
0100
1000
0001
0100
0010
1000
,
1000
0000
0010
0100
0001
1000
0100
0010
,
0010
0000
0001
0010
0100
1000
0001
0100
,
0100
0000
0010
1000
0001
1000
0100
0010
,
0010
0000
0001
1000
0010
1000
0001
0100
,
0100
0000
0010
1000
0001
0100
0010
1000
,
1000
0000
0001
0100
0001
0000
1000
0000
0001
0100
0001
0000
1000
0000
0100
0010
,
0001
1000
0100
0010
0100
1000
0010
1000
,
0001
1000
0100
0010
0100
1000
0010
0100
,
0001
0010
0100
0010
0001
1000
0010
0100
,
0001
0010
0100
0010
0001
0100
0010
1000
,
0100
0010
0001
0010
0100
1000
0010
1000
,
0100
1000
0010
0100
0001
1000
0100
1000
,
0001
1000
0010
0100
0001
1000
0100
1000
,
0001
0100
0001
1000
0001
0010
0100
0010
0001
1000
0001
0100
0010
1000
0001
1000
,
0100
1000
0001
0100
0010
1000
0001
1000
0100
0010
0100
1000
0001
1000
0010
0100
,
0001
1000
0100
1000
0001
0100
0010
0100
0001
1000
0001
0010
0100
0010
0001
1000
,
0001
0100
0010
1000
0001
1000
0100
0010
0100
1000
0001
1000
0010
0100
0010
1000
,
0001
0100
0001
1000
0001
0010
0100
0010
0001
1000
0001
0100
0010
1000
0001
0100
,
0010
0100
0001
1000
0100
1000
0001
0100
0010
1000
0001
0100
0001
1000
0001
0010
,
0100
0010
0001
1000
0001
0100
0010
0100
0001
1000
0100
1000
0001
1000
0100
0010
,
0001
1000
0001
0100
0010
0100
0001
1000
0100
1000
0001
1000
0010
0100
0010
1000
,
0001
0010
0100
1000
0001
0010
0100
1000
0001
1000
0010
0100
0010
1000
0001
1000
,
0200
0000
0000
0000
0000
0000
0310
0001
,
2000
0000
0000
0000
0000
0000
0000
0000
0000
0000
0000
0000
3100
0010
0001
1000
,
0020
0000
0000
0000
0000
0000
0130
0001
,
2000
0000
0000
0000
0000
0000
0000
0000
0000
0000
0000
0000
3010
0100
0001
1000
,
0200
0000
0000
0000
0000
0000
0310
0001
,
2000
0000
0000
0000
0000
0000
0000
0000
0000
0000
0000
0000
3100
0010
0001
1000
,
0020
0000
0000
0000
0000
0000
0130
0001
,
1000
0000
0001
0010
0001
0000
1000
0000
0001
0010
0001
0000
1000
0000
0010
0100
,
0001
0100
0010
1000
0001
1000
0010
1000
,
0001
0010
0100
1000
0001
1000
0100
1000
,
0001
0100
0010
0100
0001
0100
0010
1000
,
0001
0000
0010
0000
0100
0000
1000
0000
0001
0000
0100
0000
0001
1000
0010
0100
,
0001
0000
1000
0001
1000
0100
0010
0001
,
1000
0000
0001
0100
0010
1000
0001
0010
,
0100
1000
0001
0100
0001
1000
0100
0010
0001
1000
0010
1000
,
0001
0100
0010
1000
0001
0010
0100
0010
0001
0100
0010
0100
,
0001
1000
0100
0010
0100
1000
0100
1000
0001
0100
0001
0010
,
0001
1000
0010
0100
0010
1000
0010
1000
0001
0010
0001
0100
,
0001
1000
0100
0010
0100
1000
0010
0100
0001
0100
0001
0010
,
0001
1000
0010
0100
0010
1000
0100
0010
0001
0010
0001
0100
,
0001
1000
0100
0010
0100
1000
0100
1000
0001
0100
0001
0010
,
0001
1000
0010
0100
0010
1000
0010
1000
0001
0010
0001
0100
,
0001
1000
0100
1000
0001
0100
0010
0100
0001
1000
0100
1000
,
0010
0100
0001
0000
1000
0010
0100
0001
,
1000
0100
1000
0001
1000
0010
0100
0001
1000
0010
0100
0010
1000
0001
1000
0100
,
1000
0001
0010
0100
0010
0001
1000
0001
0100
0001
1000
0010
0100
0010
1000
0001
,
1000
0100
1000
0001
0010
0100
1000
0100
0010
0001
1000
0100
0010
0001
1000
0001
,
0100
0001
1000
0010
0100
0001
0100
0010
1000
0001
1000
0100
1000
0001
0100
0010
,
1000
0001
1000
0010
0100
0010
1000
0001
1000
0100
1000
0001
0010
0001
1000
0100
,
0010
0001
1000
0001
0100
0001
1000
0010
0100
0001
0100
0010
0100
0001
1000
0001
,
0010
0001
1000
0100
1000
0001
0010
0100
0010
0001
1000
0001
0100
0010
1000
0010
,
0100
0001
1000
0100
1000
0001
0010
0100
0010
0001
1000
0001
0010
0100
0010
0001
,
1000
0100
1000
0001
0010
0100
0010
0001
1000
0001
0100
0001
1000
0100
0010
0001
,
1000
0100
0010
0100
1000
0001
1000
0010
0100
0001
0100
0010
0100
0001
1000
0001
,
0010
0001
1000
0100
1000
0001
0010
0100
1000
0001
1000
0010
1000
0001
0100
0010
,
0100
0001
1000
0001
0100
0010
1000
0001
1000
0100
1000
0001
0100
0010
1000
0001
,
0100
0010
0100
0001
1000
0001
0010
0100
0010
0001
1000
0100
0010
0100
1000
0001
,
1000
0010
0100
0010
1000
0001
1000
0100
1000
0001
0010
0100
0010
0001
1000
0001
,
0100
0010
0100
0001
1000
0010
1000
0001
0100
0010
1000
0001
1000
0100
1000
0001
,
0010
0100
0010
0001
1000
0100
0010
0100
1000
0001
1000
0010
1000
0001
0100
0010
,
1000
0001
0100
0001
1000
0001
0010
0100
1000
0001
0010
0100
0010
0001
1000
0001
,
0100
0010
0100
0001
1000
0010
0100
0001
1000
0001
0010
0100
0010
0001
0010
0100
,
1000
0001
0100
0001
1000
0001
0010
0100
1000
0001
1000
0010
0100
0001
1000
0010
,
0100
0001
1000
0001
0010
0001
1000
0100
0010
0001
1000
0100
0010
0100
1000
0001
,
1000
0010
1000
0001
0100
0010
0100
0001
1000
0010
0100
0001
1000
0001
0010
0100
,
1000
0001
0010
0100
0010
0001
1000
0001
0100
0001
1000
0100
0010
0001
1000
0100
,
1000
0001
1000
0010
0100
0001
1000
0010
0100
0010
1000
0001
1000
0100
1000
0001
,
0010
0100
1000
0001
1000
0010
1000
0001
0100
0010
1000
0001
1000
0100
0010
0100
,
1000
0001
1000
0010
1000
0001
0100
0010
1000
0001
1000
0100
1000
0001
0100
0010
,
1000
0001
1000
0100
1000
0001
0100
0010
0100
0001
1000
0001
0100
0001
1000
0001
,
0010
0100
0010
0001
1000
0001
0100
0010
0100
0001
1000
0001
0010
0001
1000
0100
,
0010
0100
1000
0001
0010
0100
0010
0001
1000
0001
0100
0001
1000
0100
0010
0001
,
1000
0100
0010
0100
1000
0001
1000
0010
0100
0010
1000
0001
0100
0010
0100
0001
,
1000
0001
0010
0100
0010
0001
1000
0001
0100
0001
1000
0010
0100
0010
1000
0001
,
1000
0100
0010
0100
1000
0001
0010
0001
1000
0100
0010
0001
1000
0001
0100
0001
,
1000
0010
0100
0010
1000
0001
0100
0010
0100
0001
1000
0100
1000
0001
0010
0100
,
1000
2000
0000
0000
0010
0000
0000
0001
,
0001
0000
0001
0000
0010
0001
3000
0000
,
1002
0000
0000
0000
0010
0000
0000
1000
,
1000
0000
1000
0000
0010
1000
0003
0000
,
0440
0000
0000
0000
,
0000
0000
0000
0000
,
0000
0000
0330
0000
;

//---------------dance-single - Mad Matt----------------
#NOTES:
     dance-single:
     Mad Matt:
     Challenge:
     20:
     1.000,1.000,0.017,0.142,1.000,1212.000,2.000,17.000,0.000,0.000:

0000
0000
0000
0000
,
0000
0000
0000
0000
,
0000
0000
0000
0000
,
0000
0000
0000
0000
,
1000
0000
0010
1000
0001
0010
0100
1000
,
1000
0000
0100
1000
0001
0100
0010
1000
,
1000
0000
0010
0100
0001
1000
0100
0010
,
0010
0000
0001
0010
0100
1000
0001
0100
,
0100
0000
0010
1000
0001
1000
0100
0010
,
0010
0000
0001
1000
0010
1000
0001
0100
,
0100
0000
0010
1000
0001
0100
0010
1000
,
1000
0000
0001
0100
0001
0000
1000
0000
0001
0100
0001
0000
1000
0000
0100
0010
,
0001
0000
0100
0001
1000
0100
0010
0001
,
0001
0000
0010
0001
1000
0010
0100
0001
,
0001
0000
0100
0010
1000
0001
0010
0100
,
0100
0000
1000
0100
0010
0001
1000
0010
,
0010
0000
0100
0001
1000
0001
0010
0100
,
0100
0000
1000
0001
0100
0001
1000
0010
,
0010
0000
0100
0001
1000
0010
0100
0001
,
0001
0000
1000
0010
1000
0000
0001
0000
1000
0010
1000
0000
0001
0000
0010
0100
,
2000
0000
0000
0000
0000
0000
3010
0100
,
0002
0000
0000
0000
0000
0000
0000
0000
0000
0000
0000
0000
0013
0100
1000
0001
,
0200
0000
0000
0000
0000
0000
0310
1000
,
0002
0000
0000
0000
0000
0000
0000
0000
0000
0000
0000
0000
0103
0010
1000
0001
,
0020
0000
0000
0000
0000
0000
0130
1000
,
0002
0000
0000
0000
0000
0000
0000
0000
0000
0000
0000
0000
0013
0100
1000
0001
,
0200
0000
0000
0000
0000
0000
0310
1000
,
0002
0000
0000
0000
,
1003
0100
0010
0001
1000
0001
0010
0001
,
1000
0010
0100
0001
1000
0001
0100
0001
,
1000
0100
0010
0100
1000
0100
0010
0001
,
1000
0010
0100
0001
1000
0100
1000
0001
,
0100
0010
1000
0001
1000
0100
1000
0010
,
0100
0001
1000
0100
0010
0001
1000
0010
,
0100
0001
1000
0100
1000
0001
0100
0010
1000
0001
0010
0001
,
1000
0100
0010
0001
1000
0010
0100
0001
1000
0100
0010
0001
1000
0010
0100
0001
,
1000
0000
0010
1000
0001
0010
0100
1000
,
1000
0000
0100
1000
0001
0100
0010
1000
,
1000
0000
0010
0100
0001
1000
0100
0010
,
0010
0000
0001
0010
0100
1000
0001
0100
,
0100
0000
0010
1000
0001
1000
0100
0010
,
0010
0000
0001
1000
0010
1000
0001
0100
,
0100
0000
0010
1000
0001
0100
0010
1000
,
1000
0000
0001
0100
0001
0000
1000
0000
0001
0100
0001
0000
1000
0000
0100
0010
,
0001
1000
0100
0010
0100
1000
0010
1000
,
0001
1000
0100
0010
0100
1000
0010
0100
,
0001
0010
0100
0010
0001
1000
0010
0100
,
0001
0010
0100
0010
0001
0100
0010
1000
,
0100
0010
0001
0010
0100
1000
0010
1000
,
0100
1000
0010
0100
0001
1000
0100
1000
,
0001
1000
0010
0100
0001
1000
0100
1000
,
0001
0010
0100
1000
0001
0100
0010
0100
0001
1000
0001
0010
0100
1000
0010
1000
,
0001
0010
0100
1000
0010
1000
0001
0010
0001
0100
0010
1000
0001
1000
0100
1000
,
0010
0100
0001
0010
0100
1000
0001
1000
0010
0100
0001
1000
0001
0010
0100
1000
,
0001
0100
0010
1000
0100
1000
0001
0100
0001
0010
0100
1000
0001
1000
0010
1000
,
0100
0010
0001
0100
0010
1000
0001
1000
0100
0010
0001
1000
0001
0100
0010
1000
,
0001
1000
0010
0100
0001
0010
0001
1000
0010
1000
0100
0010
0001
1000
0001
0100
,
0001
0010
0100
1000
0010
0100
0001
1000
0001
0010
0100
1000
0001
1000
0010
0100
,
0001
1000
0100
0010
0001
0100
0001
1000
0100
1000
0010
0100
0001
1000
0001
0010
,
0001
1000
0010
0100
0001
1000
0100
0010
0001
1000
0010
0100
0001
1000
0100
0010
,
0002
0000
0000
0000
0000
0000
0013
0001
,
2000
0000
0000
0000
0000
0000
0000
0000
0000
0000
0000
0000
3100
0010
0001
1000
,
0020
0000
0000
0000
0000
0000
0130
0001
,
2000
0000
0000
0000
0000
0000
0000
0000
0000
0000
0000
0000
3010
0100
0001
1000
,
0200
0000
0000
0000
0000
0000
0310
0001
,
2000
0000
0000
0000
0000
0000
0000
0000
0000
0000
0000
0000
3100
0010
0001
1000
,
0020
0000
0000
0000
0000
0000
0130
0001
,
1000
0000
0001
0010
0001
0000
1000
0000
0001
0010
0001
0000
1000
0000
0010
0100
,
0001
0100
0010
1000
0001
1000
0010
1000
,
0001
0010
0100
1000
0001
1000
0100
1000
,
0001
0100
0010
0100
0001
0100
0010
1000
,
0001
0000
0010
0000
0100
0000
1000
0000
0001
0000
0100
0000
0001
1000
0010
0100
,
0001
0000
1000
0001
1000
0100
0010
0001
,
1000
0000
0001
0100
0010
1000
0001
0010
,
0100
1000
0001
0100
0001
1000
0100
0010
0001
1000
0010
1000
,
0001
0100
0010
1000
0001
0010
0100
0010
0001
0100
0010
0100
,
0001
1000
0100
0010
0100
1000
0100
1000
0001
0100
0001
0010
,
0001
1000
0010
0100
0010
1000
0010
1000
0001
0010
0001
0100
,
0001
1000
0100
0010
0100
1000
0010
0100
0001
0100
0001
0010
,
0001
1000
0010
0100
0010
1000
0100
0010
0001
0010
0001
0100
,
0001
1000
0100
0010
0100
1000
0100
1000
0001
0100
0001
0010
,
0001
1000
0010
0100
0010
1000
0010
1000
0001
0010
0001
0100
,
0001
1000
0100
1000
0001
0100
0010
0100
0001
1000
0100
1000
,
0010
0100
0001
0000
1000
0010
0100
0001
,
1000
0100
0010
0100
1000
0010
0100
0001
1000
0001
0010
0100
0010
0001
1000
0001
,
0100
0010
0100
0001
0010
0100
1000
0001
1000
0010
0100
0010
1000
0001
0010
0001
,
1000
0010
0100
0010
1000
0100
0010
0001
1000
0001
0100
0010
0100
0001
1000
0001
,
0010
0100
0010
0001
0100
0010
1000
0001
1000
0100
0010
0100
1000
0001
0100
0001
,
1000
0100
0010
0100
1000
0010
0100
0001
1000
0001
0010
0100
0010
0001
1000
0001
,
0100
0010
1000
0001
1000
0100
0010
0001
0100
0010
1000
0001
0010
0100
1000
0001
,
1000
0010
0100
0010
1000
0100
0010
0001
1000
0001
0100
0010
0100
0001
1000
0001
,
0010
0100
1000
0010
0100
0001
1000
0001
0010
0100
1000
0010
0100
0001
0010
0001
,
1000
0010
0100
0010
1000
0100
0010
0001
1000
0001
0100
0010
0100
0001
1000
0001
,
0010
0100
0010
0001
0100
0010
1000
0001
1000
0100
0010
0100
1000
0001
0100
0001
,
1000
0100
0010
0100
1000
0010
0100
0001
1000
0001
0010
0100
0010
0001
1000
0001
,
0100
0010
0100
0001
0010
0100
1000
0001
1000
0010
0100
0010
1000
0001
0010
0001
,
1000
0010
0100
0010
1000
0100
0010
0001
1000
0001
0100
0010
0100
0001
1000
0001
,
0010
0100
1000
0001
1000
0010
0100
0001
0010
0100
1000
0001
1000
0010
0100
0001
,
1000
0100
0010
0100
1000
0010
0100
0001
1000
0001
0010
0100
0010
0001
1000
0001
,
0100
0010
1000
0100
0010
0001
1000
0001
0100
0010
1000
0100
0010
0001
0100
0001
,
1000
0001
0010
0100
0010
0001
0100
0010
1000
0001
1000
0100
0010
0100
1000
0001
,
1000
0010
0100
0010
1000
0100
0010
0001
1000
0001
0100
0010
0100
0001
1000
0100
,
1000
0001
0100
0010
0100
0001
0010
0100
1000
0001
1000
0010
0100
0010
1000
0001
,
1000
0100
0010
0100
1000
0010
0100
0001
1000
0001
0010
0100
0010
0001
1000
0010
,
1000
0001
0010
0100
0010
0001
0100
0010
1000
0001
1000
0100
0010
0100
1000
0001
,
1000
0010
0100
0001
1000
0001
0010
0100
1000
0010
0100
0001
1000
0100
0010
0001
,
1000
0001
0100
0010
0100
0001
0010
0100
1000
0001
1000
0010
0100
0010
1000
0001
,
1000
0100
0010
0001
0100
0010
1000
0001
1000
0100
0010
0001
0100
0010
1000
0100
,
1000
0001
0100
0010
0100
0001
0010
0100
1000
0001
1000
0010
0100
0010
1000
0001
,
1000
0100
0010
0100
1000
0010
0100
0001
1000
0001
0010
0100
0010
0001
1000
0010
,
1000
0001
0010
0100
0010
0001
0100
0010
1000
0001
1000
0100
0010
0100
1000
0001
,
1000
0010
0100
0010
1000
0100
0010
0001
1000
0001
0100
0010
0100
0001
1000
0100
,
1000
0001
0100
0010
0100
0001
0010
0100
1000
0001
1000
0010
0100
0010
1000
0001
,
1000
0100
0010
0001
1000
0001
0100
0010
1000
0100
0010
0001
1000
0001
0100
0010
,
1000
0001
0010
0100
0010
0001
0100
0001
1000
0100
0010
0100
1000
0010
1000
0001
,
0010
0100
0010
0001
0100
0010
0100
0001
1000
0100
1000
0010
0100
0001
0010
0001
,
1000
2000
0000
0000
0010
0000
0000
0001
,
0001
0000
0001
0000
0010
0001
3000
0000
,
1002
0000
0000
0000
0010
0000
0000
1000
,
1000
0000
1000
0000
0010
1000
0003
0000
,
0440
0000
0000
0000
,
0000
0000
0000
0000
,
0000
0000
0330
0000
;

//---------------dance-single - Mad Matt----------------
#NOTES:
     dance-single:
     Mad Matt:
     Medium:
     18:
     1.000,1.000,0.017,0.142,1.000,1161.000,2.000,17.000,0.000,0.000:











0000
0000
0000
0000
,
0000
0000
0000
0000
,
0000
0000
0000
0000
,
0000
0000
0000
0000
,
1000
0000
0010
1000
0001
0010
0100
1000
,
1000
0000
0100
1000
0001
0100
0010
1000
,
1000
0000
0010
0100
0001
1000
0100
0010
,
0010
0000
0001
0010
0100
1000
0001
0100
,
0100
0000
0010
1000
0001
1000
0100
0010
,
0010
0000
0001
1000
0010
1000
0001
0100
,
0100
0000
0010
1000
0001
0100
0010
1000
,
1000
0000
0001
0100
0001
0000
1000
0000
0001
0100
0001
0000
1000
0000
0100
0010
,
0001
0000
0100
0001
1000
0100
0010
0001
,
0001
0000
0010
0001
1000
0010
0100
0001
,
0001
0000
0100
0010
1000
0001
0010
0100
,
0100
0000
1000
0100
0010
0001
1000
0010
,
0010
0000
0100
0001
1000
0001
0010
0100
,
0100
0000
1000
0001
0100
0001
1000
0010
,
0010
0000
0100
0001
1000
0010
0100
0001
,
0001
0000
1000
0010
1000
0000
0001
0000
1000
0010
1000
0000
0001
0000
0010
0100
,
2000
0000
0000
0000
0000
0000
3010
0100
,
0002
0000
0000
0000
0000
0000
0000
0000
0000
0000
0000
0000
0103
0010
1000
0001
,
0200
0000
0000
0000
0000
0000
0310
1000
,
0002
0000
0000
0000
0000
0000
0000
0000
0000
0000
0000
0000
0013
0100
1000
0001
,
0020
0000
0000
0000
0000
0000
0130
1000
,
0002
0000
0000
0000
0000
0000
0000
0000
0000
0000
0000
0000
0103
0010
1000
0001
,
0200
0000
0000
0000
0000
0000
0310
1000
,
0002
0000
0000
0000
,
1003
0100
0010
0001
1000
0001
0010
0001
,
1000
0010
0100
0001
1000
0001
0100
0001
,
1000
0100
0010
0100
1000
0100
0010
0001
,
1000
0010
0100
0001
1000
0100
1000
0001
,
0100
0010
1000
0001
1000
0100
1000
0010
,
0100
0001
1000
0100
0010
0001
1000
0010
,
0100
0001
1000
0100
1000
0001
0100
0010
1000
0001
0010
0001
,
1000
0100
1000
0001
1000
0010
0100
0001
1000
0010
1000
0001
1000
0100
0010
0001
,
1000
0000
0010
1000
0001
0010
0100
1000
,
1000
0000
0100
1000
0001
0100
0010
1000
,
1000
0000
0010
0100
0001
1000
0100
0010
,
0010
0000
0001
0010
0100
1000
0001
0100
,
0100
0000
0010
1000
0001
1000
0100
0010
,
0010
0000
0001
1000
0010
1000
0001
0100
,
0100
0000
0010
1000
0001
0100
0010
1000
,
1000
0000
0001
0100
0001
0000
1000
0000
0001
0100
0001
0000
1000
0000
0100
0010
,
0001
1000
0100
0010
0100
1000
0010
1000
,
0001
1000
0100
0010
0100
1000
0010
0100
,
0001
0010
0100
0010
0001
1000
0010
0100
,
0001
0010
0100
0010
0001
0100
0010
1000
,
0100
0010
0001
0010
0100
1000
0010
1000
,
0100
1000
0010
0100
0001
1000
0100
1000
,
0001
1000
0010
0100
0001
1000
0100
1000
,
0001
0100
0001
1000
0001
0100
0010
0100
0001
1000
0001
0010
0100
1000
0001
1000
,
0010
0100
0001
1000
0010
0100
0010
1000
0001
0100
0010
1000
0001
1000
0100
1000
,
0001
0010
0100
1000
0001
0010
0100
0010
0001
1000
0100
0010
0100
1000
0001
1000
,
0010
1000
0001
0100
0010
0100
0001
1000
0010
0100
0001
1000
0010
0100
0001
1000
,
0001
0010
0001
1000
0100
0010
0100
1000
0001
0010
0100
0010
0001
1000
0001
0100
,
0001
1000
0010
0100
0010
1000
0001
1000
0010
0100
0001
1000
0001
0010
0001
1000
,
0100
0010
0001
1000
0100
0010
0100
1000
0001
0010
0100
0010
0001
1000
0001
0100
,
0001
1000
0010
0100
0010
1000
0001
0100
0010
1000
0001
1000
0010
0100
0001
1000
,
0001
0010
0100
1000
0001
0010
0100
1000
0001
1000
0010
0100
0001
1000
0010
0100
,
0002
0000
0000
0000
0000
0000
0013
0001
,
2000
0000
0000
0000
0000
0000
0000
0000
0000
0000
0000
0000
3010
0100
0001
1000
,
0020
0000
0000
0000
0000
0000
0130
0001
,
2000
0000
0000
0000
0000
0000
0000
0000
0000
0000
0000
0000
3100
0010
0001
1000
,
0200
0000
0000
0000
0000
0000
0310
0001
,
2000
0000
0000
0000
0000
0000
0000
0000
0000
0000
0000
0000
3010
0100
0001
1000
,
0020
0000
0000
0000
0000
0000
0130
0001
,
1000
0000
0001
0010
0001
0000
1000
0000
0001
0010
0001
0000
1000
0000
0010
0100
,
0001
0100
0010
1000
0001
1000
0010
1000
,
0001
0010
0100
1000
0001
1000
0100
1000
,
0001
0100
0010
0100
0001
0100
0010
1000
,
0001
0000
0010
0000
0100
0000
1000
0000
0001
0000
0100
0000
0001
1000
0010
0100
,
0001
0000
1000
0001
1000
0100
0010
0001
,
1000
0000
0001
0100
0010
1000
0001
0010
,
0100
1000
0001
0010
0001
1000
0100
0010
0001
1000
0010
1000
,
0001
0100
0010
1000
0001
0100
0010
0100
0001
1000
0010
0100
,
0001
1000
0001
0010
0100
1000
0100
1000
0001
0010
0001
0100
,
0001
1000
0010
0100
0010
1000
0010
1000
0001
0100
0001
0010
,
0001
1000
0100
0010
0100
1000
0010
0100
0001
0100
0001
1000
,
0001
0010
0100
0010
0001
1000
0100
0010
0001
0010
0001
0100
,
0001
1000
0100
0010
0100
1000
0100
1000
0001
0010
0001
0100
,
0001
1000
0010
0100
0010
1000
0010
1000
0001
0100
0001
0010
,
0001
1000
0100
1000
0001
0100
0010
0100
0001
1000
0100
1000
,
0010
0100
0001
0000
1000
0010
0100
0001
,
1000
0100
0010
0100
1000
0001
0010
0100
1000
0001
0010
0001
1000
0100
1000
0001
,
1000
0010
0100
0010
1000
0001
1000
0010
0100
0010
1000
0001
0100
0010
1000
0001
,
1000
0100
1000
0001
0010
0100
1000
0100
0010
0001
1000
0100
0010
0001
1000
0001
,
0100
0001
1000
0010
0100
0001
0100
0010
1000
0001
1000
0010
0100
0001
1000
0010
,
1000
0001
1000
0100
1000
0001
0010
0100
0010
0001
1000
0100
0010
0100
1000
0001
,
1000
0010
1000
0001
0100
0001
1000
0010
0100
0001
0100
0010
0100
0001
1000
0001
,
0010
0001
1000
0100
1000
0001
0010
0100
0010
0001
1000
0001
0010
0100
0010
0004
,
4000
0000
0000
0000
0000
0000
0003
3000
,
0001
0100
0010
0100
0001
1000
0010
0100
0001
1000
0010
1000
0001
0100
0001
1000
,
0001
0010
0100
0010
0001
1000
0001
0010
0100
0010
0001
1000
0100
0010
0001
1000
,
0001
0100
0001
1000
0010
0100
0001
0100
0010
1000
0001
0100
0010
1000
0001
1000
,
0100
1000
0001
0010
0100
1000
0100
0010
0001
1000
0001
0010
0100
1000
0001
0010
,
0001
1000
0001
0100
0001
1000
0010
0100
0010
1000
0001
0100
0010
0100
0001
1000
,
0001
0010
0001
1000
0100
1000
0001
0010
0100
1000
0100
0010
0100
1000
0001
1000
,
0010
1000
0001
0100
0001
1000
0010
0100
0010
1000
0001
1000
0010
0100
0010
4000
,
0004
0000
0000
0000
0000
0000
3000
0003
,
1000
0001
0100
0001
1000
0001
0010
0100
1000
0001
0010
0100
0010
0001
1000
0001
,
0100
0010
0100
0001
1000
0010
0100
0001
1000
0001
0010
0100
0010
0001
0010
0100
,
1000
0001
0100
0001
1000
0001
0010
0100
1000
0001
1000
0010
0100
0001
1000
0010
,
0100
0001
1000
0001
0010
0001
1000
0100
0010
0001
1000
0100
0010
0100
1000
0001
,
1000
0010
1000
0001
0100
0010
0100
0001
1000
0010
0100
0001
1000
0001
0010
0100
,
1000
0001
0010
0100
0010
0001
1000
0001
0100
0001
1000
0100
0010
0001
1000
0100
,
1000
0001
1000
0010
0100
0001
1000
0010
0100
0010
1000
0001
1000
0100
1000
0004
,
4000
0000
0000
0000
0000
0000
0003
3000
,
0001
1000
0001
0010
0001
1000
0100
0010
0001
1000
0001
0100
0001
1000
0100
0010
,
0001
1000
0001
0100
0001
1000
0100
0010
0100
1000
0001
1000
0100
1000
0001
1000
,
0010
0100
0010
1000
0001
1000
0100
0010
0100
1000
0001
1000
0010
1000
0001
0100
,
0010
0100
0001
1000
0010
0100
0010
1000
0001
1000
0100
1000
0001
0100
0010
1000
,
0001
0100
0010
0100
0001
1000
0001
0010
0100
0010
0001
1000
0100
0010
0100
1000
,
0001
1000
0010
0100
0010
1000
0001
1000
0100
1000
0001
0010
0100
0010
0001
1000
,
0001
0100
0010
0100
0001
1000
0010
1000
0001
0100
0010
1000
0001
1000
0100
1000
,
0001
0010
0100
0010
0001
1000
0100
0010
0100
1000
0001
0100
0001
1000
0010
0100
,
0001
0002
0000
0000
0010
0000
0000
1000
,
1000
0000
1000
0000
0010
1000
0003
0000
,
2001
0000
0000
0000
0010
0000
0000
0001
,
0001
0000
0001
0000
0010
0001
3000
0000
,
0440
0000
0000
0000
,
0000
0000
0000
0000
,
0000
0000
0330
0000
;

//---------------dance-single - Aoreo----------------
#NOTES:
     dance-single:
     Aoreo:
     Easy:
     18:
     1.000,1.000,0.017,0.142,1.000,1156.000,2.000,17.000,0.000,0.000:





0000
0000
0000
0000
,
0000
0000
0000
0000
,
0000
0000
0000
0000
,
0000
0000
0000
0000
,
1000
0000
0010
1000
0001
0010
0100
1000
,
1000
0000
0100
1000
0001
0100
0010
1000
,
1000
0000
0010
0100
0001
1000
0100
0010
,
0010
0000
0001
0010
0100
1000
0001
0100
,
0100
0000
0010
1000
0001
1000
0100
0010
,
0010
0000
0001
1000
0010
1000
0001
0100
,
0100
0000
0010
1000
0001
0100
0010
1000
,
1000
0000
0001
0100
0001
0000
1000
0000
0001
0100
0001
0000
1000
0000
0100
0010
,
0001
0000
0100
0001
1000
0100
0010
0001
,
0001
0000
0010
0001
1000
0010
0100
0001
,
0001
0000
0100
0010
1000
0001
0010
0100
,
0100
0000
1000
0100
0010
0001
1000
0010
,
0010
0000
0100
0001
1000
0001
0010
0100
,
0100
0000
1000
0001
0100
0001
1000
0010
,
0010
0000
0100
0001
1000
0010
0100
0001
,
0001
0000
1000
0010
1000
0000
0001
0000
1000
0010
1000
0000
0001
0000
0010
0100
,
2000
0000
0000
0000
0000
0000
3010
0100
,
0002
0000
0000
0000
0000
0000
0000
0000
0000
0000
0000
0000
0103
0010
1000
0001
,
0200
0000
0000
0000
0000
0000
0310
1000
,
0002
0000
0000
0000
0000
0000
0000
0000
0000
0000
0000
0000
0013
0100
1000
0001
,
0020
0000
0000
0000
0000
0000
0130
1000
,
0002
0000
0000
0000
0000
0000
0000
0000
0000
0000
0000
0000
0103
0010
1000
0001
,
0200
0000
0000
0000
0000
0000
0310
1000
,
0002
0000
0000
0000
,
1003
0100
0010
0001
1000
0001
0010
0001
,
1000
0010
0100
0001
1000
0001
0100
0001
,
1000
0100
0010
0100
1000
0100
0010
0001
,
1000
0010
0100
0001
1000
0100
1000
0001
,
0100
0010
1000
0001
1000
0100
1000
0010
,
0100
0001
1000
0100
0010
0001
1000
0010
,
0100
0001
1000
0100
1000
0001
0100
0010
1000
0001
0010
0001
,
1000
0100
1000
0001
1000
0010
0100
0001
1000
0010
1000
0001
1000
0100
0010
0001
,
1000
0000
0010
1000
0001
0010
0100
1000
,
1000
0000
0100
1000
0001
0100
0010
1000
,
1000
0000
0010
0100
0001
1000
0100
0010
,
0010
0000
0001
0010
0100
1000
0001
0100
,
0100
0000
0010
1000
0001
1000
0100
0010
,
0010
0000
0001
1000
0010
1000
0001
0100
,
0100
0000
0010
1000
0001
0100
0010
1000
,
1000
0000
0001
0100
0001
0000
1000
0000
0001
0100
0001
0000
1000
0000
0100
0010
,
0001
1000
0100
0010
0100
1000
0010
1000
,
0001
1000
0100
0010
0100
1000
0010
0100
,
0001
0010
0100
0010
0001
1000
0010
0100
,
0001
0010
0100
0010
0001
0100
0010
1000
,
0100
0010
0001
0010
0100
1000
0010
1000
,
0100
1000
0010
0100
0001
1000
0100
1000
,
0001
1000
0010
0100
0001
1000
0100
1000
,
0001
0100
0001
1000
0001
0100
0010
0100
0001
1000
0001
0010
0100
1000
0001
1000
,
0010
0100
0001
1000
0010
0100
0010
1000
0001
0100
0010
1000
0001
1000
0100
1000
,
0001
0010
0100
1000
0001
0010
0100
0010
0001
1000
0100
0010
0100
1000
0001
1000
,
0010
1000
0001
0100
0010
0100
0001
1000
0010
0100
0001
1000
0010
0100
0001
1000
,
0001
0010
0001
1000
0100
0010
0100
1000
0001
0010
0100
0010
0001
1000
0001
0100
,
0001
1000
0010
0100
0010
1000
0001
1000
0010
0100
0001
1000
0001
0010
0001
1000
,
0100
0010
0001
1000
0100
0010
0100
1000
0001
0010
0100
0010
0001
1000
0001
0100
,
0001
1000
0010
0100
0010
1000
0001
0100
0010
1000
0001
1000
0010
0100
0001
1000
,
0001
0010
0100
1000
0001
0010
0100
1000
0001
1000
0010
0100
0001
1000
0010
0100
,
0002
0000
0000
0000
0000
0000
0013
0001
,
2000
0000
0000
0000
0000
0000
0000
0000
0000
0000
0000
0000
3010
0100
0001
1000
,
0020
0000
0000
0000
0000
0000
0130
0001
,
2000
0000
0000
0000
0000
0000
0000
0000
0000
0000
0000
0000
3100
0010
0001
1000
,
0200
0000
0000
0000
0000
0000
0310
0001
,
2000
0000
0000
0000
0000
0000
0000
0000
0000
0000
0000
0000
3010
0100
0001
1000
,
0020
0000
0000
0000
0000
0000
0130
0001
,
1000
0000
0001
0010
0001
0000
1000
0000
0001
0010
0001
0000
1000
0000
0010
0100
,
0001
0100
0010
1000
0001
1000
0010
1000
,
0001
0010
0100
1000
0001
1000
0100
1000
,
0001
0100
0010
0100
0001
0100
0010
1000
,
0001
0000
0010
0000
0100
0000
1000
0000
0001
0000
0100
0000
0001
1000
0010
0100
,
0001
0000
1000
0001
1000
0100
0010
0001
,
1000
0000
0001
0100
0010
1000
0001
0010
,
0100
1000
0001
0010
0001
1000
0100
0010
0001
1000
0010
1000
,
0001
0100
0010
1000
0001
0100
0010
0100
0001
1000
0010
0100
,
0001
1000
0001
0010
0100
1000
0100
1000
0001
0010
0001
0100
,
0001
1000
0010
0100
0010
1000
0010
1000
0001
0100
0001
0010
,
0001
1000
0100
0010
0100
1000
0010
0100
0001
0100
0001
1000
,
0001
0010
0100
0010
0001
1000
0100
0010
0001
0010
0001
0100
,
0001
1000
0100
0010
0100
1000
0100
1000
0001
0010
0001
0100
,
0001
1000
0010
0100
0010
1000
0010
1000
0001
0100
0001
0010
,
0001
1000
0100
1000
0001
0100
0010
0100
0001
1000
0100
1000
,
0010
0100
0001
0000
1000
0010
0100
0001
,
1000
0100
0010
0100
1000
0010
0100
0001
1000
0001
0010
0100
,
1000
0001
1000
0010
0100
0010
1000
0001
0010
0100
1000
0001
,
0100
0010
1000
0001
1000
0100
0010
0100
1000
0001
0100
0010
,
0100
0001
1000
0001
0010
0100
1000
0001
0100
0010
0100
0001
,
1000
0100
0010
0001
1000
0100
1000
0001
0100
0010
1000
0010
,
0100
0001
1000
0001
0010
0100
1000
0001
0100
0010
0100
0001
,
1000
0100
0010
0100
1000
0001
0100
0010
0100
0001
1000
0010
,
1000
0001
0100
0010
0100
0001
1000
0010
1000
0001
0010
0100
1000
0001
0100
0001
,
1000
0100
1000
0010
0100
0001
1000
0001
0010
0100
1000
0001
,
0100
0010
0100
0001
1000
0100
0010
0001
1000
0100
1000
0001
,
0100
0010
0100
0001
1000
0001
0010
0100
1000
0010
0100
0010
,
1000
0100
1000
0001
0010
0001
0100
0010
1000
0001
0010
0100
,
1000
0001
0100
0010
0100
0001
1000
0100
0010
0100
1000
0001
,
0100
0010
0100
0001
1000
0001
0010
0100
1000
0001
0100
0010
,
0100
0001
1000
0100
0010
0100
1000
0001
0100
0010
0100
0001
,
1000
0010
0100
0010
1000
0001
0100
0001
1000
0100
0010
0100
1000
0001
0010
0100
,
1000
0001
0100
0001
1000
0001
0010
0100
1000
0001
0010
0100
0010
0001
1000
0001
,
0100
0010
0100
0001
1000
0010
0100
0001
1000
0001
0010
0100
0010
0001
0010
0100
,
1000
0001
0100
0001
1000
0001
0010
0100
1000
0001
1000
0010
0100
0001
1000
0010
,
0100
0001
1000
0001
0010
0001
1000
0100
0010
0001
1000
0100
0010
0100
1000
0001
,
1000
0010
1000
0001
0100
0010
0100
0001
1000
0010
0100
0001
1000
0001
0010
0100
,
1000
0001
0010
0100
0010
0001
1000
0001
0100
0001
1000
0100
0010
0001
1000
0100
,
1000
0001
1000
0010
0100
0001
1000
0010
0100
0010
1000
0001
1000
0100
1000
0001
,
1000
0010
0100
0010
1000
0001
0100
0001
1000
0100
0010
0100
1000
0001
0010
0100
,
1000
0001
1000
0010
1000
0001
0100
0010
1000
0001
1000
0100
1000
0001
0100
0010
,
1000
0001
1000
0100
1000
0001
0100
0010
0100
0001
1000
0001
0100
0001
1000
0001
,
0010
0100
0010
0001
1000
0001
0100
0010
0100
0001
1000
0001
0010
0001
1000
0100
,
0010
0100
1000
0001
0010
0100
0010
0001
1000
0001
0100
0001
1000
0100
0010
0001
,
1000
0100
0010
0100
1000
0001
1000
0010
0100
0010
1000
0001
0100
0010
0100
0001
,
1000
0001
0010
0100
0010
0001
1000
0001
0100
0001
1000
0010
0100
0010
1000
0001
,
1000
0100
0010
0100
1000
0001
0010
0001
1000
0100
0010
0001
1000
0001
0100
0001
,
1000
0010
0100
0010
1000
0001
0100
0010
0100
0001
1000
0100
1000
0001
0010
0100
,
1000
2000
0000
0000
0010
0000
0000
0001
,
0001
0000
0001
0000
0010
0001
0000
3000
,
2001
0000
0000
0000
0010
0000
0000
0001
,
0001
0000
0001
0000
0010
0001
3000
0000
,
0440
0000
0000
0000
,
0000
0000
0000
0000
,
0000
0000
0330
0000
;

//---------------dance-single - Aoreo----------------
#NOTES:
     dance-single:
     Aoreo:
     Beginner:
     17:
     1.000,1.000,0.017,0.142,1.000,1079.000,2.000,17.000,0.000,0.000:






0000
0000
0000
0000
,
0000
0000
0000
0000
,
0000
0000
0000
0000
,
0000
0000
0000
0000
,
1000
0000
0010
1000
0001
0010
0100
1000
,
1000
0000
0100
1000
0001
0100
0010
1000
,
1000
0000
0010
0100
0001
1000
0100
0010
,
0010
0000
0001
0010
0100
1000
0001
0100
,
0100
0000
0010
1000
0001
1000
0100
0010
,
0010
0000
0001
1000
0010
1000
0001
0100
,
0100
0000
0010
1000
0001
0100
0010
1000
,
1000
0000
0001
0100
0001
0000
1000
0000
0001
0100
0001
0000
1000
0000
0100
0010
,
0001
0000
0100
0001
1000
0100
0010
0001
,
0001
0000
0010
0001
1000
0010
0100
0001
,
0001
0000
0100
0010
1000
0001
0010
0100
,
0100
0000
1000
0100
0010
0001
1000
0010
,
0010
0000
0100
0001
1000
0001
0010
0100
,
0100
0000
1000
0001
0100
0001
1000
0010
,
0010
0000
0100
0001
1000
0010
0100
0001
,
0001
0000
1000
0010
1000
0000
0001
0000
1000
0010
1000
0000
0001
0000
0010
0100
,
2000
0000
0000
0000
0000
0000
3010
0100
,
0002
0000
0000
0000
0000
0000
0000
0000
0000
0000
0000
0000
0103
0010
1000
0001
,
0200
0000
0000
0000
0000
0000
0310
1000
,
0002
0000
0000
0000
0000
0000
0000
0000
0000
0000
0000
0000
0013
0100
1000
0001
,
0020
0000
0000
0000
0000
0000
0130
1000
,
0002
0000
0000
0000
0000
0000
0000
0000
0000
0000
0000
0000
0103
0010
1000
0001
,
0200
0000
0000
0000
0000
0000
0310
1000
,
0002
0000
0000
0000
,
1003
0100
0010
0001
1000
0001
0010
0001
,
1000
0010
0100
0001
1000
0001
0100
0001
,
1000
0100
0010
0100
1000
0100
0010
0001
,
1000
0010
0100
0001
1000
0100
1000
0001
,
0100
0010
1000
0001
1000
0100
1000
0010
,
0100
0001
1000
0100
0010
0001
1000
0010
,
0100
0001
1000
0100
1000
0001
0100
0010
1000
0001
0010
0001
,
1000
0100
1000
0001
1000
0010
0100
0001
1000
0010
1000
0001
1000
0100
0010
0001
,
1000
0000
0010
1000
0001
0010
0100
1000
,
1000
0000
0100
1000
0001
0100
0010
1000
,
1000
0000
0010
0100
0001
1000
0100
0010
,
0010
0000
0001
0010
0100
1000
0001
0100
,
0100
0000
0010
1000
0001
1000
0100
0010
,
0010
0000
0001
1000
0010
1000
0001
0100
,
0100
0000
0010
1000
0001
0100
0010
1000
,
1000
0000
0001
0100
0001
0000
1000
0000
0001
0100
0001
0000
1000
0000
0100
0010
,
0001
1000
0100
0010
0100
1000
0010
1000
,
0001
1000
0100
0010
0100
1000
0010
0100
,
0001
0010
0100
0010
0001
1000
0010
0100
,
0001
0010
0100
0010
0001
0100
0010
1000
,
0100
0010
0001
0010
0100
1000
0010
1000
,
0100
1000
0010
0100
0001
1000
0100
1000
,
0001
1000
0010
0100
0001
1000
0100
1000
,
0001
0100
0001
1000
0001
0100
0010
0100
0001
1000
0001
0010
0100
1000
0001
1000
,
0001
0100
0010
0100
0001
1000
0100
0010
0001
1000
0100
1000
,
0010
0100
0010
1000
0001
0010
0100
0010
0001
1000
0010
0100
,
0010
1000
0001
0010
0100
1000
0001
1000
0100
0010
0001
1000
,
0100
1000
0001
0100
0010
0100
0001
1000
0001
0010
0100
1000
,
0001
0100
0001
1000
0001
0010
0100
1000
0010
0100
0010
1000
,
0100
1000
0010
0100
0001
0010
0100
1000
0010
0100
0001
1000
,
0100
0010
0100
1000
0001
0100
0010
0100
0001
1000
0001
0100
,
0001
0010
0100
1000
0001
0010
0100
1000
0001
1000
0010
0100
0001
1000
0010
0100
,
0002
0000
0000
0000
0000
0000
0013
0001
,
2000
0000
0000
0000
0000
0000
0000
0000
0000
0000
0000
0000
3010
0100
0001
1000
,
0020
0000
0000
0000
0000
0000
0130
0001
,
2000
0000
0000
0000
0000
0000
0000
0000
0000
0000
0000
0000
3100
0010
0001
1000
,
0200
0000
0000
0000
0000
0000
0310
0001
,
2000
0000
0000
0000
0000
0000
0000
0000
0000
0000
0000
0000
3010
0100
0001
1000
,
0020
0000
0000
0000
0000
0000
0130
0001
,
1000
0000
0001
0010
0001
0000
1000
0000
0001
0010
0001
0000
1000
0000
0010
0100
,
0001
0100
0010
1000
0001
1000
0010
1000
,
0001
0010
0100
1000
0001
1000
0100
1000
,
0001
0100
0010
0100
0001
0100
0010
1000
,
0001
0000
0010
0000
0100
0000
1000
0000
0001
0000
0100
0000
0001
1000
0010
0100
,
0001
0000
1000
0001
1000
0100
0010
0001
,
1000
0000
0001
0100
0010
1000
0001
0010
,
0100
1000
0001
0010
0001
1000
0100
0010
0001
1000
0010
1000
,
0001
0100
0010
1000
0001
0100
0010
0100
0001
1000
0010
0100
,
0001
1000
0001
0010
0100
1000
0100
1000
0001
0010
0001
0100
,
0001
1000
0010
0100
0010
1000
0010
1000
0001
0100
0001
0010
,
0001
1000
0100
0010
0100
1000
0010
0100
0001
0100
0001
1000
,
0001
0010
0100
0010
0001
1000
0100
0010
0001
0010
0001
0100
,
0001
1000
0100
0010
0100
1000
0100
1000
0001
0010
0001
0100
,
0001
1000
0010
0100
0010
1000
0010
1000
0001
0100
0001
0010
,
0001
1000
0100
1000
0001
0100
0010
0100
0001
1000
0100
1000
,
0010
0100
0001
0000
1000
0010
0100
0001
,
1000
0100
0010
0100
1000
0010
0100
0001
1000
0001
0010
0100
,
1000
0001
1000
0010
0100
0010
1000
0001
0010
0100
1000
0001
,
0100
0010
1000
0001
1000
0100
0010
0100
1000
0001
0100
0010
,
0100
0001
1000
0001
0010
0100
1000
0001
0100
0010
0100
0001
,
1000
0100
0010
0001
1000
0100
1000
0001
0100
0010
1000
0010
,
0100
0001
1000
0001
0010
0100
1000
0001
0100
0010
0100
0001
,
1000
0100
0010
0100
1000
0001
0100
0010
0100
0001
1000
0010
,
4000
0004
0000
0000
0000
0000
0000
0000
0000
0000
3000
0003
,
1000
0100
1000
0010
0100
0001
1000
0001
0010
0100
1000
0001
,
0100
0010
0100
0001
1000
0100
0010
0001
1000
0100
1000
0001
,
0100
0010
0100
0001
1000
0001
0010
0100
1000
0010
0100
0010
,
1000
0100
1000
0001
0010
0001
0100
0010
1000
0001
0010
0100
,
1000
0001
0100
0010
0100
0001
1000
0100
0010
0100
1000
0001
,
0100
0010
0100
0001
1000
0001
0010
0100
1000
0001
0100
0010
,
0100
0001
1000
0100
0010
0100
1000
0001
0100
0010
0100
0001
,
4000
0004
0000
0000
0000
0000
0000
0000
0000
0000
3000
0003
,
1000
0001
0100
0001
1000
0001
0010
0100
1000
0001
0010
0100
0010
0001
1000
0001
,
0100
0010
0100
0001
1000
0010
0100
0001
1000
0001
0010
0100
0010
0001
0010
0100
,
1000
0001
0100
0001
1000
0001
0010
0100
1000
0001
1000
0010
0100
0001
1000
0010
,
0100
0001
1000
0001
0010
0001
1000
0100
0010
0001
1000
0100
0010
0100
1000
0001
,
1000
0010
1000
0001
0100
0010
0100
0001
1000
0010
0100
0001
1000
0001
0010
0100
,
1000
0001
0010
0100
0010
0001
1000
0001
0100
0001
1000
0100
0010
0001
1000
0100
,
1000
0001
1000
0010
0100
0001
1000
0010
0100
0010
1000
0001
1000
0100
1000
0004
,
4000
0000
0000
0000
0000
0000
0003
3000
,
0001
1000
0001
0010
0001
1000
0100
0010
0001
1000
0001
0100
0001
1000
0100
0010
,
0001
1000
0001
0100
0001
1000
0100
0010
0100
1000
0001
1000
0100
1000
0001
1000
,
0010
0100
0010
1000
0001
1000
0100
0010
0100
1000
0001
1000
0010
1000
0001
0100
,
0010
0100
0001
1000
0010
0100
0010
1000
0001
1000
0100
1000
0001
0100
0010
1000
,
0001
0100
0010
0100
0001
1000
0001
0010
0100
0010
0001
1000
0100
0010
0100
1000
,
0001
1000
0010
0100
0010
1000
0001
1000
0100
1000
0001
0010
0100
0010
0001
1000
,
0001
0100
0010
0100
0001
1000
0010
1000
0001
0100
0010
1000
0001
1000
0100
1000
,
0001
0010
0100
0010
0001
1000
0100
0010
0100
1000
0001
0100
0001
1000
0010
0100
,
0001
0002
0000
0000
0010
0000
0000
1000
,
1000
0000
1000
0000
0010
1000
0003
0000
,
2001
0000
0000
0000
0010
0000
0000
0001
,
0001
0000
0001
0000
0010
0001
3000
0000
,
0440
0000
0000
0000
,
0000
0000
0000
0000
,
0000
0000
0330
0000
;
