#TITLE:NaiNai 69;
#SUBTITLE:;
#ARTIST:Jea;
#TITLETRANSLIT:;
#SUBTITLETRANSLIT:;
#ARTISTTRANSLIT:;
#CREDIT:;
#BANNER:nainai 69 bn.png;
#BACKGROUND:nainai 69 bg.png;
#LYRICSPATH:;
#CDTITLE:;
#MUSIC:NaiNai 69.ogg;
#OFFSET:0.009;
#SAMPLESTART:16.248;
#SAMPLELENGTH:14.442;
#SELECTABLE:YES;
#BPMS:0.000=265.876;
#STOPS:;
#BGCHANGES:;
// cache tags:
#FIRSTBEAT:32.000;
#LASTBEAT:594.000;
#SONGFILENAME:Songs/SHARPNELSTREAMZ v2/NaiNai 69/NaiNai 69.sm;
#HASMUSIC:1;
#HASBANNER:1;
#MUSICLENGTH:134.724;
// end cache tags

//---------------dance-single - 13 (Aoreo)----------------
#NOTES:
     dance-single:
     13 (Aoreo):
     Challenge:
     13:
     1.000,1.000,0.282,0.134,0.260,1050.000,38.000,18.000,0.000,0.000:
0000
0000
0000
0000
,
0000
0000
0000
0000
,
0000
0000
0000
0000
,
0000
0000
0000
0000
,
0000
0000
0000
0000
,
0000
0000
0000
0000
,
0000
0000
0000
0000
,
0000
0000
0000
0000
,
1000
0100
1000
0001
0010
0100
1000
0010
,
0100
0000
0001
0000
0100
0000
0010
0000
1000
0000
0100
0000
0010
0001
1000
0001
,
0100
0001
0010
0100
1000
0001
0100
0010
,
0100
0000
0001
0000
1000
0000
0100
0000
0010
0000
0001
0000
1000
0100
1000
0001
,
0100
0010
0100
0001
1000
0100
0010
0001
,
1000
0000
0010
0000
0100
0000
0010
0000
1000
0000
0001
0000
0100
0001
1000
0001
,
0010
0100
1000
0010
0100
0010
1000
0100
,
0010
0000
0001
0000
1000
0000
0100
0000
1000
0000
0010
0000
0100
0001
1000
0100
,
1000
0100
0010
0100
1000
0010
0100
0001
,
0000
1000
0001
1000
0001
0000
0200
0000
,
0301
0010
0001
1000
0100
0010
0100
1000
,
0001
0100
0010
0100
0001
1000
0001
0010
,
0100
1000
0001
0100
0010
0100
0001
1000
,
0100
0010
0001
1000
0100
1000
0010
0100
,
0001
0010
0100
1000
0001
0100
0010
0100
,
0001
1000
0100
0010
0100
1000
0001
0100
,
0010
0100
0001
1000
0100
0010
0001
1000
,
0001
0001
0001
0000
,
1000
0100
0010
0100
1000
0001
0100
0010
,
0100
0001
0010
0100
1000
0001
0100
0010
,
0100
0001
1000
0100
1000
0010
0100
0001
,
0010
0100
1000
0001
0100
0010
0100
0001
,
1000
0100
1000
0001
0100
0010
0100
0001
,
1000
0001
0010
0100
1000
0001
0100
0010
,
0100
0001
1000
0100
0010
0001
0100
0010
,
1000
0000
1000
0000
0001
0100
0000
0000
,
0001
0100
0010
0100
0001
1000
0100
1000
,
0010
0100
0001
1000
0001
0010
0100
1000
,
0001
0100
0010
0100
0001
1000
0100
0010
,
0001
1000
0100
1000
0010
0100
0001
1000
,
0001
0010
0001
0100
0010
1000
0100
0010
,
0100
1000
0001
0100
0010
0100
0001
1000
,
0100
0010
0001
1000
0010
0000
0000
1000
,
0000
0000
0100
0000
0000
0000
1000
0000
0001
0000
0000
0000
1000
0100
1000
0001
,
0100
0010
0100
0001
0010
0100
1000
0001
,
1000
0010
0100
0010
1000
0100
0010
0001
,
1000
0010
0100
0010
1000
0100
0010
0100
,
1000
0001
0010
0001
0100
0010
1000
0001
,
1000
0100
0010
0100
1000
0001
0100
0001
,
1000
0100
1000
0010
0100
0001
0010
0100
,
1000
0000
0001
0000
1000
0010
0000
0000
,
1000
0000
0000
0000
1000
0000
0000
0000
1000
0000
0000
0000
0001
0010
0100
1000
,
0010
0100
0001
1000
0100
1000
0001
0100
,
0001
0000
1000
0000
0100
0000
0010
0000
0001
0000
1000
0000
0001
0010
0100
1000
,
0001
0100
0010
0100
0001
1000
0001
0010
,
0100
0000
1000
0000
0001
0000
0100
0000
0010
0000
0100
0000
0001
1000
0001
0100
,
0010
0100
0001
1000
0001
0010
0100
1000
,
0010
0000
0100
0000
0001
0000
1000
0000
0100
0000
1000
0000
0001
0010
0100
1000
,
0001
0100
0010
0100
0001
1000
0100
1000
,
0001
0000
0100
0000
0001
0000
0100
0000
0001
0000
0100
0000
0010
1000
0001
0010
,
0100
1000
0010
0100
0010
1000
0100
0010
,
0001
0000
1000
0000
0001
0000
0100
0000
0010
0000
0100
0000
0001
1000
0100
0010
,
0100
0010
0001
1000
0010
0100
0001
1000
,
0001
0000
0010
0000
0100
0000
1000
0000
0010
0000
0100
0000
0001
1000
0001
0010
,
0100
1000
0001
0100
0010
0100
0001
1000
,
0100
0000
0010
0000
0001
0000
1000
0000
0100
0000
1000
0000
0001
0100
0001
1000
,
0100
1000
0100
1000
0100
1000
0100
1000
,
0001
0000
0010
0000
0100
0000
1000
0000
0001
0100
0010
1000
0100
1000
0010
0100
,
0001
0000
0100
0001
0000
0100
0000
0001
,
1000
0000
0000
0000
0100
0000
1000
0000
0000
0000
0001
0000
1000
0100
0010
0000
,
0100
0000
1000
0010
0000
0100
0000
0001
,
1000
0000
0000
0000
0100
0000
1000
0000
0000
0000
0001
0000
0010
0100
1000
0000
,
0001
0000
0100
0010
0000
0100
0000
0001
,
1000
0000
0000
0000
0100
0000
1000
0000
0000
0000
0001
0000
1000
0100
1000
0000
,
0002
0000
0000
0003
0000
0000
0000
0000
0000
0000
0000
0000
0000
0000
0000
0000
0000
0000
0000
0000
0000
0000
0000
0000
0000
0000
0000
0000
0000
0000
0000
0000
0000
0000
0000
0000
0000
0000
0000
0000
0000
0000
0000
0000
0000
0000
0000
0000
0002
0000
0000
0000
0003
0000
0000
0000
0000
0000
0000
0000
0000
0000
0000
0000
0000
0000
0000
0000
0000
0000
0000
0000
0000
0000
0000
0000
0000
0000
0000
0000
0000
0000
0000
0000
0000
0000
0000
0000
0000
0000
0000
0000
0000
0000
0000
0000
0002
0000
0000
0000
0000
0000
0003
0000
0000
0000
0000
0000
0000
0000
0000
0000
0000
0000
0000
0000
0000
0000
0000
0000
0000
0000
0000
0000
0000
0000
0000
0000
0000
0000
0000
0000
0000
0000
0000
0000
0000
0000
0000
0000
0000
0000
0000
0000
0002
0000
0000
0000
0000
0000
0000
0000
0003
0000
0000
0000
0000
0000
0000
0000
0000
0000
0000
0000
0000
0000
0000
0000
0000
0000
0000
0000
0000
0000
0000
0000
0000
0000
0000
0000
0000
0000
0000
0000
0000
0000
0000
0000
0000
0000
0000
0000
,
0002
0000
0000
0003
0000
0000
0000
0000
0000
0000
0000
0000
0002
0000
0000
0000
0003
0000
0000
0000
0000
0000
0000
0000
0002
0000
0000
0000
0000
0000
0003
0000
0000
0000
0000
0000
1000
0000
0000
0100
0000
0000
1000
0000
0000
0010
0000
0000
,
0100
0001
0010
0100
1000
0001
0100
0010
,
0100
0001
1000
0100
0010
0001
1000
0100
,
1000
0001
0010
0100
1000
0001
0100
0010
,
0100
0001
1000
0100
0010
0100
1000
0001
,
0100
0010
0100
0001
1000
0001
0010
0100
,
1000
0001
0100
0001
1000
0100
1000
0001
,
0100
0001
1000
0001
,
1000
0000
0001
0100
0010
0100
0010
0100
,
0001
0010
0100
1000
0001
0100
0010
0100
,
0001
1000
0010
0100
0010
1000
0100
0010
,
0100
1000
0001
0100
0010
0100
0001
1000
,
0001
0010
0100
1000
0001
0100
0010
0100
,
0001
1000
0100
0010
0100
1000
0001
0100
,
0010
0100
0001
1000
0001
0010
0100
1000
,
0001
1000
0010
0100
,
0001
0000
0010
0000
0110
0000
0100
1000
,
0001
0100
0010
0100
0001
1000
0100
0010
,
0100
1000
0001
0100
0010
0100
0001
1000
,
0001
0010
0100
1000
0001
0100
0010
0100
,
0001
1000
0100
0010
0001
1000
0100
1000
,
0001
0100
0010
0100
0001
1000
0001
0010
,
0100
1000
0001
0100
0010
0100
0001
1000
,
0100
0010
0001
1000
0100
1000
0001
0100
,
0001
0000
1000
0000
0010
0000
0100
0000
0001
0000
0000
1000
0000
0000
0001
0000
,
0100
0010
0100
0001
0010
0100
1000
0001
,
0100
0010
0100
0001
1000
0100
0010
0100
,
1000
0001
0100
0010
0100
0001
1000
0001
,
0010
0100
1000
0001
0100
0001
1000
0100
,
0010
0001
1000
0010
0100
0010
1000
0001
,
0010
0100
0010
0001
1000
0001
0100
0010
,
1000
0010
0100
0010
1000
0001
0100
0001
1000
0100
1000
0001
0010
0100
1000
0001
,
1000
0000
0000
0000
0000
0000
0000
0000
0000
0000
0000
0000
0002
0000
0000
0003
,
2002
3003
1000
0010
0100
0000
0001
0010
,
0000
0000
0100
0000
0000
0000
1000
0000
0001
0000
0000
0000
2000
0000
0000
3000
,
2020
3030
0010
0100
0001
0010
0100
1000
,
0000
0000
0001
0000
0000
0000
0100
0000
0010
0000
0000
0000
0200
0000
0000
0300
,
0202
0303
0001
1000
0100
0000
1000
0100
,
0000
1000
0000
0001
0100
0000
0110
0000
,
0010
1000
0001
0100
0001
0010
0100
1000
,
0001
0100
0010
0100
0001
1000
0100
0010
,
0001
1000
0100
1000
0001
0100
0010
0100
,
0001
1000
0001
1000
0001
1000
0100
0010
,
0001
1000
0100
1000
0001
0100
0010
0100
,
0001
0000
1000
0000
0001
0000
0010
0000
0100
0000
1000
0000
0001
0100
0010
1000
,
0010
0100
0001
0010
0100
1000
0001
0100
,
0010
0000
0100
0000
0001
0000
1000
0000
0100
0000
0010
0000
0001
1000
0100
1000
,
0001
0100
0010
0100
0001
1000
0100
0010
,
0001
0000
1000
0000
0100
0000
1000
0000
0010
0000
0100
0000
0001
1000
0100
0010
,
0001
0100
0001
0010
0100
0010
0001
0100
,
0010
0000
1000
0000
0001
0000
1000
0000
0001
0000
1000
0000
0010
0100
0010
1000
,
0001
0100
0001
0010
0100
1000
0001
0100
,
0010
0000
0100
0000
0001
0000
1000
0000
0100
0000
0010
0000
0001
1000
0001
0100
,
0001
0100
0010
1000
0100
0010
0100
1000
,
0001
0000
0100
0000
0010
0000
0100
0000
0001
0000
1000
0000
0010
0100
0001
1000
,
0001
1000
0100
0010
0100
1000
0010
0100
,
0001
0000
1000
0000
0001
0000
0100
0000
0010
0000
1000
0000
0100
0010
0001
1000
,
0001
0000
0000
0000
,
1001
0000
0000
0000
0000
0000
0000
0000
1000
0100
1000
0010
0100
0001
0010
0001
,
0100
0000
0001
0101
0000
0000
0110
0000
,
1010
0000
0000
0000
1000
0000
1100
0000
0000
0000
0100
0000
1000
0001
1000
0000
,
0001
0000
0100
0101
0000
0000
1001
0000
,
1100
0000
0000
0000
0100
0000
1100
0000
0000
0000
1000
0000
0001
0100
0010
0000
,
0100
0000
0001
1001
0000
0000
1010
0000
,
0110
0000
0000
0000
0100
0000
0101
0000
0000
0000
0001
0000
1000
0100
0010
0000
,
0100
0000
1000
1100
0000
0000
1001
0000
,
0101
0000
0000
0000
0100
0000
0110
0000
0000
0000
0010
0000
1000
0001
0100
0000
,
0010
0000
1000
1010
0000
0000
0110
0000
,
0101
0000
0000
0000
0001
0000
1001
0000
0000
0000
1000
0000
0100
0010
0001
0000
,
1000
0000
0010
0110
0000
0000
0101
0000
,
1001
0000
0000
0000
1000
0000
1010
0000
0000
0000
0010
0000
1000
0001
0010
0000
,
0100
0000
1000
1001
0000
0000
0101
0000
,
0110
0000
0000
0000
0010
0000
1010
0000
0000
0000
1000
0000
0001
0010
0100
0000
,
1000
0000
0100
1100
0000
0000
1001
0000
,
0101
0000
0000
0000
0100
0000
0110
0000
0000
0000
0010
0000
1000
0001
0100
0000
,
0002
0000
0003
0000
;

//---------------dance-single - 11 (TYLoreo)----------------
#NOTES:
     dance-single:
     11 (TYLoreo):
     Hard:
     11:
     1.000,1.000,0.520,0.193,0.071,912.000,70.000,26.000,0.000,0.000:
0000
0000
0000
0000
,
0000
0000
0000
0000
,
0000
0000
0000
0000
,
0000
0000
0000
0000
,
0000
0000
0000
0000
,
0000
0000
0000
0000
,
0000
0000
0000
0000
,
0000
0000
0000
0000
,
1000
0100
1000
0001
0010
0100
1000
0010
,
0100
0001
0100
0010
1000
0100
0040
0000
,
0031
0001
0010
0100
1000
0001
0100
0010
,
0100
0001
1000
0100
0010
0001
4000
0000
,
3010
0010
0100
0001
1000
0100
0010
0001
,
1000
0010
0100
0010
1000
0001
0400
0000
,
0301
0001
1000
0010
0100
0010
1000
0100
,
0010
0001
1000
0100
1000
0010
0400
0300
,
0101
0001
0100
0010
1000
0010
0100
0001
,
0000
1000
0001
1000
0001
0000
0200
0000
,
0301
0010
0001
1000
0100
0010
0100
1000
,
0001
0100
0010
0100
0001
1000
0001
0010
,
0100
1000
0001
0100
0010
0100
0001
1000
,
0100
0010
0001
1000
0100
1000
0010
0100
,
0001
0010
0100
1000
0001
0100
0010
0100
,
0001
1000
0100
0010
0100
1000
0001
0100
,
0010
0100
0001
1000
0100
0010
0001
1000
,
0001
0001
0001
0000
,
1000
0100
0010
0100
1000
0001
0100
0010
,
0100
0001
0010
0100
1000
0001
0100
0010
,
0100
0001
1000
0100
1000
0010
0100
0001
,
0010
0100
1000
0001
0100
0010
0100
0001
,
1000
0100
1000
0001
0100
0010
0100
0001
,
1000
0001
0010
0100
1000
0001
0100
0010
,
0100
0001
1000
0100
0010
0001
0100
0010
,
1000
0000
1000
0000
0001
0100
0000
0000
,
0001
0100
0010
0100
0001
1000
0100
1000
,
0010
0100
0001
1000
0001
0010
0100
1000
,
0001
0100
0010
0100
0001
1000
0100
0010
,
0001
1000
0100
1000
0010
0100
0001
1000
,
0001
0010
0001
0100
0010
1000
0100
0010
,
0100
1000
0001
0100
0010
0100
0001
1000
,
0100
0010
0001
1000
0010
0000
0000
1000
,
0000
0100
0000
1000
0001
0000
4000
0000
,
3001
1000
0010
1000
0100
0010
0001
1000
,
0001
0100
0010
0100
0001
0010
0100
1000
,
0001
0100
0010
0100
0001
0010
0100
0010
,
0001
1000
0100
1000
0010
0100
0001
1000
,
0001
0010
0100
0010
0001
1000
0010
1000
,
0001
0010
0001
0100
0010
1000
0100
0010
,
0001
0000
1000
0000
0001
0100
0000
0000
,
0001
0001
0001
4000
,
3010
0100
0001
1000
0100
1000
0001
0100
,
0001
1000
0100
0010
0001
1000
0040
0000
,
1030
0100
0010
0100
1000
0001
1000
0010
,
0100
0001
1000
0100
0010
0100
4000
0000
,
3010
0100
0010
1000
0001
0010
0100
1000
,
0010
0100
0001
1000
0100
1000
0004
0000
,
0013
0100
0010
0001
1000
0001
0100
0001
,
1000
0100
1000
0100
1000
0100
0040
0000
,
0031
1000
0001
0100
0001
1000
0100
0010
,
0001
1000
0001
0100
0010
0100
0004
0000
,
0013
0100
1000
0001
0100
0010
1000
0001
,
1000
0100
0010
0001
0100
0010
4000
0000
,
3100
1000
0001
0100
0010
0100
0001
1000
,
0100
0010
0001
1000
0100
1000
0004
0000
,
0013
0100
1000
0001
,
1001
0000
0000
0000
0001
0000
0000
0000
4000
0040
0000
0000
0000
0000
0000
3000
,
0130
0000
0001
0100
0000
0001
0000
0001
,
1000
0000
0100
1000
0000
0001
1000
0100
,
0010
0000
0001
0010
0000
0100
0000
1000
,
0001
0000
0100
0001
0000
0100
0010
1000
,
0100
0000
1000
0100
0000
0010
0000
0001
,
1000
0000
0001
1000
0000
0010
0100
0001
,
2000
0000
0000
3000
0000
0000
0000
0000
0000
0000
0000
0000
0000
0000
0000
0000
0000
0000
0000
0000
0000
0000
0000
0000
0000
0000
0000
0000
0000
0000
0000
0000
0000
0000
0000
0000
0000
0000
0000
0000
0000
0000
0000
0000
0000
0000
0000
0000
2000
0000
0000
0000
3000
0000
0000
0000
0000
0000
0000
0000
0000
0000
0000
0000
0000
0000
0000
0000
0000
0000
0000
0000
0000
0000
0000
0000
0000
0000
0000
0000
0000
0000
0000
0000
0000
0000
0000
0000
0000
0000
0000
0000
0000
0000
0000
0000
2000
0000
0000
0000
0000
0000
3000
0000
0000
0000
0000
0000
0000
0000
0000
0000
0000
0000
0000
0000
0000
0000
0000
0000
0000
0000
0000
0000
0000
0000
0000
0000
0000
0000
0000
0000
0000
0000
0000
0000
0000
0000
0000
0000
0000
0000
0000
0000
2000
0000
0000
0000
0000
0000
0000
0000
3000
0000
0000
0000
0000
0000
0000
0000
0000
0000
0000
0000
0000
0000
0000
0000
0000
0000
0000
0000
0000
0000
0000
0000
0000
0000
0000
0000
0000
0000
0000
0000
0000
0000
0000
0000
0000
0000
0000
0000
,
2000
0000
0000
3000
0000
0000
0000
0000
0000
0000
0000
0000
2000
0000
0000
0000
3000
0000
0000
0000
0000
0000
0000
0000
2000
0000
0000
0000
0000
0000
3000
0000
0000
0000
0000
0000
0040
0000
0000
0000
0000
0000
0000
0000
0000
0000
0000
0000
,
1030
0001
0010
0100
1000
0001
0100
0010
,
0100
0001
1000
0100
0010
0001
1000
0100
,
1000
0001
0010
0100
1000
0001
0100
0010
,
0100
0001
1000
0100
0010
0100
1000
0001
,
0100
0010
0100
0001
1000
0001
0010
0100
,
1000
0001
0100
0001
1000
0100
1000
0001
,
0100
0001
1000
0001
,
1000
0000
0001
0100
0010
0100
0010
0100
,
0001
0010
0100
1000
0001
0100
0010
0100
,
0001
1000
0010
0100
0010
1000
0100
0010
,
0100
1000
0001
0100
0010
0100
0001
1000
,
0001
0010
0100
1000
0001
0100
0010
0100
,
0001
1000
0100
0010
0100
1000
0001
0100
,
0010
0100
0001
1000
0001
0010
0100
1000
,
0001
1000
0010
0100
,
0001
0000
0010
0000
0110
0000
0100
1000
,
0001
0100
0010
0100
0001
1000
0100
0010
,
0100
1000
0001
0100
0010
0100
0001
1000
,
0001
0010
0100
1000
0001
0100
0010
0100
,
0001
1000
0100
0010
0001
1000
0100
1000
,
0001
0100
0010
0100
0001
1000
0001
0010
,
0100
1000
0001
0100
0010
0100
0001
1000
,
0100
0010
0001
1000
0100
1000
0001
0100
,
0001
0000
1000
0000
0010
0000
0100
0000
0001
0000
0000
1000
0000
0000
0001
0000
,
0100
0010
0100
0001
0010
0100
1000
0001
,
0100
0010
0100
0001
1000
0100
0010
0100
,
1000
0001
0100
0010
0100
0001
1000
0001
,
0010
0100
1000
0001
0100
0001
1000
0100
,
0010
0001
1000
0010
0100
0010
1000
0001
,
0010
0100
0010
0001
1000
0001
0100
0010
,
1000
0010
0100
0001
1000
0001
0010
0100
1000
0001
1000
0010
,
0100
0000
0000
0000
0000
0000
0000
0000
0000
0000
0000
0000
0002
0000
0000
0003
,
2002
3003
1000
0010
0100
0000
0001
0010
,
0000
0000
0100
0000
0000
0000
1000
0000
0001
0000
0000
0000
2000
0000
0000
3000
,
2020
3030
0010
0100
0001
0010
0100
1000
,
0000
0000
0001
0000
0000
0000
0100
0000
0010
0000
0000
0000
0200
0000
0000
0300
,
0202
0303
0001
1000
0100
0000
1000
0100
,
0000
1000
0000
0001
0100
0000
0110
0000
,
2020
3030
2200
3300
,
0022
0000
0033
0000
2002
0003
3001
0000
,
0101
1010
1100
0011
,
0001
1000
0001
1000
0001
1000
0100
0010
,
0001
1000
0100
1000
0001
0100
0010
0100
,
0001
1000
0001
0010
0100
1000
0004
0000
,
0103
0010
1000
0010
0100
0001
1000
0100
,
0010
0100
1000
0001
0100
0010
4000
0000
,
3100
0010
0001
0010
0100
1000
0001
0100
,
0001
1000
0100
1000
0010
0100
0004
0000
,
1003
0100
0010
0001
0100
0001
0010
0100
,
1000
0001
1000
0001
1000
0001
4000
0000
,
3010
0100
0001
0100
0010
1000
0001
1000
,
0100
1000
0001
1000
0010
0100
0004
0000
,
0013
0100
0010
0001
0100
0010
0100
0001
,
1000
0100
0010
0100
1000
0001
0400
0000
,
0310
1000
0010
0100
0010
1000
0001
0010
,
0100
0010
0001
1000
0010
0100
0004
0000
,
1003
0000
0000
0000
,
1001
0000
0000
0000
0000
0000
0000
0000
4000
0040
0000
0000
0000
0000
0000
3000
,
0130
0000
0000
0101
0000
0000
0110
0000
,
1010
0000
0000
0000
1000
0000
1001
0000
0000
0000
0001
0000
1000
0100
1000
0000
,
0001
0000
0000
0011
0000
0000
1001
0000
,
1010
0000
0000
0000
0100
0000
0101
0000
0000
0000
0001
0000
1000
0010
1000
0000
,
0001
0000
0000
0011
0000
0000
0110
0000
,
1100
0000
0000
0000
1000
0000
1001
0000
0000
0000
0001
0000
0100
0001
0100
0000
,
0010
0000
0000
1010
0000
0000
1001
0000
,
1100
0000
0000
0000
0001
0000
0011
0000
0000
0000
0000
0000
1000
0001
1000
0000
,
0010
0000
0000
1010
0000
0000
0110
0000
,
0101
0000
0000
0000
0001
0000
1001
0000
0000
0000
1000
0000
0001
0010
0001
0000
,
1000
0000
0000
1100
0000
0000
1001
0000
,
0101
0000
0000
0000
0010
0000
1010
0000
0000
0000
1000
0000
0001
0100
0001
0000
,
1000
0000
0000
1100
0000
0000
0110
0000
,
0011
0000
0000
0000
0001
0000
1001
0000
0000
0000
1000
0000
0010
1000
0010
0000
,
0100
0000
0000
0101
0000
0000
1001
0000
,
0011
0000
0000
0000
1000
0000
1100
0000
0000
0000
0000
0000
0001
1000
0001
0000
,
2000
0000
3000
0000
;
