#TITLE:REALiTY;
#SUBTITLE:;
#ARTIST:capsule;
#TITLETRANSLIT:;
#SUBTITLETRANSLIT:;
#ARTISTTRANSLIT:;
#CREDIT:;
#BANNER:REALiTY.png;
#BACKGROUND:REALiTY-bg.png;
#LYRICSPATH:;
#CDTITLE:;
#MUSIC:REALiTY.mp3;
#OFFSET:-3.300;
#SAMPLESTART:83.050;
#SAMPLELENGTH:11.500;
#SELECTABLE:YES;
#BPMS:0.000=132.010;
#STOPS:;
#BGCHANGES:;
// cache tags:
#FIRSTBEAT:0.000;
#LASTBEAT:207.500;
#SONGFILENAME:Songs/juju step2/capsule - REALiTY/REALiTY.sm;
#HASMUSIC:1;
#HASBANNER:1;
#MUSICLENGTH:97.854;
// end cache tags

//---------------dance-single - ----------------
#NOTES:
     dance-single:
     :
     Easy:
     4:
     0.308,0.264,0.031,0.000,0.000,208.000,3.000,0.000,0.000,0.000:  // measure 1
1000
0100
0001
0100
,  // measure 2
1000
0100
0001
0100
,  // measure 3
0001
0100
1000
0100
,  // measure 4
0001
0100
1000
0001
,  // measure 5
0100
1000
0100
0001
,  // measure 6
0010
0001
1000
0001
,  // measure 7
0100
0001
1000
0100
,  // measure 8
1000
0001
0100
0010
,  // measure 9
1000
0001
0010
0001
,  // measure 10
0100
0001
1000
0100
,  // measure 11
0001
0100
0001
0010
,  // measure 12
0001
1000
0010
1000
,  // measure 13
0100
0010
0001
1000
,  // measure 14
0010
0100
1000
0100
,  // measure 15
0010
0001
0100
0001
,  // measure 16
0010
0100
1000
0010
,  // measure 17
1001
0001
0100
1000
,  // measure 18
0100
0001
0100
1000
,  // measure 19
0100
0001
0100
0010
,  // measure 20
0100
0010
0100
0001
,  // measure 21
0100
1000
0100
0001
,  // measure 22
0100
1000
0100
0010
,  // measure 23
0100
1000
0001
0100
,  // measure 24
0001
0010
0100
1001
,  // measure 25
1000
0100
1000
0001
,  // measure 26
0010
0100
0010
0001
,  // measure 27
1000
0010
0100
0001
,  // measure 28
1000
0100
0010
0001
,  // measure 29
1000
0010
0100
1000
,  // measure 30
0001
0100
1000
0100
,  // measure 31
0001
0010
0100
0001
,  // measure 32
1000
0100
0010
0001
,  // measure 33
1000
0100
0001
0100
,  // measure 34
1000
0001
1000
0010
,  // measure 35
0100
0001
0010
0001
,  // measure 36
1000
0100
1000
0001
,  // measure 37
0010
1000
0100
0001
,  // measure 38
0100
1000
0100
0001
,  // measure 39
0100
1000
0100
0001
,  // measure 40
0100
1000
0100
1000
,  // measure 41
0001
0100
1000
0100
,  // measure 42
0001
0100
0010
0010
,  // measure 43
0100
1000
0100
0001
,  // measure 44
0100
0010
1000
1000
,  // measure 45
1001
0100
1000
0100
,  // measure 46
1000
0001
0100
0001
,  // measure 47
1000
0100
0010
0001
,  // measure 48
0100
0001
1000
0100
,  // measure 49
0010
0100
1000
0100
,  // measure 50
0001
0100
0001
1000
,  // measure 51
0100
1000
0010
0001
,  // measure 52
0010
0100
1000
0001
;

//---------------dance-single - ----------------
#NOTES:
     dance-single:
     :
     Medium:
     5:
     0.365,0.291,0.010,0.000,0.000,249.000,1.000,0.000,0.000,0.000:  // measure 1
0010
0000
0100
0000
1000
0000
0100
1000
,  // measure 2
0100
0000
0100
0000
0001
0000
0100
0001
,  // measure 3
0100
0000
0001
0000
0010
0000
0100
0010
,  // measure 4
0001
0000
0100
0000
0001
0000
1000
0100
,  // measure 5
1000
0000
0010
0000
1000
0000
0010
1000
,  // measure 6
0100
0000
1000
0000
0100
0000
0001
0100
,  // measure 7
0001
0000
0010
0000
0100
0000
0001
0100
,  // measure 8
0001
0000
0010
0000
0001
0000
0010
0100
,  // measure 9
0010
0000
0100
0000
1000
0000
0001
1000
,  // measure 10
0001
0000
0010
0000
0100
0000
1000
0100
,  // measure 11
0010
0000
0100
0000
0001
0000
0010
0001
,  // measure 12
0010
0000
1000
0000
0100
0000
1000
0001
,  // measure 13
0100
0000
0010
0000
1000
0000
0001
0010
,  // measure 14
0001
0000
0100
0000
1000
0000
0010
0100
,  // measure 15
0010
0000
1000
0000
0001
0000
0010
0001
,  // measure 16
0100
0000
1000
0000
0001
0000
0010
0100
,  // measure 17
1000
0001
0100
0001
,  // measure 18
1000
0100
1000
0001
,  // measure 19
0100
0001
0100
0010
,  // measure 20
0100
0000
0010
0000
0100
0001
1000
0000
,  // measure 21
0100
1000
0100
0001
,  // measure 22
0100
0010
0001
1000
,  // measure 23
0100
0000
1000
0000
0001
0100
0001
0000
,  // measure 24
1000
0010
0100
0110
,  // measure 25
0001
0010
0100
1000
,  // measure 26
0001
0100
1000
0100
,  // measure 27
1000
0000
0010
0000
0100
0001
1000
0000
,  // measure 28
0010
0000
0100
0000
0010
1000
0001
0000
,  // measure 29
1000
0000
0010
0000
0100
0001
1000
0000
,  // measure 30
0001
0000
0100
0000
1000
0100
1000
0000
,  // measure 31
0001
0000
0010
0000
1000
0001
0100
0000
,  // measure 32
1000
0000
0100
0000
0010
0001
0010
0000
,  // measure 33
1000
0000
0100
0000
0001
1000
0100
0000
,  // measure 34
1000
0001
1000
0010
,  // measure 35
0100
0000
0001
0000
0010
0001
0010
0000
,  // measure 36
1000
0100
1000
0001
,  // measure 37
0010
0000
0001
0000
0100
0000
1000
0100
,  // measure 38
1000
0000
0010
0000
0100
0000
0010
1000
,  // measure 39
0001
0000
1000
0000
0100
0000
0001
0100
,  // measure 40
0001
0000
1000
0000
0100
0000
1000
0010
,  // measure 41
0100
0000
0001
0000
1000
0000
0100
1000
,  // measure 42
0100
0000
0001
0000
0010
0000
0001
0100
,  // measure 43
0010
0000
1000
0000
0100
0000
1000
0010
,  // measure 44
1000
0000
0100
0000
1000
0000
0001
0100
,  // measure 45
0010
0000
1000
0000
0001
0000
1000
0001
,  // measure 46
0100
0000
0010
0000
0001
0000
0010
0001
,  // measure 47
1000
0000
0100
0000
0010
0000
0001
0100
,  // measure 48
0001
0000
1000
0000
0010
0000
1000
0100
,  // measure 49
1000
0000
0100
0000
0010
0000
0001
0010
,  // measure 50
0001
0000
1000
0000
0100
0000
1000
0001
,  // measure 51
0100
0000
0010
0000
1000
0000
0001
0100
,  // measure 52
0010
0100
1000
0001
;

//---------------dance-single - ----------------
#NOTES:
     dance-single:
     :
     Hard:
     8:
     0.650,0.504,0.020,0.000,0.158,443.000,2.000,0.000,0.000,0.000:  // measure 1
0100
0000
1000
0000
0001
0000
0010
0000
0001
0000
1000
0000
0100
0010
1000
0000
,  // measure 2
0001
0010
0001
0100
0010
1000
0010
0001
,  // measure 3
0100
0000
1000
0000
0010
0000
1000
0000
0001
0000
0010
0000
0100
1000
0010
0000
,  // measure 4
1000
0000
0010
0000
0001
0000
0100
0000
1000
0000
0010
0000
0100
0010
0001
0000
,  // measure 5
1000
0000
0010
0000
0100
0000
0001
0000
0010
0000
0100
0000
1000
0001
0100
0000
,  // measure 6
0010
0000
0001
0000
1000
0000
0100
0000
1000
0000
0010
0000
0100
0010
0001
0000
,  // measure 7
0010
0000
0100
0000
1000
0000
0100
0000
0001
0000
1000
0000
0010
0100
0001
0000
,  // measure 8
0010
0000
1000
0000
0100
0000
0001
0000
0010
0000
0100
0000
1000
0001
0100
0000
,  // measure 9
1000
0000
0100
0000
0010
0000
1000
0000
0001
0000
1000
0000
0010
0100
1000
0000
,  // measure 10
0001
0000
0010
0000
0001
0000
0100
0000
1000
0000
0010
0000
0001
0010
0100
0000
,  // measure 11
0010
0000
1000
0000
0001
0000
0010
0000
0100
0000
1000
0000
0010
1000
0001
0000
,  // measure 12
0100
0000
1000
0000
0010
0000
0001
0000
1000
0000
0010
0000
0100
0001
1000
0000
,  // measure 13
0010
0000
0100
0000
1000
0000
0100
0000
0001
0000
0010
0000
1000
0001
0010
0000
,  // measure 14
0100
0000
0010
0000
0001
0000
1000
0000
0100
0000
0001
0000
0010
1000
0100
0000
,  // measure 15
0001
0000
0010
0000
1000
0000
0010
0000
1000
0000
0001
0000
0100
0010
1000
0000
,  // measure 16
1000
0000
0001
0000
0100
0000
0010
0000
0001
0000
0100
0000
0001
0100
0001
0000
,  // measure 17
0010
0100
0001
0100
0001
1000
0001
1000
,  // measure 18
0100
0010
0001
1000
0100
0010
1000
0100
,  // measure 19
0010
0001
1000
0001
0010
0100
0010
0001
,  // measure 20
1000
0100
0001
0010
1000
0001
0100
1000
,  // measure 21
0100
0010
0100
1000
0001
0100
0010
0100
,  // measure 22
1000
0010
0001
0100
1000
0010
0001
0010
,  // measure 23
0100
0001
0100
0010
0001
0100
1000
0001
,  // measure 24
1000
0010
0001
0100
1000
0001
1100
0011
,  // measure 25
0010
0100
0010
0001
1000
0100
1000
0001
,  // measure 26
0100
1000
0100
1000
0001
0010
0100
0010
,  // measure 27
1000
0010
1000
0100
0001
0100
0010
0100
,  // measure 28
0001
1000
0001
0010
0100
1000
0001
0001
,  // measure 29
0100
1000
0001
0010
1000
0010
1000
0010
,  // measure 30
0001
0100
0001
1000
0010
0001
0100
0001
,  // measure 31
0010
0001
0100
0001
1000
0100
0010
0000
,  // measure 32
1000
0010
1000
0100
0001
1000
0100
0000
,  // measure 33
0001
0100
0010
1000
0001
0010
0001
0000
,  // measure 34
1000
0001
0100
0010
0100
0001
1000
0000
,  // measure 35
0100
1000
0100
0001
1000
0100
0010
0010
,  // measure 36
1000
0000
0010
0000
0001
0000
1000
0000
0100
0000
0010
0000
0001
1000
0100
0000
,  // measure 37
0100
0000
1000
0000
0010
0000
0100
0000
0001
0000
0010
0000
1000
0010
0001
0000
,  // measure 38
0100
0000
0001
0000
1000
0000
0001
0000
0100
0000
1000
0000
0010
1000
0100
0000
,  // measure 39
0001
0000
1000
0000
0010
0000
0100
0000
0001
0000
0010
0000
1000
0010
0001
0000
,  // measure 40
0010
0000
0100
0000
0001
0000
0010
0000
1000
0000
0100
0000
0001
0100
0010
0000
,  // measure 41
0100
0000
0001
0000
0100
0000
1000
0000
0010
0000
0001
0000
0100
0010
1000
0000
,  // measure 42
0001
0000
0100
0000
1000
0000
0001
0000
0100
0000
0010
0000
1000
0001
1000
0000
,  // measure 43
0010
0000
1000
0000
0010
0000
0100
0000
0001
0000
1000
0000
0010
0100
0001
0000
,  // measure 44
1000
0000
0010
0000
0001
0000
1000
0000
0001
0000
0100
0000
0001
0010
0100
0000
,  // measure 45
0001
0000
0100
0000
0001
0000
1000
0000
0010
0000
1000
0000
0100
0001
0010
0000
,  // measure 46
0100
0000
1000
0000
0001
0000
0010
0000
0001
0000
0100
0000
1000
0001
1000
0000
,  // measure 47
0001
0000
0100
0000
0001
0000
1000
0000
0010
0000
1000
0000
0100
0010
0100
0000
,  // measure 48
1000
0000
0100
0000
0001
0000
0010
0000
0001
0000
1000
0000
0010
0001
0100
0000
,  // measure 49
0010
0000
0001
0000
0100
0000
1000
0000
0100
0000
0001
0000
1000
0100
0001
0000
,  // measure 50
0100
0000
1000
0000
0010
0000
0100
0000
1000
0000
0010
0000
0001
0010
1000
0000
,  // measure 51
1000
0000
0010
0000
0001
0000
1000
0000
0001
0000
0100
0000
0010
0100
0001
0000
,  // measure 52
0001
0010
0100
1000
1000
0001
0100
0010
;
