#TITLE:Rock That Body;
#SUBTITLE:Sexuality Violation;
#ARTIST:The Black Eyed Peas;
#TITLETRANSLIT:;
#SUBTITLETRANSLIT:;
#ARTISTTRANSLIT:;
#CREDIT:;
#BANNER:Rock That Body-bn.png;
#BACKGROUND:Rock That Body-bg.png;
#LYRICSPATH:;
#CDTITLE:GazeboCD.png;
#MUSIC:Rock That Body.ogg;
#OFFSET:-0.083;
#SAMPLESTART:30.806;
#SAMPLELENGTH:29.000;
#SELECTABLE:YES;
#BPMS:0.000=250.000;
#STOPS:;
#BGCHANGES:;
// cache tags:
#FIRSTBEAT:32.000;
#LASTBEAT:764.000;
#SONGFILENAME:Songs/Sexuality Violation 2/Rock That Body - [Gazebo]/Rock That Body.sm;
#HASMUSIC:1;
#HASBANNER:1;
#MUSICLENGTH:184.450;
// end cache tags

//---------------dance-single - Gazebo----------------
#NOTES:
     dance-single:
     Gazebo:
     Challenge:
     14:
     1.000,1.000,0.108,0.108,0.615,1450.000,20.000,20.000,0.000,0.000:
0000
0000
0000
0000
,
0000
0000
0000
0000
,
0000
0000
0000
0000
,
0000
0000
0000
0000
,
0000
0000
0000
0000
,
0000
0000
0000
0000
,
0000
0000
0000
0000
,
0000
0000
0000
0000
,
1000
0100
1000
0100
1000
0001
1000
0001
,
0100
0001
0100
0001
0100
0010
0100
0010
,
1000
0010
1000
0010
1000
0001
1000
0001
,
0010
0001
0010
0001
0100
0000
0101
0000
,
0001
0100
0001
0100
0001
1000
0001
1000
,
0100
1000
0100
1000
0100
0010
0100
0010
,
0001
0010
0001
0010
0001
1000
0001
1000
,
0010
1000
0001
0010
0100
0000
0110
0000
,
0001
0010
0001
0000
1000
0000
0001
0000
0100
0000
0010
0000
0100
0000
0010
0000
,
1000
0000
0100
0000
0010
0000
0001
0000
1000
0010
1000
0000
0001
0000
1000
0000
,
0001
0100
0001
0000
1000
0000
0001
0000
0010
0000
0100
0000
0010
0000
0100
0000
,
1000
0000
0010
0000
0100
0000
0001
0000
1000
0100
1000
0000
0001
0000
1000
0000
,
0001
0010
0001
0000
1000
0000
0001
0000
0100
0000
0010
0000
0100
0000
0010
0000
,
1000
0100
0010
0001
1000
0100
0010
0001
,
1000
0100
0010
0001
0100
0010
0100
0010
,
1000
0000
0100
0000
0010
0000
0001
0000
1000
0010
1000
0000
0001
0000
1000
0000
,
0001
0100
0001
0000
1000
0000
0001
0000
0010
0000
0100
0000
0010
0000
0100
0000
,
1000
0000
0010
0000
0100
0000
0001
0000
1000
0100
1000
0000
0001
0000
1000
0000
,
0001
0010
0001
0000
1000
0000
0001
0000
0100
0000
0010
0000
0100
0000
0010
0000
,
1000
0000
0100
0000
0010
0000
0001
0000
1000
0010
1000
0000
0001
0000
1000
0000
,
0001
0100
0001
0000
1000
0000
0001
0000
0010
0000
0100
0000
1000
0000
0001
0000
,
4000
0010
0000
0100
0000
0001
0000
3010
,
2000
0000
0000
3000
1001
0000
0001
0000
,
1000
0001
0000
0000
0010
0100
0010
0100
,
1000
0001
0010
0001
0010
0001
0100
0001
,
0010
0100
1000
0010
1000
0010
1000
0001
,
0010
0100
0010
0100
1000
0010
1000
0100
,
1000
0001
0010
0001
0100
0001
0010
0001
,
1000
0100
1000
0010
1000
0010
1000
0100
,
0010
0001
0100
0001
0100
0001
0100
0010
,
1000
0100
0010
0001
1000
0010
0100
0001
,
1000
0100
0010
0001
1000
0010
0100
0001
,
1000
0001
0010
0001
0010
0001
0100
0001
,
0010
0100
1000
0010
1000
0010
1000
0001
,
0010
0100
0010
0100
1000
0010
1000
0100
,
1000
0001
0010
0001
0100
0001
0010
0001
,
1000
0100
1000
0010
1000
0010
1000
0100
,
0010
0001
0100
0001
0100
0001
0100
0010
,
1000
0100
0010
0001
1000
0010
0100
0001
,
1000
0100
0010
0001
1000
0010
0100
0001
,
1000
0100
1000
0001
1000
0010
1000
0001
0100
0001
0100
0001
1000
0100
0010
0001
,
1000
0000
0001
0010
0000
0001
0100
0000
,
0001
0100
0001
1000
0001
0010
0001
1000
0100
0010
0001
1000
0001
1000
0010
1000
,
0002
2003
3020
2030
,
3001
0010
0001
1000
0001
0100
0001
1000
0010
1000
0010
1000
0001
0010
0100
1000
,
0001
0000
1000
0100
0000
1000
0010
0000
,
1000
0010
1000
0010
1000
0000
0000
0000
0001
0010
0001
0010
0001
0000
0000
0000
,
1000
0100
1000
0100
1000
0000
0000
0000
0001
1000
0001
1000
0001
0000
0000
0000
,
1000
0010
1000
0001
1000
0100
1000
0001
0010
0001
0010
0001
1000
0010
0100
0001
,
1000
0000
0001
0100
0000
0001
0010
0000
,
0001
0010
0001
1000
0001
0100
0001
1000
0010
0100
0001
1000
0001
1000
0100
1000
,
0002
2003
3200
2300
,
3001
0100
0001
1000
0001
0010
0001
1000
0100
1000
0100
1000
0001
0100
0010
1000
,
0001
0000
1000
0010
0000
1000
0100
0000
,
1000
0100
1000
0100
1000
0000
0000
0000
0101
0000
0000
0000
1000
0000
0000
0000
,
0001
1000
0000
0000
0010
0100
0010
0100
,
0001
0010
0001
0010
0100
1000
0001
0100
,
0001
1000
0010
1000
0100
0010
0100
1000
,
0001
0100
0001
1000
0010
1000
0001
1000
,
0001
0010
0100
0010
0001
0100
0001
1000
,
0001
0010
0001
0010
0100
1000
0001
0100
,
0001
1000
0010
1000
0100
0010
0100
1000
,
0001
0100
0001
1000
0010
1000
0001
0010
,
0100
0010
0100
0010
0001
1000
0100
1000
,
0001
0100
0001
0100
0010
1000
0001
0010
,
0001
1000
0100
1000
0010
0100
0010
1000
,
0001
0010
0001
0010
0100
1000
0001
1000
,
0001
0100
0010
0100
0001
0010
0001
1000
,
0001
0100
0001
0100
0010
1000
0001
0010
,
0001
1000
0100
1000
0010
0100
0010
1000
,
0002
0000
0000
0003
1001
0000
1000
0000
,
0001
1000
0000
0000
0100
0010
0100
0010
,
0001
1000
0100
1000
0001
0010
0001
1000
0001
0000
0000
0000
0000
0000
0000
0000
,
1000
0000
0000
0000
0001
0000
0100
0000
0010
0000
0100
0000
,
0001
0100
0001
1000
0001
1000
0100
0010
0001
0000
0000
0000
0000
0000
0000
0000
,
1000
0000
0000
0000
0001
0000
0100
0000
0010
0000
0100
0000
,
0001
1000
0010
1000
0001
0100
0001
1000
0001
0000
0000
0000
0000
0000
0000
0000
,
1000
0000
0000
0000
0001
0000
0010
0000
0100
0000
0010
0000
,
0001
0010
0001
1000
0001
0100
0010
1000
0001
0000
0000
0000
0000
0000
0000
0000
,
0010
0000
0000
0000
0100
0000
1000
0000
0001
0000
0100
0000
,
0001
1000
0010
1000
0001
0100
0001
1000
0001
0000
0000
0000
0000
0000
0000
0000
,
1000
0000
0000
0000
0001
0000
0010
0000
0100
0000
0010
0000
,
0001
0010
0001
1000
0001
1000
0010
0100
0001
0000
0000
0000
0000
0000
0000
0000
,
0010
0000
0000
0000
0100
0000
1000
0000
0001
0000
0100
0000
,
0001
1000
0010
1000
0001
0100
0001
1000
0001
0000
0000
0000
0000
0000
0000
0000
,
1000
0000
0000
0000
0001
0000
0010
0000
0100
0000
0010
0000
,
0001
0000
0000
0000
1000
0000
0004
0000
0000
0000
0000
0000
,
0000
0000
0000
0000
0103
0000
0010
1000
,
0001
0100
0001
0000
1000
0000
0001
0000
0010
0000
0100
0000
0010
0000
0100
0000
,
1000
0000
0010
0000
0100
0000
0001
0000
1000
0100
1000
0000
0001
0000
1000
0000
,
0001
0010
0001
0000
1000
0000
0001
0000
0100
0000
0010
0000
0100
0000
0010
0000
,
1000
0000
0100
0000
0010
0000
0001
0000
1000
0010
1000
0000
0001
0000
1000
0000
,
0001
0100
0001
0000
1000
0000
0001
0000
0010
0000
0100
0000
1000
0000
0001
0000
,
4000
0010
0000
0100
0000
0001
0000
3010
,
2000
0000
0000
3000
1001
0000
0001
0000
,
1000
0001
0000
0000
0010
0100
0010
0100
,
1000
0001
0010
0001
0010
0001
0100
0001
,
0010
0100
1000
0010
1000
0010
1000
0001
,
0010
0100
0010
0100
1000
0010
1000
0100
,
1000
0001
0010
0001
0100
0001
0010
0001
,
1000
0100
1000
0010
1000
0010
1000
0100
,
0010
0001
0100
0001
0100
0001
0100
0010
,
1000
0100
0010
0001
1000
0010
0100
0001
,
1000
0100
0010
0001
1000
0010
0100
0001
,
1000
0001
0010
0001
0010
0001
0100
0001
,
0010
0100
1000
0010
1000
0010
1000
0001
,
0010
0100
0010
0100
1000
0010
1000
0100
,
1000
0001
0010
0001
0100
0001
0010
0001
,
1000
0100
1000
0010
1000
0010
1000
0100
,
0010
0001
0100
0001
0100
0001
0100
0010
,
1000
0000
0011
1000
,
0001
1000
0000
0000
0010
0100
0010
0100
,
0001
0100
0001
1000
0001
0010
0001
1000
0100
1000
0100
1000
0001
0100
0010
1000
,
0001
0000
1000
0010
0000
1000
0100
0000
,
1000
0100
1000
0001
1000
0010
1000
0001
0100
0010
1000
0001
1000
0001
0010
0001
,
1000
0010
0010
0010
,
1000
0010
1000
0001
1000
0100
1000
0001
0010
0001
0010
0001
1000
0010
0100
0001
,
1000
0000
0001
0100
0000
0001
0010
0000
,
0001
0010
0001
0010
0001
0000
0000
0000
1000
0010
1000
0010
1000
0000
0000
0000
,
0001
0100
0001
0100
0001
0000
0000
0000
1000
0001
1000
0001
1000
0000
0000
0000
,
0001
0010
0001
1000
0001
0100
0001
1000
0010
1000
0010
1000
0001
0010
0100
1000
,
0001
0000
1000
0100
0000
1000
0010
0000
,
1000
0010
1000
0001
1000
0100
1000
0001
0010
0100
1000
0001
1000
0001
0100
0001
,
2000
3002
0203
0302
,
1003
0100
1000
0001
1000
0010
1000
0001
0100
0001
0100
0001
1000
0100
0010
0001
,
1000
0000
0001
0010
0000
0001
0100
0000
,
0002
0000
0000
0003
1001
0000
1000
0000
,
0001
1000
0000
0000
0010
0100
0010
0100
,
0001
0100
0001
0000
1000
0000
0001
0000
0010
0001
0010
0000
0100
0000
1000
0000
,
0001
1000
0001
0000
0100
0000
0010
0000
1000
0010
1000
0000
0001
0000
0010
0000
,
0100
0000
0100
0000
0010
0000
0001
0010
,
0001
1000
0001
0100
0010
0000
1010
0000
,
1000
0010
1000
0000
0001
0000
1000
0000
0100
1000
0100
0000
0010
0000
0001
0000
,
1000
0001
1000
0000
0010
0000
0100
0000
0001
0100
0001
0000
1000
0000
0100
0000
,
0010
0000
0010
0000
0100
0000
1000
0100
,
1000
0001
1000
0010
0100
0010
0100
0001
,
1000
0100
1000
0000
0001
0000
1000
0000
0010
1000
0010
0000
0100
0000
0001
0000
,
1000
0001
1000
0000
0100
0000
0010
0000
0001
0010
0001
0000
1000
0000
0010
0000
,
0100
0000
0100
0000
0010
0000
1000
0010
,
1000
0001
1000
0100
0010
0000
0011
0000
,
0001
0010
0001
0000
1000
0000
0001
0000
0100
0001
0100
0000
0010
0000
1000
0000
,
0001
1000
0001
0000
0010
0000
0100
0000
1000
0100
1000
0000
0001
0000
0100
0000
,
0010
0010
0100
0004
,
0000
0000
0000
0000
1003
0000
0100
0010
,
0001
0010
0001
0000
1000
0000
0001
0000
0100
0000
0010
0000
0100
0000
0010
0000
,
1000
0100
0010
0001
0100
0010
0100
0001
,
1000
0100
1000
0100
0010
0001
1000
0001
,
0100
0000
0001
0000
0000
0000
0001
0000
1000
0010
1000
0000
0100
0000
0010
0000
,
0001
0010
0001
0000
1000
0000
0001
0000
0100
0000
0000
0000
0110
0000
0000
0000
,
0010
0000
1000
0000
0010
0000
1000
0000
0001
0010
0001
0000
1000
0000
0001
0000
,
1000
0100
1000
0000
0001
0000
1000
0000
0010
0000
0000
0000
0110
0000
0000
0000
,
0100
0001
0000
0001
2000
0000
0000
0000
,
3001
0010
0001
0000
1000
0000
0001
0000
0100
0001
0100
0000
0010
0000
1000
0000
,
0001
1000
0001
0000
0010
0000
0100
0000
1000
0100
1000
0000
0001
0000
0100
0000
,
0010
0000
0010
0000
0100
0000
0001
0100
,
0001
1000
0001
0010
0100
0000
1100
0000
,
0001
0010
0001
0000
1000
0000
0001
0000
0100
0000
0000
0000
0110
0000
0000
0000
,
0010
0000
1000
0000
0010
0000
1000
0000
0001
0010
0001
0000
1000
0000
0001
0000
,
1000
0100
1000
0000
0001
0000
0100
0000
0010
0000
0000
0000
0020
0000
0000
0000
,
1030
0001
0000
0001
0020
0000
0000
0000
,
0031
0010
0001
0000
1000
0000
0001
0000
0100
0001
0100
0000
0010
0000
1000
0000
,
0001
1000
0001
0000
0010
0000
0100
0000
1000
0100
1000
0000
0001
0000
0100
0000
,
0010
0000
0010
0000
0100
0000
0001
0100
,
0001
1000
0001
0010
0100
0000
1100
0000
,
0001
0010
0001
0000
1000
0000
0001
0000
0100
0001
0100
0000
0010
0000
1000
0000
,
0001
1000
0001
0000
0010
0000
0100
0000
1000
0100
1000
0000
0001
0000
0100
0000
,
0010
1000
0010
1000
0001
0010
0001
0010
,
0100
1000
0100
1000
0010
0000
0100
0001
,
1000
0010
1000
0000
0001
0000
1000
0000
0100
0000
0010
0000
0100
0000
0010
0000
,
0001
0000
0100
0000
0010
0000
1000
0000
0001
0010
0001
0000
1000
0000
0001
0000
,
1000
0100
1000
0000
0001
0000
1000
0000
0010
0000
0100
0000
0010
0000
0100
0000
,
0001
0000
0010
0000
0100
0000
1000
0000
0001
0100
0001
0000
1000
0000
0001
0000
,
1000
0010
1000
0000
0001
0000
1000
0000
0100
0000
0010
0000
0100
0000
0010
0000
,
0001
0100
0010
1000
0001
0100
0010
1000
,
0001
0100
0010
1000
0100
0010
0100
0010
,
0001
0000
0100
0000
0010
0000
1000
0000
0001
0010
0001
0000
1000
0000
0001
0000
,
1000
0100
1000
0000
0001
0000
1000
0000
0010
0000
0100
0000
0010
0000
0100
0000
,
0001
0000
0010
0000
0100
0000
1000
0000
0001
0100
0001
0000
1000
0000
0001
0000
,
1000
0010
1000
0000
0001
0000
1000
0000
0100
0000
0010
0000
0100
0000
0010
0000
,
0001
0000
0100
0000
0010
0000
1000
0000
0001
0010
0001
0000
1000
0000
0001
0000
,
1000
0100
1000
0000
0001
0000
1000
0000
0010
0000
0100
0000
0001
0000
1000
0000
,
0004
0000
0000
0000
,
2003
0000
0000
0000
,
3000
0000
0000
0000
;

//---------------dance-single - Gazebo----------------
#NOTES:
     dance-single:
     Gazebo:
     Hard:
     12:
     1.000,1.000,0.108,0.108,0.615,1379.000,20.000,20.000,0.000,0.000:
0000
0000
0000
0000
,
0000
0000
0000
0000
,
0000
0000
0000
0000
,
0000
0000
0000
0000
,
0000
0000
0000
0000
,
0000
0000
0000
0000
,
0000
0000
0000
0000
,
0000
0000
0000
0000
,
1000
0100
1000
0100
1000
0001
1000
0001
,
0100
0001
0100
0001
0100
0010
0100
0010
,
1000
0010
1000
0010
1000
0001
1000
0001
,
0010
0001
0010
0001
0100
0000
0101
0000
,
0001
0100
0001
0100
0001
1000
0001
1000
,
0100
1000
0100
1000
0100
0010
0100
0010
,
0001
0010
0001
0010
0001
1000
0001
1000
,
0010
1000
0001
0010
0100
0000
0110
0000
,
0001
0010
0001
0000
1000
0000
0001
0000
0100
0000
0010
0000
0100
0000
0010
0000
,
1000
0000
0100
0000
0010
0000
0001
0000
1000
0010
1000
0000
0001
0000
1000
0000
,
0001
0100
0001
0000
1000
0000
0001
0000
0010
0000
0100
0000
0010
0000
0100
0000
,
1000
0000
0010
0000
0100
0000
0001
0000
1000
0100
1000
0000
0001
0000
1000
0000
,
0001
0010
0001
0000
1000
0000
0001
0000
0100
0000
0010
0000
0100
0000
0010
0000
,
1000
0100
0010
0001
1000
0100
0010
0001
,
1000
0100
0010
0001
0100
0010
0100
0010
,
1000
0000
0100
0000
0010
0000
0001
0000
1000
0010
1000
0000
0001
0000
1000
0000
,
0001
0100
0001
0000
1000
0000
0001
0000
0010
0000
0100
0000
0010
0000
0100
0000
,
1000
0000
0010
0000
0100
0000
0001
0000
1000
0100
1000
0000
0001
0000
1000
0000
,
0001
0010
0001
0000
1000
0000
0001
0000
0100
0000
0010
0000
0100
0000
0010
0000
,
1000
0000
0100
0000
0010
0000
0001
0000
1000
0010
1000
0000
0001
0000
1000
0000
,
0001
0100
0001
0000
1000
0000
0001
0000
0010
0000
0100
0000
1000
0000
0001
0000
,
4000
0010
0000
0100
0000
0001
0000
3010
,
2000
0000
0000
3000
1001
0000
0001
0000
,
1000
0001
0000
0000
0010
0100
0010
0100
,
1000
0001
0010
0001
0010
0001
0100
0001
,
0010
0100
1000
0010
1000
0010
1000
0001
,
0010
0100
0010
0100
1000
0010
1000
0100
,
1000
0001
0010
0001
0100
0001
0010
0001
,
1000
0100
1000
0010
1000
0010
1000
0100
,
0010
0001
0100
0001
0100
0001
0100
0010
,
1000
0100
0010
0001
1000
0010
0100
0001
,
1000
0100
0010
0001
1000
0010
0100
0001
,
1000
0001
0010
0001
0010
0001
0100
0001
,
0010
0100
1000
0010
1000
0010
1000
0001
,
0010
0100
0010
0100
1000
0010
1000
0100
,
1000
0001
0010
0001
0100
0001
0010
0001
,
1000
0100
1000
0010
1000
0010
1000
0100
,
0010
0001
0100
0001
0100
0001
0100
0010
,
1000
0100
0010
0001
1000
0010
0100
0001
,
1000
0100
0010
0001
1000
0010
0100
0001
,
1000
0010
1000
0001
0010
0001
1000
0100
1000
0010
0100
0001
,
1000
0000
0001
0010
0000
0001
0100
0000
,
0001
0100
0001
1000
0100
1000
0001
0010
0001
1000
0100
0010
,
0002
2003
3020
2030
,
3001
0100
0001
1000
0100
1000
0001
0010
0001
0100
0010
1000
,
0001
0000
1000
0100
0000
1000
0010
0000
,
1000
0010
1000
0010
0000
0000
0100
0001
0100
0001
0000
0000
,
1000
0001
1000
0001
0000
0000
0010
0001
0010
0001
0000
0000
,
1000
0100
1000
0001
0100
0001
1000
0010
1000
0100
0010
0001
,
1000
0000
0001
0100
0000
0001
0010
0000
,
0001
0010
0001
1000
0010
1000
0001
0100
0001
1000
0010
0100
,
0002
2003
3200
2300
,
3001
0010
0001
1000
0010
1000
0001
0100
0001
0010
0100
1000
,
0001
0000
1000
0010
0000
1000
0100
0000
,
1000
0001
1000
0001
0000
0000
0101
0000
0000
1000
0000
0000
,
0001
1000
0000
0000
0010
0100
0010
0100
,
0001
0010
0001
0010
0100
1000
0001
0100
,
0001
1000
0010
1000
0100
0010
0100
1000
,
0001
0100
0001
1000
0010
1000
0001
1000
,
0001
0010
0100
0010
0001
0100
0001
1000
,
0001
0010
0001
0010
0100
1000
0001
0100
,
0001
1000
0010
1000
0100
0010
0100
1000
,
0001
0100
0001
1000
0010
1000
0001
0010
,
0100
0010
0100
0010
0001
1000
0100
1000
,
0001
0100
0001
0100
0010
1000
0001
0010
,
0001
1000
0100
1000
0010
0100
0010
1000
,
0001
0010
0001
0010
0100
1000
0001
1000
,
0001
0100
0010
0100
0001
0010
0001
1000
,
0001
0100
0001
0100
0010
1000
0001
0010
,
0001
1000
0100
1000
0010
0100
0010
1000
,
0002
0000
0000
0003
1001
0000
1000
0000
,
0001
1000
0000
0000
0100
0010
0100
0010
,
0001
1000
0100
1000
0100
0010
0001
0000
0000
0000
0000
0000
,
1000
0000
0000
0000
0001
0000
0100
0000
0010
0000
0100
0000
,
0001
1000
0100
1000
0001
0010
0001
0000
0000
0000
0000
0000
,
1000
0000
0000
0000
0001
0000
0100
0000
0010
0000
0100
0000
,
0001
1000
0010
1000
0001
1000
0001
0000
0000
0000
0000
0000
,
1000
0000
0000
0000
0001
0000
0010
0000
0100
0000
0010
0000
,
0001
1000
0010
1000
0010
0100
0001
0000
0000
0000
0000
0000
,
0010
0000
0000
0000
0100
0000
1000
0000
0001
0000
0100
0000
,
0001
1000
0010
1000
0010
0100
0001
0000
0000
0000
0000
0000
,
1000
0000
0000
0000
0001
0000
0010
0000
0100
0000
0010
0000
,
0001
1000
0010
1000
0001
0100
0001
0000
0000
0000
0000
0000
,
0010
0000
0000
0000
0100
0000
1000
0000
0001
0000
0100
0000
,
0001
1000
0010
1000
0010
0100
0001
0000
0000
0000
0000
0000
,
1000
0000
0000
0000
0001
0000
0010
0000
0100
0000
0010
0000
,
0001
0000
0000
0000
1000
0000
0004
0000
0000
0000
0000
0000
,
0000
0000
0000
0000
0103
0000
0010
1000
,
0001
0100
0001
0000
1000
0000
0001
0000
0010
0000
0100
0000
0010
0000
0100
0000
,
1000
0000
0010
0000
0100
0000
0001
0000
1000
0100
1000
0000
0001
0000
1000
0000
,
0001
0010
0001
0000
1000
0000
0001
0000
0100
0000
0010
0000
0100
0000
0010
0000
,
1000
0000
0100
0000
0010
0000
0001
0000
1000
0010
1000
0000
0001
0000
1000
0000
,
0001
0100
0001
0000
1000
0000
0001
0000
0010
0000
0100
0000
1000
0000
0001
0000
,
4000
0010
0000
0100
0000
0001
0000
3010
,
2000
0000
0000
3000
1001
0000
0001
0000
,
1000
0001
0000
0000
0010
0100
0010
0100
,
1000
0001
0010
0001
0010
0001
0100
0001
,
0010
0100
1000
0010
1000
0010
1000
0001
,
0010
0100
0010
0100
1000
0010
1000
0100
,
1000
0001
0010
0001
0100
0001
0010
0001
,
1000
0100
1000
0010
1000
0010
1000
0100
,
0010
0001
0100
0001
0100
0001
0100
0010
,
1000
0100
0010
0001
1000
0010
0100
0001
,
1000
0100
0010
0001
1000
0010
0100
0001
,
1000
0001
0010
0001
0010
0001
0100
0001
,
0010
0100
1000
0010
1000
0010
1000
0001
,
0010
0100
0010
0100
1000
0010
1000
0100
,
1000
0001
0010
0001
0100
0001
0010
0001
,
1000
0100
1000
0010
1000
0010
1000
0100
,
0010
0001
0100
0001
0100
0001
0100
0010
,
1000
0000
0011
1000
,
0001
1000
0000
0000
0010
0100
0010
0100
,
0001
0010
0001
1000
0010
1000
0001
0100
0001
0010
0100
1000
,
0001
0000
1000
0010
0000
1000
0100
0000
,
1000
0010
1000
0001
0010
0001
1000
0100
1000
0001
0010
0100
,
1000
0010
0010
0010
,
1000
0100
1000
0001
0100
0001
1000
0010
1000
0100
0010
0001
,
1000
0000
0001
0100
0000
0001
0010
0000
,
0001
0010
0001
0010
0000
0000
0100
1000
0100
1000
0000
0000
,
0001
1000
0001
1000
0000
0000
0010
1000
0010
1000
0000
0000
,
0001
0100
0001
1000
0100
1000
0001
0010
0001
0100
0010
1000
,
0001
0000
1000
0100
0000
1000
0010
0000
,
1000
0010
1000
0001
0010
0001
1000
0100
1000
0001
0010
0100
,
2000
3002
0203
0302
,
1003
0010
1000
0001
0010
0001
1000
0100
1000
0010
0100
0001
,
1000
0000
0001
0010
0000
0001
0100
0000
,
0002
0000
0000
0003
1001
0000
1000
0000
,
0001
1000
0000
0000
0010
0100
0010
0100
,
0001
0100
0001
0000
1000
0000
0001
0000
0010
0001
0010
0000
0100
0000
1000
0000
,
0001
1000
0001
0000
0100
0000
0010
0000
1000
0010
1000
0000
0001
0000
0010
0000
,
0100
0000
0100
0000
0010
0000
0001
0010
,
0001
1000
0001
0100
0010
0000
1010
0000
,
1000
0010
1000
0000
0001
0000
1000
0000
0100
1000
0100
0000
0010
0000
0001
0000
,
1000
0001
1000
0000
0010
0000
0100
0000
0001
0100
0001
0000
1000
0000
0100
0000
,
0010
0000
0010
0000
0100
0000
1000
0100
,
1000
0001
1000
0010
0100
0010
0100
0001
,
1000
0100
1000
0000
0001
0000
1000
0000
0010
1000
0010
0000
0100
0000
0001
0000
,
1000
0001
1000
0000
0100
0000
0010
0000
0001
0010
0001
0000
1000
0000
0010
0000
,
0100
0000
0100
0000
0010
0000
1000
0010
,
1000
0001
1000
0100
0010
0000
0011
0000
,
0001
0010
0001
0000
1000
0000
0001
0000
0100
0001
0100
0000
0010
0000
1000
0000
,
0001
1000
0001
0000
0010
0000
0100
0000
1000
0100
1000
0000
0001
0000
0100
0000
,
0010
0010
0100
0004
,
0000
0000
0000
0000
1003
0000
0100
0010
,
0001
0010
0001
0000
1000
0000
0001
0000
0100
0000
0010
0000
0100
0000
0010
0000
,
1000
0100
0010
0001
0100
0010
0100
0001
,
1000
0100
1000
0100
0010
0001
1000
0001
,
0100
0000
0001
0000
0000
0000
0001
0000
1000
0010
1000
0000
0100
0000
0010
0000
,
0001
0010
0001
0000
1000
0000
0001
0000
0100
0000
0000
0000
0110
0000
0000
0000
,
0010
0000
1000
0000
0010
0000
1000
0000
0001
0010
0001
0000
1000
0000
0001
0000
,
1000
0100
1000
0000
0001
0000
1000
0000
0010
0000
0000
0000
0110
0000
0000
0000
,
0100
0001
0000
0001
2000
0000
0000
0000
,
3001
0010
0001
0000
1000
0000
0001
0000
0100
0001
0100
0000
0010
0000
1000
0000
,
0001
1000
0001
0000
0010
0000
0100
0000
1000
0100
1000
0000
0001
0000
0100
0000
,
0010
0000
0010
0000
0100
0000
0001
0100
,
0001
1000
0001
0010
0100
0000
1100
0000
,
0001
0010
0001
0000
1000
0000
0001
0000
0100
0000
0000
0000
0110
0000
0000
0000
,
0010
0000
1000
0000
0010
0000
1000
0000
0001
0010
0001
0000
1000
0000
0001
0000
,
1000
0100
1000
0000
0001
0000
0100
0000
0010
0000
0000
0000
0020
0000
0000
0000
,
1030
0001
0000
0001
0020
0000
0000
0000
,
0031
0010
0001
0000
1000
0000
0001
0000
0100
0001
0100
0000
0010
0000
1000
0000
,
0001
1000
0001
0000
0010
0000
0100
0000
1000
0100
1000
0000
0001
0000
0100
0000
,
0010
0000
0010
0000
0100
0000
0001
0100
,
0001
1000
0001
0010
0100
0000
1100
0000
,
0001
0010
0001
0000
1000
0000
0001
0000
0100
0001
0100
0000
0010
0000
1000
0000
,
0001
1000
0001
0000
0010
0000
0100
0000
1000
0100
1000
0000
0001
0000
0100
0000
,
0010
1000
0010
1000
0001
0010
0001
0010
,
0100
1000
0100
1000
0010
0000
0100
0001
,
1000
0010
1000
0000
0001
0000
1000
0000
0100
0000
0010
0000
0100
0000
0010
0000
,
0001
0000
0100
0000
0010
0000
1000
0000
0001
0010
0001
0000
1000
0000
0001
0000
,
1000
0100
1000
0000
0001
0000
1000
0000
0010
0000
0100
0000
0010
0000
0100
0000
,
0001
0000
0010
0000
0100
0000
1000
0000
0001
0100
0001
0000
1000
0000
0001
0000
,
1000
0010
1000
0000
0001
0000
1000
0000
0100
0000
0010
0000
0100
0000
0010
0000
,
0001
0100
0010
1000
0001
0100
0010
1000
,
0001
0100
0010
1000
0100
0010
0100
0010
,
0001
0000
0100
0000
0010
0000
1000
0000
0001
0010
0001
0000
1000
0000
0001
0000
,
1000
0100
1000
0000
0001
0000
1000
0000
0010
0000
0100
0000
0010
0000
0100
0000
,
0001
0000
0010
0000
0100
0000
1000
0000
0001
0100
0001
0000
1000
0000
0001
0000
,
1000
0010
1000
0000
0001
0000
1000
0000
0100
0000
0010
0000
0100
0000
0010
0000
,
0001
0000
0100
0000
0010
0000
1000
0000
0001
0010
0001
0000
1000
0000
0001
0000
,
1000
0100
1000
0000
0001
0000
1000
0000
0010
0000
0100
0000
0001
0000
1000
0000
,
0004
0000
0000
0000
,
2003
0000
0000
0000
,
3000
0000
0000
0000
;

//---------------dance-single - Gazebo----------------
#NOTES:
     dance-single:
     Gazebo:
     Medium:
     10:
     0.747,0.880,0.146,0.314,0.155,879.000,27.000,58.000,0.000,0.000:

0000
0000
0000
0000
,
0000
0000
0000
0000
,
0000
0000
0000
0000
,
0000
0000
0000
0000
,
0000
0000
0000
0000
,
0000
0000
0000
0000
,
0000
0000
0000
0000
,
0000
0000
0000
0000
,
1000
0100
1000
0100
1000
0001
1000
0001
,
0100
0001
0100
0001
0100
0010
0100
0010
,
1000
0010
1000
0010
1000
0001
1000
0001
,
0010
0001
0010
0001
0100
0000
0101
0000
,
0001
0100
0001
0100
0001
1000
0001
1000
,
0100
1000
0100
1000
0100
0010
0100
0010
,
0001
0010
0001
0010
0001
1000
0001
1000
,
0010
1000
0001
0010
0100
0000
0110
0000
,
0001
0000
0010
0100
0010
0000
0001
0000
,
2000
0000
0000
0000
3001
0000
0100
0001
,
1000
0000
0010
0100
0010
0000
1000
0000
,
0002
0000
0000
0000
1003
0000
0100
1000
,
0001
0000
0010
0100
0010
0000
0001
0000
,
2000
0000
0000
3000
2000
0000
0000
3000
,
2000
0000
3010
0100
,
0002
0000
0000
0000
1003
0000
0100
1000
,
0001
0000
0100
0010
0100
0000
0001
0000
,
2000
0000
0000
0000
3001
0000
0010
0001
,
1000
0000
0100
0010
0100
0000
1000
0000
,
0002
0000
0000
0000
1003
0000
0010
1000
,
0001
0000
0100
0010
0100
0000
0000
0000
,
0004
0000
0000
0000
,
2003
0000
0000
3000
1001
0000
0001
0000
,
1000
0001
0000
0000
0010
0100
0010
0100
,
1000
0001
0001
0100
,
0001
1000
1000
1000
,
0001
0001
0010
0002
,
0000
0003
0110
1001
,
1000
0010
0010
0100
,
0010
1000
1000
1000
,
0002
0000
0023
0000
,
0230
0000
0320
0000
,
0031
1000
1000
0010
,
1000
0001
0001
0001
,
1000
1000
0100
2000
,
0000
3000
0110
1001
,
0001
0100
0100
0010
,
0100
0001
0001
0000
,
2000
0000
3200
0000
,
0320
0000
0230
0000
,
1300
0001
0010
0001
0010
0001
0100
0010
,
1000
0000
0001
0100
0000
0001
0010
0000
,
0001
1000
0010
1000
0010
0100
0001
1000
,
0002
2003
3200
2300
,
3001
1000
0010
1000
0010
1000
0100
0010
,
0001
0000
1000
0100
0000
1000
0010
0000
,
1000
0010
1000
0000
0001
0100
0001
0000
,
0010
0100
0010
0000
0100
1000
0100
0000
,
1000
0001
0100
0001
0100
0001
0010
0100
,
1000
0000
0001
0010
0000
0001
0100
0000
,
0001
1000
0100
1000
0100
0010
0001
1000
,
0002
2003
3020
2030
,
3001
1000
0100
1000
0100
1000
0010
0100
,
0001
0000
1000
0010
0000
1000
0100
0000
,
1000
0001
1000
0000
0101
0000
1000
0000
,
0001
1000
0000
0000
0010
0100
0010
0100
,
0001
0000
0000
0000
1000
0000
0001
0000
0000
0000
0000
0000
,
1000
0000
0010
0000
1000
0000
0100
0000
0000
0000
0100
0000
,
0010
0000
0001
0000
0010
0000
0001
0000
0000
0000
0000
0000
,
1000
0000
0000
0000
1000
0000
0010
0000
0000
0000
0010
0000
,
0100
0000
0000
0000
0010
0000
0100
0000
0000
0000
0000
0000
,
0001
0000
0100
0000
0001
0000
0010
0000
0000
0000
0010
0000
,
0100
0000
0000
0000
0010
0000
0100
0000
0000
0000
1000
0000
,
0001
0000
0000
0000
1000
0000
0001
0000
0000
0000
0100
0000
,
0001
0000
0000
0000
1000
0000
0001
0000
0000
0000
0000
0000
,
1000
0000
0010
0000
1000
0000
0100
0000
0000
0000
0100
0000
,
0010
0000
0000
0000
0100
0000
0010
0000
0000
0000
0000
0000
,
0001
0000
0000
0000
0001
0000
0100
0000
0010
0000
0100
0000
,
0001
0000
0000
0000
1000
0000
0001
0000
0000
0000
1000
0000
,
0010
0000
0000
0000
1000
0000
0100
0000
0000
0000
0100
0000
,
2000
0000
0000
3000
1001
0000
1000
0000
,
0001
1000
0000
0000
0100
0010
0100
0010
,
1000
0000
0000
0000
0001
0000
1000
0000
0000
0000
0000
0000
,
0001
0000
0000
0000
1000
0000
0100
0000
0010
0000
0100
0000
,
1000
0000
0000
0000
0001
0000
1000
0000
0000
0000
0000
0000
,
0001
0000
0000
0000
1000
0000
0010
0000
0100
0000
0010
0000
,
1000
0000
0000
0000
0001
0000
1000
0000
0000
0000
0000
0000
,
0001
0000
0000
0000
1000
0000
0100
0000
0010
0000
0100
0000
,
1000
0000
0000
0000
0001
0000
1000
0000
0000
0000
0000
0000
,
0010
0000
0000
0000
0100
0000
0001
0000
1000
0000
0100
0000
,
0010
0000
0000
0000
0001
0000
0010
0000
0000
0000
0000
0000
,
0001
0000
0000
0000
1000
0000
0010
0000
0100
0000
0010
0000
,
1000
0000
0000
0000
0001
0000
1000
0000
0000
0000
0000
0000
,
0100
0000
0000
0000
0010
0000
0001
0000
1000
0000
0010
0000
,
0100
0000
0000
0000
0001
0000
0100
0000
0000
0000
0000
0000
,
0001
0000
0000
0000
1000
0000
0100
0000
0010
0000
0100
0000
,
1000
0000
0000
0000
1000
0000
0004
0000
0000
0000
0000
0000
,
0000
0000
0000
0000
0103
0000
0010
1000
,
0001
0000
0010
0100
0010
0000
0001
0000
,
2000
0000
0000
0000
3001
0000
0100
0001
,
1000
0000
0010
0100
0010
0000
1000
0000
,
0002
0000
0000
0000
1003
0000
0100
1000
,
0001
0000
0010
0100
0010
0000
0000
0000
,
0004
0000
0000
0000
,
2003
0000
0000
3000
1001
0000
0001
0000
,
1000
0001
0000
0000
0100
0010
0100
0010
,
1000
0001
0001
0010
,
0001
1000
1000
1000
,
0001
0001
0100
0002
,
0000
0003
0110
1001
,
1000
0100
0100
0010
,
0100
1000
1000
1000
,
0002
0000
0203
0000
,
0320
0000
0230
0000
,
0301
1000
1000
0100
,
1000
0001
0001
0001
,
1000
1000
0010
2000
,
0000
3000
0110
1001
,
0001
0010
0010
0100
,
0010
0001
0001
0000
,
2000
0000
0000
3000
1001
0000
0001
0000
,
1000
0001
0000
0000
0100
0010
0100
0010
,
1000
0001
0010
0001
0010
0001
0100
0010
,
1000
0000
0001
0100
0000
0001
0010
0000
,
0001
1000
0010
1000
0010
0100
0001
1000
,
0100
0010
0010
0010
,
0001
1000
0010
1000
0010
1000
0100
0010
,
0001
0000
1000
0100
0000
1000
0010
0000
,
1000
0010
1000
0000
0001
0100
0001
0000
,
0010
0100
0010
0000
0100
1000
0100
0000
,
1000
0001
0100
0001
0100
0001
0010
0100
,
1000
0000
0001
0010
0000
0001
0100
0000
,
0001
1000
0100
1000
0100
0010
0001
1000
,
0002
2003
3020
2030
,
3001
1000
0100
1000
0100
1000
0010
0100
,
0001
0000
1000
0010
0000
1000
0100
0000
,
2000
0000
0000
3000
1001
0000
0001
0000
,
1000
0001
0000
0000
0010
0100
0010
0100
,
1000
0010
1000
0010
0100
0001
0100
0001
,
1000
0100
1000
0100
0010
0001
0010
0001
,
1000
0000
1000
0000
0010
0000
1000
0100
,
1000
0001
1000
0010
0100
0000
0101
0000
,
0001
0010
0001
0010
0100
1000
0100
1000
,
0001
0100
0001
0100
0010
1000
0010
1000
,
0001
0000
0001
0000
0010
0000
0001
0010
,
0001
1000
0001
0100
0020
0000
0000
0000
,
1030
0100
1000
0100
0010
0001
0010
0001
,
1000
0010
1000
0010
0100
0001
0100
0001
,
1000
0000
1000
0000
0100
0000
1000
0100
,
1000
0001
1000
0010
0100
0000
0101
0000
,
0001
0010
0001
0010
0100
1000
0100
1000
,
0001
0100
0001
0100
0010
1000
0010
1000
,
0100
0010
0001
0010
0100
0010
0004
0000
,
0000
0000
0000
0000
1003
0000
0010
1000
,
0001
0000
0100
0010
0100
0000
0001
0000
,
2000
0000
0000
0000
3001
0010
0100
1000
,
0001
0000
0010
0001
0010
0100
0000
0100
,
0000
1000
0000
1000
0001
0000
0100
0001
,
1000
0000
0010
0100
0010
0000
1001
0000
,
0000
0000
0000
0000
1000
0000
0010
1000
,
0001
0000
0100
0010
0100
0001
0000
0001
,
0000
1000
0000
1000
0200
0000
0000
0000
,
1300
0010
1000
0010
0100
0001
0100
0001
,
1000
0100
1000
0100
0010
0001
0010
0001
,
1000
0000
1000
0000
0010
0100
0000
0100
,
0000
0001
0000
0001
0010
0000
0100
1000
,
0001
0000
0010
0100
0010
0000
1001
0000
,
0000
0000
0000
0000
1000
0000
0010
1000
,
0001
0000
0100
0010
0100
0000
0202
0303
,
0000
1000
0000
1000
0200
0000
0000
0000
,
1300
0010
1000
0010
0100
0001
0100
0001
,
1000
0100
1000
0100
0010
0001
0010
0001
,
1000
0000
1000
0000
0010
0100
0000
0100
,
0000
0001
0000
0001
0010
0000
0011
0000
,
1000
0010
1000
0010
0100
0001
0100
0001
,
1000
0100
1000
0100
0010
0001
0010
0001
,
1000
0010
0100
0010
1000
0010
0100
0010
,
1000
0010
0100
0001
1000
0000
0010
1000
,
0001
0000
0010
0100
0010
0000
0001
0000
,
2000
0000
0000
0000
3001
0000
0100
0001
,
1000
0000
0010
0100
0010
0000
1000
0000
,
0002
0000
0000
0000
1003
0000
0100
1000
,
0001
0000
0010
0100
0010
0000
0001
0000
,
2000
0000
0000
3000
2000
0000
0000
3000
,
2000
0000
3010
0100
,
0002
0000
0000
0000
1003
0000
0100
1000
,
0001
0000
0100
0010
0100
0000
0001
0000
,
2000
0000
0000
0000
3001
0000
0010
0001
,
1000
0000
0100
0010
0100
0000
1000
0000
,
0002
0000
0000
0000
1003
0000
0010
1000
,
0001
0000
0100
0010
0100
0000
0000
0000
,
0004
0000
0000
0000
,
2003
0000
0000
0000
,
3000
0000
0000
0000
;
