#TITLE:魔法の扉 -MAX PAIN EDIT!-;
#SUBTITLE:(スペースマコのテーマ);
#ARTIST:a.s.a.;
#TITLETRANSLIT:Mahou no Tobira;
#SUBTITLETRANSLIT:(The Theme Of Space Maco);
#ARTISTTRANSLIT:;
#CREDIT:;
#BANNER:Mahou no Tobira (The Theme Of Space Maco).png;
#BACKGROUND:Mahou no Tobira (The Theme Of Space Maco)-bg.png;
#LYRICSPATH:;
#CDTITLE:kyo-cdtitle.png;
#MUSIC:Mahou no Tobira (The Theme Of Space Maco).mp3;
#OFFSET:-1.358;
#SAMPLESTART:62.650;
#SAMPLELENGTH:12.000;
#SELECTABLE:YES;
#BPMS:0.000=184.000;
#STOPS:;
#BGCHANGES:;
// cache tags:
#FIRSTBEAT:20.000;
#LASTBEAT:256.021;
#SONGFILENAME:Songs/new cc/Mahou no Tobira (The Theme Of Space Maco) -MAX PAIN EDIT!-/Mahou no Tobira (The Theme Of Space Maco).sm;
#HASMUSIC:1;
#HASBANNER:1;
#MUSICLENGTH:91.376;
// end cache tags

//---------------dance-single - ----------------
#NOTES:
     dance-single:
     :
     Challenge:
     8:
     0.727,1.000,0.558,0.361,0.000,381.000,51.000,33.000,0.000,0.000:
0000
0000
0000
0000
,
0000
0000
0000
0000
,
0000
0000
0000
0000
,
0000
0000
0000
0000
,
0000
0000
0000
0000
,
0020
0032
2003
3002
2003
3200
2300
3002
,
0023
0032
0023
0032
2003
3002
2003
3200
,
2300
3002
0023
0032
0023
0032
2003
3002
,
2003
0100
3100
0000
1000
0001
0011
0000
,
0001
1000
0001
1000
0001
1000
0100
1000
,
0001
0010
0001
0010
0001
0011
0011
0000
,
0001
1000
0001
1000
0100
1100
1100
0000
,
1000
0001
0010
0011
0000
0001
1001
0000
,
0100
1000
0001
1000
0100
1000
0001
0010
,
0001
0010
0001
1000
0001
1000
0100
1000
,
0001
0010
0001
0010
0001
0000
0010
0001
,
0011
0000
1001
0000
1100
1000
0001
1000
,
0010
0000
0001
0010
0001
1000
0001
1000
,
0100
1000
0001
1000
0100
1000
0001
0010
,
0011
0000
0001
1000
0001
0010
0010
0000
,
0010
1000
0100
1000
0010
0001
0100
0001
,
0010
0000
0010
0001
0010
0001
0010
0000
,
0010
0001
0100
0001
1000
0001
1000
0100
,
1000
0010
0000
0011
0001
1000
0001
1000
,
0100
1000
1001
0000
0001
1000
1001
0000
,
0010
1000
1010
0000
0100
1000
1001
0000
,
0100
1000
0001
1000
0100
1000
0001
0010
,
0001
0010
0001
1000
0001
1000
0100
1000
,
1100
0000
1001
0000
0010
0001
0010
0001
,
1000
0001
1000
0001
0010
0001
0010
0011
,
0011
0000
1001
0000
0100
1000
1001
0000
,
1100
0000
1001
0000
0010
0001
0011
0000
,
1001
0000
1100
0000
1000
0001
0020
0000
,
0001
1000
0000
0100
0000
0001
0030
1000
,
0100
1000
0001
1000
0100
1000
0001
0010
,
0001
0000
0020
0000
0001
1000
0130
1000
,
0001
0000
0100
0000
0100
1000
0001
1000
,
0100
1000
0001
0010
0001
0010
0010
0001
,
0000
0010
0010
0000
0010
0000
0001
1000
,
0001
0000
0100
0000
0100
0000
0100
1000
,
0001
0000
0001
0000
0001
0000
0001
0010
,
0001
1000
0001
1000
0100
1000
0001
0010
,
0011
0000
1001
0000
1100
0000
1000
1000
,
1100
0000
1001
0000
0010
0000
0001
0011
,
1001
0000
0100
0000
1001
0000
0010
0001
,
1000
0001
1000
1000
,
0000
1100
0000
1001
0000
0011
0000
1001
,
1000
0000
0100
1000
0001
1000
0100
1000
,
0010
2000
0000
0010
3000
0000
0100
1000
,
0000
1000
0000
0100
1000
0001
1000
0010
,
1000
0100
1000
0001
1000
0001
0010
0001
,
0010
0000
0010
0001
1000
0001
1000
0100
,
2000
0000
0100
3000
1001
1000
0100
1000
,
0020
0000
1000
0000
0130
1000
0001
1000
,
0100
1000
1100
1000
1000
0001
0011
0000
,
1001
0000
0000
1100
0000
1001
0000
0010
,
0001
1000
0001
1000
0100
1000
0000
1100
,
0000
1000
0001
0010
0001
0011
0000
1001
,
0000
0100
1000
0001
2000
0100
3000
1100
,
0000
1000
0001
0010
0001
0011
0000
1001
,
0000
0100
1000
0001
1000
0100
1000
0001
,
0020
0000
0001
0000
1030
0100
1000
0001
,
0010
0001
0100
0000
0001
1000
0001
0010
,
0001
1000
0001
0000
0100
0000
0100
0100
,
2000
3000
0000
0000
0000
0000
0000
0000
0000
0000
0000
0000
0000
0000
0000
0000
0000
0000
0000
0000
0000
0000
0000
0000
0000
0000
0000
0000
0000
0000
0000
0000
0000
0000
0000
0000
0000
0000
0000
0000
0000
0000
0000
0000
0000
0000
0000
0000
0000
0000
0000
0000
0000
0000
0000
0000
0000
0000
0000
0000
0000
0000
0000
0000
0000
0000
0000
0000
0000
0000
0000
0000
0000
0000
0000
0000
0000
0000
0000
0000
0000
0000
0000
0000
0000
0000
0000
0000
0000
0000
0000
0000
0000
0000
0000
0000
0000
0000
0000
0000
0000
0000
0000
0000
0000
0000
0000
0000
0000
0000
0000
0000
0000
0000
0000
0000
0000
0000
0000
0000
0000
0000
0000
0000
0000
0000
0000
0000
0000
0000
0000
0000
0000
0000
0000
0000
0000
0000
0000
0000
0000
0000
0000
0000
0000
0000
0000
0000
0000
0000
0000
0000
0000
0000
0000
0000
0000
0000
0000
0000
0000
0000
0000
0000
0000
0000
0000
0000
0000
0000
0000
0000
0000
0000
0000
0000
0000
0000
0000
0000
0000
0000
0000
0000
0000
0000
0000
0000
0000
0000
0000
0000
;
