#TITLE:In Your Face;
#SUBTITLE:;
#ARTIST:Children Of Bodom;
#TITLETRANSLIT:;
#SUBTITLETRANSLIT:;
#ARTISTTRANSLIT:;
#CREDIT:;
#BANNER:In Your Face Banner.JPG;
#BACKGROUND:In Your Face BG.JPG;
#LYRICSPATH:;
#CDTITLE:Drunk Link.png;
#MUSIC:05. In Your Face.ogg;
#OFFSET:-0.120;
#SAMPLESTART:100.200;
#SAMPLELENGTH:12.000;
#SELECTABLE:YES;
#BPMS:0.000=230.103;
#STOPS:352.000=0.020
,576.000=0.020
,704.000=0.020
,848.000=0.020
;
#BGCHANGES:;
// cache tags:
#FIRSTBEAT:0.000;
#LASTBEAT:967.000;
#SONGFILENAME:Songs/lvsb tourney pack/In Your Face/In Your Face.sm;
#HASMUSIC:1;
#HASBANNER:0;
#MUSICLENGTH:255.346;
// end cache tags

//---------------dance-single - Copied from Copied f----------------
#NOTES:
     dance-single:
     Copied from Copied f:
     Hard:
     11:
     1.000,1.000,1.000,1.000,0.278,1440.000,332.000,488.000,0.000,7.000:
1000
0001
1000
0001
0000
0100
0001
0100
,
0001
0100
0001
0000
1010
1010
0000
0000
,
0010
1000
0100
1000
0000
1000
0000
1000
,
0000
0001
0010
0001
1100
1100
0000
0000
,
0100
1000
0100
1000
0000
0100
0010
0001
,
0010
1000
0100
0000
0011
0011
0000
0000
,
0010
0001
0100
0010
0000
0001
0000
0100
,
0000
1000
0001
1000
0011
0011
0000
0000
,
1000
0100
0001
1000
0101
0010
0100
1000
,
0001
0100
0001
0100
1010
0001
1000
0100
,
1000
0001
0100
0001
0110
1000
0001
0010
,
0100
0001
1000
0100
0011
1000
0001
0010
,
1000
0010
0001
1000
0110
0001
0010
1000
,
0100
0010
0001
0010
1100
0001
0000
0000
,
0011
0000
1100
0011
0000
0011
0000
0010
,
0000
1000
0010
1000
0101
0101
0000
0000
,
2001
0100
0010
0100
0001
0010
0100
3001
,
0100
0010
0001
0000
1001
1001
0000
0000
,
0100
1000
0010
1000
0000
0101
0000
0101
,
0000
0100
1000
0100
1001
1001
0000
0000
,
0100
0010
1000
0010
0000
0010
0100
1000
,
0001
0100
0001
0000
0011
0011
0000
0000
,
0010
0100
0010
0100
0010
1000
0010
1000
,
0010
0001
0010
0001
0100
0001
1000
0010
,
2002
3003
0000
0000
0000
0000
0000
0000
0100
0000
0000
0000
0000
0000
0000
0000
1000
0000
0000
0000
0000
0000
0000
0000
0001
0000
0000
0000
0000
0000
0000
0000
0100
0000
0000
0000
0000
0000
0000
0000
1000
0000
0000
0000
0000
0000
0000
0000
0010
0000
0000
0000
0000
0000
0000
0000
0001
0000
0000
0000
0000
0000
0000
0000
,
1000
0100
1000
0010
0001
1000
0001
0010
,
1000
0100
0001
1000
0010
0001
1000
0010
,
1000
0001
0100
1000
0010
0001
0100
0001
,
0100
1000
0010
1000
0001
0010
0100
1000
,
0100
0001
0010
1000
0010
0001
0100
0001
,
1000
0100
1000
0001
0010
1000
0001
0010
,
0100
0010
1000
0100
1000
0001
0010
1000
,
0202
0000
0000
0303
,
0022
0000
0000
0033
,
0220
0000
0000
0330
,
2002
0000
0000
3003
,
2200
0000
0000
3300
,
0202
0000
0000
0000
0000
0000
0000
0303
,
2020
0000
0000
0000
0000
3030
0000
1000
,
0202
0303
0010
1000
0100
0010
0001
0100
,
2000
3200
0320
0032
,
2003
0000
3100
0000
0001
0010
0100
0001
,
2000
3200
0320
0032
,
0103
1000
0010
0100
0001
0100
1000
0010
,
0002
0023
0230
2300
,
3002
0000
0013
0000
0100
1000
0100
0010
,
0002
0023
0230
2300
,
3001
0000
0000
0000
0001
0000
0000
0000
1000
0100
0010
0001
1000
0100
0010
0000
,
2000
3200
0320
0032
,
2003
0000
3200
0000
0310
0001
0100
0010
,
2000
3200
0320
0031
,
0100
0001
0010
1000
0100
0001
0010
1000
,
0001
1000
0010
0100
0001
1000
0010
0100
0001
1000
0010
0100
,
0001
1000
0010
0100
0001
1000
0010
0100
0001
1000
0010
0100
,
0001
1000
0010
0100
0001
1000
0010
0100
0001
1000
0010
0100
,
0002
0000
0000
0003
,
2020
3030
2200
3300
0220
0330
0022
0033
,
2002
3003
2020
3030
0202
0000
0303
0010
,
1000
0100
0001
0100
0000
0010
0001
0100
,
1000
0010
0001
1000
0220
0330
2002
3003
,
2200
3300
0010
0100
2002
3003
0010
1000
,
0022
0033
0010
0100
2002
0000
3003
0010
,
0100
0010
1000
0100
0000
0010
0100
1000
,
0100
1000
0001
0010
0100
0010
1000
0010
,
2002
3003
0220
0330
1001
0100
0010
0001
,
0220
0330
2020
3030
0220
0000
0330
0000
,
1000
0001
1000
0100
0000
0001
0100
0010
,
0100
1000
0110
0001
1100
0010
0101
1000
,
0220
0330
0001
1000
2002
0000
3003
0000
,
0022
0033
2020
3030
0202
0303
0000
0000
,
1000
0001
0100
0001
0000
0010
0100
0010
,
1000
0000
0001
1000
0100
0000
0010
0000
1000
0000
0100
0000
0010
0000
0001
0000
,
1010
0000
2002
3003
0100
0010
2002
0000
,
3003
0000
0202
0303
1000
0100
2002
3003
,
0000
1000
0001
1000
0220
0330
2002
3003
,
0100
0010
0100
0010
2002
3003
0220
0330
,
0000
0000
2020
3030
0220
0330
0202
0303
,
0000
0000
1010
0100
0010
0001
0220
0330
,
0000
0000
0202
0303
0220
0330
0001
0100
,
2020
3030
0100
0022
0033
0100
0001
1000
,
0220
0330
2002
3003
0010
0100
2002
3003
,
2200
3300
0220
0330
0010
0001
2020
0000
,
3030
0000
2002
3003
0220
0330
1000
0001
,
2020
3030
0022
0033
0100
0010
2200
3300
,
0000
0000
0202
0303
2020
3030
0220
0330
,
0000
0000
2020
3030
0202
0303
0220
0330
,
0000
0000
2020
3030
0220
0330
2020
3030
,
0202
0303
2200
3300
0220
0330
2002
3003
,
2001
0020
0230
0320
,
0032
0000
0203
0000
0310
0001
0010
0100
,
0010
0200
0302
3023
,
0031
0100
0010
0100
0001
0100
1000
0010
,
2000
3200
0320
0032
,
2003
0000
3200
0000
0310
0001
1000
0001
,
2000
3200
0320
0031
,
1100
0000
0000
0000
1100
0000
0000
0000
1000
0100
0010
0001
1000
0100
0010
0000
,
1000
0100
1000
0010
0200
0000
0301
0000
,
1001
0000
1000
0010
1001
1001
0000
0000
,
0011
1000
0100
0010
0200
0000
1300
0000
,
0011
0000
1000
0100
0011
0011
0100
0010
,
1000
0100
0010
0001
2000
0000
3100
0000
,
1000
0100
0010
0001
0020
0000
0130
0000
,
1000
0100
0010
0001
2000
0000
3001
0000
,
0001
0000
0000
0000
0000
0000
0000
0000
0000
0000
0000
0000
0000
0000
0000
0000
1000
0000
0000
0000
0000
0000
0000
0000
0000
0000
0000
0000
0000
0000
0000
0000
0010
0000
0000
0000
0000
0000
0000
0000
0000
0000
0000
0000
0000
0000
0000
0000
0100
0000
0000
0000
0000
0000
0000
0000
0000
0000
0000
0000
0000
0000
0000
0000
0001
0000
0000
0000
0000
0000
0000
0000
0000
0000
0000
0000
0000
0000
0000
0000
1000
0000
0000
0000
0000
0000
0000
0000
0000
0000
0000
0000
0000
0000
0000
0000
0010
0000
0000
0000
0000
0000
0000
0000
0000
0000
0000
0000
0000
0000
0000
0000
0000
0000
0000
0000
0000
0000
0000
0000
0000
0000
0000
0000
0000
0000
0000
0000
0000
0000
0000
0000
0000
0000
0000
0000
0000
0000
0000
0000
0000
0000
0000
0000
0220
0000
0000
0330
0000
0000
0000
0000
0000
0000
0000
0000
0000
0000
0000
0000
0000
0000
0000
0000
0000
0000
0000
0000
0000
0000
0000
0000
0000
0000
0000
0000
0000
0000
0000
0000
0000
0000
0000
0000
0000
0000
0000
0000
0000
0000
0000
0000
,
1001
0010
1000
0100
2002
3003
0220
0330
,
1000
0100
0010
0001
0100
0010
0100
0001
,
1000
0001
0100
0010
0000
0100
0010
1000
,
0100
0001
0100
0010
1000
0000
0110
0001
,
0100
0010
1000
0100
0022
0033
2020
3030
,
0100
0010
2002
3003
0220
0000
0330
0000
,
1000
0001
0100
0010
0000
0001
1000
0100
,
0010
1000
0001
0010
0100
0010
2002
3003
,
0220
0330
2002
3003
0022
0033
2200
3300
,
0202
0303
2020
3030
0220
0000
0330
0000
,
0100
0010
1000
0100
0000
0001
0100
0010
,
1000
0100
1001
0100
0011
0100
2002
3003
,
2200
3300
0010
1000
0000
0010
0100
0010
,
2002
3003
0220
0330
0202
0303
0000
0000
,
0010
1000
0001
0100
0000
0010
0100
1000
,
0100
0001
0100
1000
0010
0100
0001
1000
,
0010
1000
0010
0100
0000
0001
0100
0010
,
1000
0100
0010
0000
1001
1001
0000
0000
,
1000
0100
0001
1000
0000
0100
0000
0100
,
0000
0010
1001
0000
1001
2002
3003
0000
,
2002
3003
0000
0000
0000
0000
0000
0000
0100
0000
0000
0000
0000
0000
0000
0000
0010
0000
0000
0000
0000
0000
0000
0000
0001
0000
0000
0000
0000
0000
0000
0000
0110
0000
0000
0000
0000
0000
0000
0000
1000
0000
0000
0000
0000
0000
0000
0000
0001
0000
0000
0000
0000
0000
0000
0000
0010
0000
0000
0000
0000
0000
0000
0000
,
1000
0100
1000
0000
0011
0011
0000
0000
,
1100
0010
0001
0100
0001
1000
0011
0100
,
0010
0001
1000
0100
1001
0100
0010
0100
,
0011
0000
2200
3300
0202
0303
0000
0000
,
1001
0000
2200
3300
0202
0303
0000
0000
,
1001
0000
1100
0000
0100
0001
0000
2200
,
3300
0000
0220
0330
1001
0000
1001
2002
,
3003
0000
2020
3030
0202
0303
0220
0330
,
1001
0000
0022
0033
0100
1000
0000
0000
,
0101
0000
1000
0100
0010
0000
1000
0220
,
0000
0330
0010
0100
1000
0202
0000
0303
,
0000
0000
1000
0001
2200
3300
0010
0000
,
0110
0000
2002
3003
0220
0330
0000
0000
,
0110
0000
2002
3003
0202
0303
0010
2200
,
3300
0000
2002
3003
2020
3030
0000
0000
,
1001
0000
0010
0100
2002
3003
0000
0000
,
0000
0000
2002
3003
0220
0330
0000
0000
,
0000
0000
2200
3300
2020
3030
0220
0330
,
0202
0303
0022
0033
2002
0000
3003
0000
,
0202
0303
0000
1000
0001
1000
0010
1000
,
0001
1000
0100
1000
0001
1000
0010
1000
,
0202
0303
2002
3003
0100
0010
1000
0001
,
0100
0010
1000
0100
0001
0100
0010
0100
,
0001
0000
0000
1000
0010
0100
0001
0000
0000
1000
0001
0100
,
0010
0000
0000
0001
1000
0010
0100
0000
0000
1000
0010
0100
,
0001
0010
0100
1000
0100
0010
0001
0010
0100
1000
0100
0010
0001
0010
0100
1000
,
0100
0010
0001
0010
0100
1000
0100
0010
0001
0010
0100
1000
0100
0010
0001
0000
,
1100
0000
1001
0000
1000
0010
0100
0001
,
0100
0000
0000
0000
0010
0000
0000
0000
1000
0000
0000
0000
0100
0000
0000
0000
1001
0000
0000
0000
0000
0000
0000
0000
0000
0000
0000
1001
0000
0000
0000
0000
,
0000
0000
0000
0000
0000
0000
0000
0000
0000
0101
0000
0000
0000
0000
0000
0000
0000
0000
0000
1010
0000
0000
0000
0000
0000
0000
0100
0000
0000
0000
0000
0000
,
0010
0000
1000
0001
1000
0010
0100
0000
,
0001
1000
0010
0100
0001
1000
0010
0100
0001
1000
0010
0100
,
0001
1000
0010
0100
0001
1000
0010
0100
0001
1000
0010
0100
,
2002
3003
0000
0220
0330
0000
2020
3030
,
0000
0022
0033
0000
2200
3300
2002
3003
,
2100
0000
0000
0000
3001
0010
1000
0100
,
0010
0001
0010
0100
1000
0100
0010
0001
,
2010
0000
0000
3001
0010
0100
0001
1000
,
0100
0010
0001
0100
0010
1000
0001
0100
,
0001
1000
0100
0010
1000
0100
0001
0100
,
0010
0100
1000
0010
0001
1000
0010
0100
,
0002
0000
0000
0003
0000
0000
1000
0100
0010
0001
0010
0100
,
1000
0100
0010
0001
0010
0100
1000
0100
0010
0001
0010
0000
,
1000
0100
0010
0001
0010
0100
1000
0100
0010
0001
0010
0100
1000
0100
0010
0001
,
0010
0100
1000
0100
0010
0001
0010
0100
1000
0100
0010
0001
0010
0100
1000
0100
,
0020
0000
0000
0000
0031
1000
0001
0010
,
0100
0010
1000
0100
0001
0100
0001
1000
,
0100
0010
0100
1000
0001
0010
0100
1000
,
0010
1000
0100
1000
0001
0010
0100
0001
,
0020
0000
1030
0001
1000
0001
0100
0010
,
0100
0001
1000
0001
0100
0010
0100
1000
,
0202
0303
0000
0000
0000
0000
0000
0000
0000
0000
0000
0000
0000
0000
0000
0000
1000
0000
0000
0000
0000
0000
0000
0000
0010
0000
0000
0000
0000
0000
0000
0000
0100
0000
0000
0000
0000
0000
0000
0000
0010
0000
0000
0000
0000
0000
0000
0000
2002
0000
0000
0000
0000
0000
0000
0000
3003
0000
0000
0000
0000
0000
0000
0000
,
0220
0330
0000
0000
0000
0000
0000
0000
0000
0000
0000
0000
0000
0000
0000
0000
2002
0000
0000
0000
0000
0000
0000
0000
3003
0000
0000
0000
0000
0000
0000
0000
0010
0000
0000
0000
0000
0000
0000
0000
0100
0000
0000
0000
0000
0000
0000
0000
2002
0000
0000
0000
0000
0000
0000
0000
3003
0000
0000
0000
0000
0000
0000
0000
,
0000
0100
0010
0100
2002
3003
0101
1000
,
0001
0010
0100
0010
0202
0303
2020
3030
,
0000
0000
2020
3030
0220
0330
0202
0303
,
0000
0000
1010
0100
0010
0001
0220
0330
,
0000
0000
0202
0303
0220
0330
0001
0100
,
2020
3030
0100
0022
0033
1000
0100
0001
,
0220
0330
2002
3003
0010
0100
2002
3003
,
2200
3300
0220
0330
0010
0001
2020
0000
,
3030
0000
2002
3003
0220
0330
1000
0001
,
2020
3030
0022
0033
0100
0010
2200
3300
,
0000
0000
0202
0303
2020
3030
0220
0330
,
0000
0000
2020
3030
0202
0303
0220
0330
,
0000
0000
2020
3030
0220
0330
2020
3030
,
0202
0303
2200
3300
0220
0330
2002
3003
,
0001
1000
0010
0100
0001
1000
0010
0100
0001
1000
0010
0100
,
0001
1000
0010
0100
0001
1000
0010
0100
0001
1000
0010
0100
,
0001
1000
0010
0100
0001
1000
0010
0100
0001
1000
0010
0100
,
0001
0010
0100
1000
0100
0010
0001
0010
0100
1000
0100
0010
0001
0000
0000
0000
,
2000
3200
0320
0032
,
0023
0000
0000
0130
0000
0000
1000
0010
1000
0001
1000
0010
,
0200
0320
0230
1300
,
1001
0000
0000
0000
1001
0000
0000
0000
1000
0100
0010
0001
1000
0100
0010
0000
,
1000
0100
1000
0010
0200
0000
0301
0000
,
1001
0000
1000
0010
1001
1001
0000
0000
,
0011
1000
0100
0010
0200
0000
1300
0000
,
0011
0000
1000
0100
0011
0011
0100
0010
,
1000
0100
0010
0001
2000
0000
3100
0000
,
1000
0100
0010
0001
0020
0000
0130
0000
,
1000
0100
0010
0001
2000
0000
3001
0000
,
2002
0000
0000
3003
,
1000
0100
0001
0010
0101
1000
0100
0010
,
1000
0001
0010
0000
0110
0110
0000
0000
,
0010
0100
1000
0100
0011
1000
0010
0100
,
0010
0000
1001
0000
1001
2002
3003
0000
,
2002
3003
0000
0000
0000
0000
0000
0000
0100
0000
0000
0000
0000
0000
0000
0000
0010
0000
0000
0000
0000
0000
0000
0000
0001
0000
0000
0000
0000
0000
0000
0000
0110
0000
0000
0000
0000
0000
0000
0000
1000
0000
0000
0000
0000
0000
0000
0000
0001
0000
0000
0000
0000
0000
0000
0000
0010
0000
0000
0000
0000
0000
0000
0000
,
1000
0100
1000
0000
0101
0101
0000
0000
,
1010
0100
0001
1100
0001
1000
0011
0100
,
0010
0001
0010
0100
1001
0100
0010
0100
,
0010
1000
0010
0100
0001
1000
0100
0001
,
0100
0010
1000
0001
0100
0010
1000
0001
,
0100
0001
0100
1000
0010
0100
0001
1000
,
0010
0100
0001
1000
0100
0010
0100
0010
,
2002
3003
0000
0000
0000
0000
0000
0000
0010
0000
0000
0000
0000
0000
0000
0000
0100
0000
0000
0000
0000
0000
0000
0000
0001
0000
0000
0000
0000
0000
0000
0000
0100
0000
0000
0000
0000
0000
0000
0000
0010
0000
0000
0000
0000
0000
0000
0000
1000
0000
0000
0000
0000
0000
0000
0000
0100
0000
0000
0000
0000
0000
0000
0000
,
0001
0100
0010
1000
0001
1000
0100
0010
,
1000
0001
0100
0011
0000
0011
1000
0010
,
1100
1100
0010
0001
1010
1010
0001
1000
,
0202
0303
0000
0000
0000
0000
0000
0000
0000
0000
0000
0000
0000
0000
0000
0000
2200
0000
0000
0000
0000
0000
0000
0000
3300
0000
0000
0000
0000
0000
0000
0000
0202
0000
0000
0000
0000
0000
0000
0000
0303
0000
0000
0000
0000
0000
0000
0000
0000
0000
0000
0000
0000
0000
0000
0000
0000
0000
0000
0000
0000
0000
0000
0000
,
1001
0000
2200
3300
0202
0303
0000
0000
,
1001
0000
1100
0000
0100
0001
0000
2200
,
3300
0000
0220
0330
1001
0000
1001
2002
,
3003
0000
2020
3030
0202
0303
0220
0330
,
1001
0000
0022
0033
0100
1000
0000
0000
,
0101
0000
1000
0100
0010
0000
1000
0220
,
0000
0330
0010
0100
1000
0202
0000
0303
,
0000
0000
1000
0001
2200
3300
0010
0000
,
0110
0000
2002
3003
0220
0330
0000
0000
,
0110
0000
2002
3003
0202
0303
0010
2200
,
3300
0000
2002
3003
2020
3030
0000
0000
,
1001
0000
0010
0100
2002
3003
0000
0000
,
0000
0000
2002
3003
0220
0330
0000
0000
,
0000
0000
2200
3300
2020
3030
0220
0330
,
0202
0303
0022
0033
2002
0000
3003
0000
,
1000
0001
1000
0001
0000
1001
0000
0110
,
0000
0110
1001
0000
1001
2002
3003
0000
;
