#TITLE:Move Ova 4 SuperNOVA;
#SUBTITLE:;
#ARTIST:DJ Mofo;
#TITLETRANSLIT:;
#SUBTITLETRANSLIT:;
#ARTISTTRANSLIT:;
#CREDIT:;
#BANNER:Move Ova 4 SuperNOVA.png;
#BACKGROUND:Move Ova 4 SuperNOVA bg.png;
#LYRICSPATH:;
#CDTITLE:;
#MUSIC:MoveOva4Supanova XVID.mp3;
#OFFSET:0.000;
#SAMPLESTART:100.000;
#SAMPLELENGTH:12.000;
#SELECTABLE:YES;
#BPMS:0.000=67.500,37.000=133.600,38.000=133.200,244.000=133.140,246.000=132.940;
#STOPS:;
#BGCHANGES:0.000=MoveOva4Supanova XVID.avi=1.000=1=1=0,
99999=-nosongbg-=1.000=0=0=0 // don't automatically add -songbackground-
;
// cache tags:
#FIRSTBEAT:38.000;
#LASTBEAT:372.000;
#SONGFILENAME:Songs/dragon force/super nova/Move Ova For SuperNOVA.sm;
#HASMUSIC:1;
#HASBANNER:1;
#MUSICLENGTH:218.383;
// end cache tags

//---------------dance-single - ----------------
#NOTES:
     dance-single:
     :
     Hard:
     1:
     0.531,0.639,0.302,0.000,0.577,745.000,66.000,0.000,0.000,0.000:
0000
0000
0000
0000
,
0000
0000
0000
0000
,
0000
0000
0000
0000
,
0000
0000
0000
0000
,
0000
0000
0000
0000
,
0000
0000
0000
0000
,
0000
0000
0000
0000
,
0000
0000
0000
0000
,
0000
0000
0000
0000
,
0000
0000
1000
0001
,
1000
0000
0001
0100
0001
0000
0000
0000
0010
0000
0000
0000
0100
0000
0001
0000
,
0010
0100
0010
0000
1000
0000
0100
0000
0010
0000
0000
0000
0001
0000
1000
0000
,
0001
0100
0010
0000
1010
0000
1001
0000
,
0101
0000
0000
0000
1001
0000
0000
0000
1001
0000
0000
0001
0000
1000
0100
0000
,
0010
0000
1000
0001
0000
0100
0000
0000
0011
0000
0000
0100
0000
0001
1000
0000
,
0100
0000
0010
0100
0000
0110
0000
0000
1010
0000
0000
0001
0000
1000
0010
0000
,
0100
0000
0001
0010
0000
0100
0000
0000
1000
0001
1000
0000
0100
0000
0010
0000
,
0001
0000
1000
0001
0000
0010
0000
0000
0100
0000
0010
0000
0100
1000
0000
0001
,
0000
0010
0001
0000
0100
0000
0000
0000
0010
0000
0100
0000
0010
0001
0000
1000
,
0000
0100
1000
0000
0010
0000
0000
0000
1000
0001
1000
0000
0100
0000
0011
0000
,
0100
0010
0100
0001
0000
1000
0000
0000
0100
0000
0000
1010
0000
0000
0101
0000
,
0010
0000
1000
0000
0001
0000
0100
0000
0110
0000
1000
0000
0100
0000
0010
0001
,
0100
0001
0010
0100
0000
0000
1000
0000
0001
1000
0001
0100
0001
0000
0010
0100
,
0010
0000
1000
0001
0010
0000
1000
0000
0100
0000
0001
0000
0100
0000
1000
0000
,
0010
0000
0100
0010
0000
0100
0000
0000
0001
0000
1000
0000
0100
0000
0010
0000
,
1000
0100
0001
1000
0100
1000
0000
0000
1000
0001
0010
0001
0100
0000
0010
0000
,
1100
0000
0001
0100
0000
0000
0010
0000
1001
0100
0010
0100
0000
0000
0001
0100
,
0010
0100
1000
0001
0000
0000
0100
0000
0011
0000
1000
0100
0000
0010
0100
0000
,
0001
1000
0001
0000
0100
0000
0010
0000
1000
0000
0100
0000
0001
0000
0100
0000
,
1000
0000
0001
0000
0100
0000
0010
0000
1000
0100
1000
0100
0001
0100
0001
0100
,
0010
0100
0010
0100
0010
0000
1000
0000
0001
0100
0010
0000
0110
0000
1001
0000
,
0100
1000
0100
0000
0011
0000
1100
0000
0100
0000
0001
0000
0010
0000
0100
0000
,
1000
0000
0010
0100
0000
0000
0100
0000
0010
0000
0100
0000
1000
0000
0001
0100
,
0000
0010
0000
1000
0000
0010
0100
0001
1000
0100
1000
0100
1000
0000
0001
0000
,
0010
0100
0001
0010
1000
0000
0100
0000
0010
0001
0100
0000
0010
0000
0100
0010
,
1000
0001
0100
0001
0010
0000
1000
0000
0100
0000
0010
0000
0001
0000
0010
0000
,
0100
0000
0010
0000
1000
0000
0001
0100
0010
0100
1000
0100
0001
0100
0010
0000
,
0101
0000
0010
0001
0000
1000
0000
0000
1001
0000
0000
0100
0000
0010
0100
0000
,
0001
0000
0100
0010
0000
1000
0000
0000
0110
0000
0000
0010
0000
0100
0010
0000
,
1000
0000
0001
0010
0000
1000
0000
0000
0011
0000
0000
0100
0000
1000
0001
0000
,
0010
0000
0100
0010
0000
0110
0000
0000
1000
0100
1000
0100
0001
0000
0010
0000
,
0100
0000
0010
0100
0000
1100
0000
0000
0001
0000
0000
0100
0000
0010
0100
0000
,
0001
0000
0010
0100
0000
1000
0000
0000
0010
0000
0000
0100
0000
1000
0000
0001
,
0000
0100
0010
0000
0100
0000
0000
0000
0001
0000
0100
0000
0001
0000
0010
0000
,
0100
0010
0100
1000
0000
0001
0000
0000
0010
0000
0000
0110
0000
0000
0100
0000
,
1000
0000
0001
0000
1000
0000
0100
0000
0010
0100
0010
0000
0001
0000
1000
0000
,
0100
0000
0010
0100
0000
0000
0000
0000
1000
0100
1000
0100
0001
0100
0001
0100
,
0010
0000
0100
0000
0110
0000
0000
0000
1000
0000
0100
0010
0000
0100
0000
0001
,
0010
0000
0100
0000
0110
0000
0000
0000
0010
0000
0100
0001
0000
1000
0000
0000
,
1010
0000
1001
0000
0101
0000
0000
0000
1000
0100
1000
0000
0010
0000
0001
0000
,
0100
0000
0001
0010
0000
0100
0000
0000
1000
0100
1000
0010
0100
0001
0010
0000
,
0100
0000
1000
0010
0000
0110
0000
0000
1001
0000
1001
0000
1001
0000
1001
0000
,
0100
0000
0010
0110
0000
0110
0000
0000
1000
0000
0001
0000
1000
0100
1000
0001
,
0010
0000
0100
0000
0010
0000
0110
0000
0100
0010
0100
0010
0100
0000
0110
0000
,
0001
0100
0001
0100
0001
0000
0101
0000
1000
0100
1000
0100
1000
0000
1100
0000
,
0010
0100
0001
1000
0001
0000
1001
0000
1000
0100
1000
0100
0001
0100
0001
0100
,
0001
0010
0001
0010
0100
0000
1000
0000
0100
0000
0010
0000
0001
0010
0000
0100
,
1000
0000
0100
0000
1000
0000
0001
0000
0100
0010
0000
0001
0000
1000
0000
0100
,
0010
0100
0000
0001
0011
0000
0100
0000
1000
0000
0001
1000
0001
0000
0100
0000
,
0010
0000
0100
0010
0000
0001
0000
1000
0100
0000
0010
0000
0001
0000
1000
0000
,
0100
0000
0010
0100
0010
0000
0001
0000
1000
0100
1000
0010
0001
0100
0010
0000
,
1000
0000
0001
0100
0000
0110
0000
0000
0001
0000
0100
0000
0010
0100
0000
1000
,
0000
0001
0100
0000
0010
0000
0000
0000
0100
0000
0000
0010
0000
0001
1000
0000
,
0001
0000
0010
0100
0000
1000
0000
0000
0001
0000
0100
0000
1000
0100
0000
0010
,
0000
0001
0100
0000
0000
0010
0000
0000
1000
0100
1000
0000
0001
0000
0011
0000
,
0100
0000
0010
0100
0000
0110
0000
0000
1000
0000
0000
0001
0000
0100
0010
0000
,
0001
0000
0001
0100
0000
1000
0000
0000
0100
0000
0010
0000
0100
0010
0000
1000
,
0000
0001
0010
0000
0100
0000
0000
0000
1000
0100
0010
0001
0010
0100
1000
0100
,
0110
0000
0000
0101
0000
0000
1100
0000
0110
0000
0100
0000
0010
0000
0100
0000
,
0110
0100
0110
0100
1000
0001
1000
0100
,
0010
0000
0100
0010
0000
0000
0001
0000
1000
0000
0100
0010
0000
0100
0010
0000
,
0001
0000
1000
0001
0000
0100
0010
0000
1000
0000
0001
0010
0001
0100
0010
0000
,
1000
0000
0001
1000
0000
0100
0010
0000
0100
0000
0001
0000
0100
0000
1000
0000
,
0010
0000
0001
0000
0100
0000
0010
0000
0100
0010
0100
0000
0001
1000
0100
1000
,
0010
0100
0010
0000
0110
0000
0101
0000
0100
0010
0100
0000
1000
0100
0001
0000
,
0010
0000
0100
0010
0000
0001
0000
1000
0100
0010
0100
0000
0001
1000
0100
0000
,
0010
0100
0001
1000
0001
0100
0000
0000
0100
0010
0100
0010
0100
0010
0100
0000
,
0010
0000
0100
0010
0000
0110
0000
0000
1001
0000
0000
0100
0000
0010
0100
0000
,
0001
0000
0100
0010
0000
0001
0000
0000
1000
0000
0000
0100
0000
0010
0100
0000
,
0001
0000
0010
0100
0000
0001
0000
0000
1000
0000
0000
0100
0000
0010
0100
0000
,
1000
0000
0001
0100
0000
0010
0000
0000
1000
0100
1000
0000
0001
0100
0001
0010
,
0100
0000
1000
0001
0000
0110
0000
0000
1000
0000
0000
0001
0000
0100
0010
0000
,
0100
0000
1000
0001
0000
0011
0000
0000
0100
0000
0000
1100
0000
0010
0100
0000
,
0001
0000
0010
0100
0000
1100
0000
0000
1000
0001
1000
0001
1000
0000
0100
0000
,
0010
0000
0100
0000
0010
0000
0100
0000
0110
0000
0000
1001
0000
0000
1100
0000
,
0100
0010
0110
1001
0100
0000
0001
0000
,
1000
0000
0100
0010
0100
0000
0000
0000
0001
0000
0000
0000
0010
0000
0000
0000
,
0100
0000
1000
0100
1000
0000
0000
0000
0001
0000
0000
0000
1000
0000
0000
0000
,
0100
0000
0010
0100
0010
0000
0000
0000
0001
0000
0000
0000
0100
0000
0000
0000
,
0010
0000
0100
0010
1000
0000
0000
0000
1000
0000
0000
0000
0001
0000
0010
0100
,
0010
0000
0000
0000
1000
0000
0000
0000
0100
0000
0000
0000
0010
0000
0001
0010
,
0001
0000
0000
0000
1000
0000
0000
0000
0001
0000
0000
0000
0010
0000
0100
0010
,
0100
0000
0000
0000
1000
0000
0000
0000
0010
0000
0000
0000
0100
0000
0010
0100
,
0001
0000
0000
0000
;
