#TITLE:Gaussian Mist Part Two;
#SUBTITLE:;
#ARTIST:Kang;
#TITLETRANSLIT:;
#SUBTITLETRANSLIT:;
#ARTISTTRANSLIT:;
#CREDIT:;
#BANNER:../fallback-bn.png;
#BACKGROUND:../fallback-bg.png;
#LYRICSPATH:;
#CDTITLE:KS.png;
#MUSIC:Gaussian Mist (Part two).ogg;
#OFFSET:-2.178;
#SAMPLESTART:74.490;
#SAMPLELENGTH:11.880;
#SELECTABLE:YES;
#DISPLAYBPM:242.000;
#BPMS:0.000=85.000,60.000=200.000,160.000=242.000,212.000=241.950,214.000=241.960,216.000=241.970,228.000=241.980,230.000=241.990,252.000=242.000,408.000=140.000,409.000=140.100,410.000=140.200,411.000=140.300,413.000=140.400,414.000=140.500,415.000=140.550,416.000=140.600,417.000=140.700,418.000=140.800,419.000=140.900,419.500=141.950,420.000=85.000,452.000=60.000,452.750=1.000;
#STOPS:59.000=0.003
,59.250=0.003
,59.500=0.004
,59.750=0.003
,272.000=0.003
,273.000=0.003
,274.000=0.001
,375.000=0.003
,375.125=0.003
,375.250=0.001
,375.375=0.003
,375.500=0.002
,375.750=0.003
;
#BGCHANGES:;
// cache tags:
#FIRSTBEAT:12.000;
#LASTBEAT:452.750;
#SONGFILENAME:Songs/SSSC PACK/[debit13] - Gaussian Mist 2 {17ft}/Gaussian Mist (part two).sm;
#HASMUSIC:1;
#HASBANNER:1;
#MUSICLENGTH:177.031;
// end cache tags

//---------------dance-single - debit13----------------
#NOTES:
     dance-single:
     debit13:
     Challenge:
     17:
     0.889,1.000,0.401,0.576,0.878,923.000,71.000,102.000,78.000,7.000:

0000
0000
0000
0000
,
0000
0000
0000
0000
,
0000
0000
0000
0000
,
0001
1000
0100
0010
0001
0000
2000
0000
,
3010
0000
0100
0000
0001
0000
0010
0000
0100
0000
0000
0000
0000
0000
1000
0001
,
1000
0010
0100
0001
0010
0000
0200
0000
,
2300
0001
3001
0100
0120
0000
1030
0000
,
MM11
0001
0010
0200
2300
3001
0100
0020
,
0230
0302
2003
3100
0010
0100
1000
0002
,
0023
0230
2300
3010
0100
0010
1000
0200
,
0320
0000
0000
0000
0032
0000
0000
0000
0203
0000
0000
0000
0320
0000
1030
0100
,
0010
0100
1000
0001
0200
0000
0000
0310
,
M11M
0000
0000
0000
0010
0000
0100
0001
MM10
0001
0200
0000
0000
0000
0310
1000
,
0001
0010
0100
0001
0100
0010
0001
0100
,
0010
0000
1000
0000
0002
0000
0000
0000
0013
0000
0000
0000
1MM2
0000
0000
0003
,
0011
0000
0001
1000
0100
0010
0001
0000
1000
0000
0001
0010
0100
1000
0001
0000
,
0101
0000
0010
1000
0001
0100
0010
0000
0100
0000
0001
1000
0010
0100
0001
0000
,
1001
0000
0001
0010
0100
1000
0100
0000
0010
0000
0001
0010
0100
0010
0001
0000
,
1001
0000
0001
0100
0001
0010
0100
0000
1100
0000
0100
0010
0001
0100
0010
0000
,
1001
0000
1000
0010
0100
0010
1000
0000
0100
0000
0010
0001
0100
0001
0010
0000
,
0110
0000
0100
1000
0001
0100
0001
0000
1000
0000
0010
1000
0100
0010
0100
0000
,
0110
0000
0010
0001
1000
0001
0010
0000
0100
0000
1000
0001
0100
0001
1000
0000
,
1100
0000
0100
0010
0001
0100
0010
0000
0110
0000
0100
0001
0010
0100
1000
0000
,
0001
1000
0001
1000
0010
0100
0010
1000
0001
0010
0100
1000
0100
0010
0001
1000
,
0010
0100
0010
0100
0001
0100
0010
1000
0010
0100
0001
1000
0010
0100
0001
1000
,
0100
1000
0001
0010
0001
0100
0010
0100
0001
0010
0100
1000
0010
0100
0010
1000
,
0100
1000
0100
1000
0100
0010
0100
0010
0001
0010
0001
0010
0001
1000
0001
1000
,
0010
0100
0001
0100
0010
1000
0001
0010
0100
1000
0100
0010
0001
1000
0010
0100
,
0010
1000
0001
0010
0100
1000
0100
0010
0001
0100
0010
0100
0001
0010
0100
1000
,
0010
0100
0010
1000
0001
0010
0100
1000
0100
0010
0001
1000
0010
0100
0001
1000
,
0100
1000
0100
1000
0100
0010
0100
0010
0001
0010
0001
0010
0001
1000
0001
1000
,
0010
1000
0010
1000
0010
0100
0010
0100
0001
0100
0001
0100
0001
1000
0001
1000
,
0002
0000
0000
0000
0023
0000
0000
0000
0230
0000
0000
0000
23M0
0000
0000
0000
3001
0000
0000
0000
M200
0000
0000
0000
0320
0000
0000
0000
2030
0000
0000
3000
,
0011
0000
0000
0000
M1M1
0000
0000
0000
0110
0000
0000
1010
0000
0000
0101
0000
,
1002
2003
3020
M230
0310
2000
3M02
0023
,
1130
0000
1000
0100
0010
0000
0M11
0000
1001
0000
1000
0010
0100
0000
M11M
0000
,
0100
0001
0010
0001
0100
0001
0010
0001
0100
0010
1000
0010
0100
0010
1000
0010
,
1000
0001
0010
0001
1000
0001
0010
0001
1000
0100
1000
0001
1000
0100
1000
0001
,
0100
0010
0100
0001
0100
0010
0100
0001
0100
0010
1000
0010
0100
0010
1000
0010
,
0100
0001
0010
0000
010M
1000
0010
0000
0100
0001
0010
0100
1000
0001
1000
0000
,
0010
000M
1110
0000
0M0M
0000
0000
0000
,
0001
M000
0111
M000
0000
0000
0000
0000
,
0001
0010
0001
0010
0001
0010
0001
0010
0100
1000
0100
1000
0100
1000
0100
1000
,
0010
M000
0111
0000
0M0M
0000
0000
0000
,
0010
1011
0000
0000
,
0001
1000
0001
1000
0001
0000
0000
0000
0010
0001
0010
0001
0010
0000
0000
0000
,
0001
00M0
1101
0000
0000
0M0M
0000
0000
,
0010
111M
0000
0000
,
0001
1000
0001
1000
0001
1000
0001
1000
0100
0010
0100
0010
0100
0010
0100
0010
,
0002
MMM0
0000
0000
,
1003
0000
0010
0110
,
0220
0000
0000
0330
,
0102
0000
1000
0003
,
0011
0010
0001
1000
,
0001
0010
0001
1000
,
0010
1000
0001
1000
,
0010
1000
0001
1000
,
0010
0100
0001
0100
,
0010
0100
0001
0100
,
0001
0010
0100
0010
,
0001
0010
0100
0010
,
0001
0100
0010
1000
,
0001
0100
0010
1000
,
0001
0010
0100
1000
,
0001
0010
0100
1000
,
0010
1000
0100
0010
,
0001
1000
0100
0010
,
0001
0100
0010
0100
,
0202
0000
0000
0303
,
0001
0010
0100
1000
0100
0010
0001
0010
0001
0010
0100
1000
0100
0010
0001
0010
,
0001
0100
0010
1000
0010
1000
0010
0100
0001
0100
0010
1000
0010
1000
0010
0100
,
0001
1000
0001
0010
0100
1000
0100
0010
0001
1000
0001
0010
0100
1000
0100
0010
,
0100
1000
0100
1000
0100
0010
0100
0010
0001
0010
0001
0010
0001
1000
0001
1000
,
0001
0100
0010
1000
0010
0100
0001
1000
0010
0100
0001
0100
0010
1000
0001
1000
,
0001
0010
0100
1000
0100
1000
0100
0010
0001
0010
0100
1000
0100
1000
0100
0010
,
0001
0100
0010
1000
0010
1000
0010
0100
0001
0100
0010
1000
0010
1000
0010
0100
,
0010
1000
0010
1000
0100
1000
0100
1000
0010
1000
0010
1000
0010
0100
0010
0100
,
0001
0100
0001
0100
0001
1000
0001
1000
0001
0010
0001
0010
0100
1000
0100
1000
,
0002
0000
0003
0202
0000
0303
2002
0000
,
3003
2020
0000
3030
1100
0000
0011
0000
,
2002
0000
3003
2020
0000
3030
2200
0000
,
3300
2020
0000
3030
1001
0000
0101
0000
,
0220
0000
0330
0202
0000
0303
0220
0000
,
0330
2020
0000
3030
1001
0000
0101
0000
,
2002
0000
3003
2020
0000
3030
0220
0000
,
0330
0202
0000
0303
0110
0000
1010
0000
,
0220
0000
0330
0202
0000
0303
0012
0000
,
1003
0100
0010
0000
M000
0000
0001
0010
0100
0000
000M
0000
1000
0000
0000
0000
,
2020
0000
3030
0220
0000
0330
2010
0000
,
3001
0100
0010
0000
000M
0000
1000
0010
0100
0000
M000
0000
0001
0000
0000
0000
,
0202
0000
0303
0220
0000
0330
0102
0000
,
0103
0010
1000
0000
0000
0000
M100
0010
0001
0000
0000
0000
100M
0000
0000
0000
,
2002
0000
3003
0202
0000
0303
1002
0000
,
1003
0010
0100
0000
000M
0000
0010
0100
0001
0000
0000
0000
1001
0000
0000
0000
,
0001
0010
0001
0010
MM01
0010
0001
0010
0001
1000
0001
1000
0MM1
1000
0001
1000
,
0010
1000
0010
1000
0M1M
1000
0010
1000
0010
0100
0010
0100
M01M
0100
0010
0100
,
0001
1000
0001
1000
0MM1
1000
0001
1000
0100
0010
0100
0010
M10M
0010
0100
0010
,
0100
1000
0100
1000
01MM
1000
0100
1000
0001
0010
0001
0010
MM01
0010
0001
0010
,
0001
1000
0001
1000
0MM1
1000
0001
1000
0010
0100
0010
0100
M01M
0100
0010
0100
,
0001
0100
0001
0100
M0M1
0100
0001
0100
0010
1000
0010
1000
0M1M
1000
0010
1000
,
0001
0010
0001
0010
MM01
0010
0001
0010
0100
1000
0100
1000
01MM
1000
0100
1000
,
0001
0100
0001
0100
M0M1
0100
0001
0100
0010
1000
0010
1000
0M1M
1000
0010
2000
,
0020
0M0M
0000
0000
,
0000
0000
0000
0000
,
0M0M
0000
3030
0000
,
0M0M
0000
0000
0000
0000
0000
0000
0000
0000
0000
0000
0000
0000
0000
1000
0100
,
0010
0001
0010
0100
2000
0000
3000
0001
,
0200
0000
0000
0000
0310
0000
1000
0010
0200
0000
0000
0000
0000
0000
0301
1000
,
0100
0000
1000
0010
0200
0000
0300
0001
,
1000
0100
0010
0001
1000
0000
0100
0000
,
0010
0000
0100
0000
1000
0000
0010
0000
0100
0000
0000
0000
0000
0000
0001
1000
,
0001
0010
0100
1000
0001
0000
1000
0000
,
0010
1000
0100
0010
0002
0000
2003
0000
,
3001
0010
0100
1000
0000
0000
0000
0000
0000
0000
0000
0000
0000
0000
0000
0000
;
