#TITLE:Tight Wad;
#SUBTITLE:;
#ARTIST:Nvoise;
#TITLETRANSLIT:;
#SUBTITLETRANSLIT:;
#ARTISTTRANSLIT:;
#CREDIT:;
#BANNER:tightbanner.png;
#BACKGROUND:tightwad.png;
#LYRICSPATH:;
#CDTITLE:cdtitle.jpg;
#MUSIC:tightwad.mp3;
#OFFSET:-0.110;
#SAMPLESTART:36.060;
#SAMPLELENGTH:16.000;
#SELECTABLE:YES;
#BPMS:0.000=120.000;
#STOPS:;
#BGCHANGES:;
// cache tags:
#FIRSTBEAT:4.000;
#LASTBEAT:214.500;
#SONGFILENAME:Songs/Community Keyboard Megapack - Volume 1/(DanTheMan) Tightwad/tightwad.sm;
#HASMUSIC:1;
#HASBANNER:1;
#MUSICLENGTH:109.066;
// end cache tags

//---------------dance-single - Trick----------------
#NOTES:
     dance-single:
     Trick:
     Medium:
     9:
     0.709,0.735,0.504,0.422,0.381,440.000,55.000,46.000,0.000,0.000:
0000
0000
0000
0000
,
2002
0000
0000
0000
0000
0000
0000
3003
,
1000
0000
0010
0000
1000
0000
0001
1000
0000
0000
0020
0000
0000
0000
1030
0000
,
0001
0000
0010
0000
0001
0000
1000
0100
0000
0000
0000
0002
0000
0000
1000
0003
,
0010
0000
0100
0000
0010
0000
1000
0001
0000
0000
0110
0000
1001
0000
0110
0000
,
0100
0000
0000
0020
0000
0030
1000
0100
0010
0100
1000
0100
0020
0030
1001
0000
,
0100
0010
0001
1000
0100
0000
0001
0000
1000
0100
0010
0100
1000
0000
0010
0000
,
0022
0000
0000
0033
0100
0000
1000
0000
0001
0000
1000
1000
0001
0001
0100
0000
,
1000
0000
0000
0000
0000
0000
0010
0000
0000
0000
0000
0000
0100
0000
0000
0000
0000
0000
1000
0000
0000
0100
0000
0000
0001
0000
0000
0000
0010
0000
0000
0000
0100
0000
0000
0000
0010
0000
0000
0000
0100
0000
0000
0000
1000
0000
0000
0000
,
0001
0000
0100
0000
0001
0000
0100
0020
0000
0000
0000
0030
1000
0010
0100
0000
,
1001
0000
0010
0000
1000
0001
0000
0000
0110
0000
0010
0100
0001
0001
1000
0000
,
1000
0000
0010
0000
0100
0000
0001
0000
1000
0000
0001
0100
0001
0000
1000
0000
,
0000
0100
0101
1000
0000
0010
0011
0100
,
0110
0000
0110
0000
1001
0000
0010
0100
0000
0000
0100
0000
0100
0000
0100
0000
,
1010
0100
0001
1000
0100
0010
0001
1000
,
0011
0100
0010
1000
0001
0100
0010
1000
,
0101
1000
0100
0010
0001
1000
0100
0010
,
1001
0000
0100
0000
0010
0000
1000
0000
0001
0000
0100
0000
0020
0000
0000
0030
,
1001
0010
0011
0100
1100
0010
0101
0010
,
1001
0000
1000
0000
0110
0000
0001
2020
0000
0000
0000
3030
0100
0000
0010
0000
,
0110
0001
1000
0100
0001
0100
0010
0001
,
1000
0001
1000
0001
0100
0000
0010
0100
0000
0000
0000
0000
0100
0001
0100
0000
,
2000
0000
0100
0000
3001
0000
1000
0000
0001
0000
0220
0330
1000
0000
0001
0000
,
0001
0100
0001
1000
0100
1001
0100
1010
,
0001
0000
1000
0000
0010
0000
0000
0010
1000
0000
0010
0000
1001
0000
0010
0000
,
1000
0000
0100
0000
0010
0000
0001
0000
1000
0100
1000
0100
0000
0010
0001
0010
,
0001
0000
0100
0000
0010
0000
1000
0100
0000
0000
0011
0000
1000
0000
1001
0000
,
0110
0000
0100
0000
0001
0000
1000
0100
0000
0000
0101
0000
1000
0010
0100
0000
,
1000
0000
0000
0000
0000
0000
0101
0000
0000
0000
0000
0000
1000
0000
0000
0010
0000
0000
0000
0000
2002
0000
0000
0000
0000
0000
0000
0000
0000
0000
0000
0000
0000
0000
0000
0000
3003
0000
0000
0000
0000
0000
0010
0000
0000
0000
0000
0000
,
1000
0000
0001
0000
0100
0000
1000
0010
1000
0010
1000
0010
1000
0000
0000
0000
0000
0000
1001
0000
0000
0000
0000
0000
,
0110
0001
0000
0000
0011
1000
1000
0100
,
1001
0010
0000
0000
1000
0010
0001
0100
,
0001
0100
0000
0100
0100
0100
1001
0110
,
1000
0100
1000
0100
0000
0000
0010
0001
0010
0001
0000
0000
0100
0010
0100
0010
0000
0000
1000
0010
0100
0001
0000
0000
,
2001
0100
0010
0100
3002
0100
0010
1000
,
0203
1000
0001
0010
0320
1000
0001
0100
,
2030
0001
0100
0010
3002
0010
1000
0010
,
1003
0000
0000
0000
0010
0000
0000
0000
1000
0000
0000
0000
0001
0000
0000
0000
1000
0000
0000
0000
0000
0001
0000
0000
0000
0000
0000
0000
0000
0000
0000
0000
0000
0100
0000
0000
1000
0000
0000
0100
0000
0000
0010
0000
0000
0001
0000
0000
,
0100
0010
0001
1000
0100
0010
1000
0001
,
1000
0000
0001
0000
1000
0001
0100
0020
0000
0000
0100
0000
1000
0030
0001
0000
,
1000
0100
1000
0010
1000
0001
0100
0010
,
1001
0000
0000
0000
0000
0000
0100
0000
0000
0000
0000
0000
0010
0000
0000
0000
0000
0000
1000
0000
0000
0002
0000
0000
0000
0000
0000
0000
0000
0000
1003
0000
0000
0000
0100
0000
0000
0000
0010
0000
0000
0000
0001
0000
0000
0000
0000
0000
,
1000
0000
0010
0000
1000
0000
0010
0022
0000
0000
0000
0000
0033
0000
0100
0000
,
1000
0100
2002
3003
0100
0010
0001
1000
,
1100
0000
0100
0000
0010
0000
1000
0000
0001
0000
2002
0000
0000
3003
0110
0000
,
1000
0000
0100
0000
0001
0000
1000
0100
0010
0001
0010
0001
0010
0100
1000
0100
,
0020
2030
3002
0203
0320
2030
3002
0203
,
0302
0000
0000
2003
0000
0000
3010
0000
0100
0000
0010
0000
1001
0000
0000
0100
0000
0000
0001
0000
0000
1000
0000
0000
,
2010
0001
3010
1000
0001
1000
0010
0010
,
0202
0000
0000
0303
0000
0000
1000
0100
1000
0010
0000
0000
1000
0000
0000
0001
0000
0000
1000
0000
0000
0001
0000
0000
,
0010
0100
0010
1000
0100
0010
0001
1000
,
1001
0000
0010
0000
1001
0000
0010
0010
0000
0000
0220
0000
0000
0000
0000
0330
,
1000
0000
0010
0000
0100
0000
0001
1000
0000
1000
0001
0100
0010
0000
1000
0001
,
0010
0000
0100
0000
0001
0000
1000
0110
0000
0000
0000
0000
0000
0000
0000
0000
;

//---------------dance-single - ----------------
#NOTES:
     dance-single:
     :
     Hard:
     10:
     0.921,0.885,1.000,0.678,0.458,457.000,172.000,74.000,0.000,0.000:
0000
0000
0000
0000
,
0220
0000
0000
0000
0000
0000
0000
0330
,
1100
0000
0010
0000
0101
0000
0010
0100
0000
0000
2020
0000
3030
0000
0202
0303
,
0101
0000
0010
0000
1100
0000
0010
0001
0000
0000
0000
2002
0000
3003
0220
0330
,
0101
0000
0001
0000
1010
0000
0100
0001
0000
0000
1001
0000
0101
0000
1001
0000
,
2000
0000
0000
0000
0000
0000
0000
0000
3000
0002
0000
0000
0000
0000
0000
0003
0000
0000
1000
0000
0000
0100
0000
0000
0010
0000
0000
0001
0000
0000
0010
0000
0000
0100
0000
0000
1000
0000
0000
0000
0000
0000
0110
0000
0000
0000
0000
0000
,
2002
0000
0000
3003
0220
0330
0001
0000
1000
1000
0010
0010
0001
0000
0000
0000
,
0020
0000
0000
0030
1000
0000
0010
0000
0000
0000
1000
1000
0100
0100
0020
0030
,
0200
0000
0000
0000
0000
0000
1000
0000
0000
0300
0000
0000
0001
0000
0000
0000
0000
0000
1000
0000
0000
0100
0000
0000
0001
0000
0000
0000
1000
0000
0000
0000
0100
0000
0000
0000
0010
0000
0000
0000
0001
0000
0000
0000
0010
0000
0000
0000
,
0110
0000
0110
0000
0110
0000
1001
0220
0000
0000
0330
0000
0100
0100
0010
0000
,
1010
0000
0100
0000
1001
0010
0100
0000
1001
0000
0010
0010
0100
0100
1001
0000
,
1010
0000
0100
0000
0011
0000
0010
0000
1010
0000
0100
0100
0001
0000
1010
0000
,
0000
0000
0200
0300
0020
0030
2001
0010
3001
0010
0100
1000
0100
0000
0000
0000
,
2020
3030
0202
0303
2010
0010
3010
0101
0000
0000
0101
0000
1010
0000
0101
0000
,
1010
0010
1100
0001
0110
1000
0101
0010
,
1010
0100
0011
0100
1100
0010
0101
0010
,
1001
0100
0011
1000
1010
0100
0101
0010
,
1001
0000
0010
0000
1010
0000
0100
0000
1001
0000
0010
0000
2002
0000
0000
3003
,
1010
0100
0101
0010
1001
0100
1010
0100
,
1001
0000
0010
0000
1100
0000
0010
2200
0000
3300
0010
0000
1000
0000
0100
0000
,
1001
0010
1100
0010
0101
0010
1010
0100
,
1000
0000
0000
0100
0000
0000
0010
0000
0001
0000
0010
0000
0001
0000
0000
0000
0000
0000
1000
0000
0000
1000
0000
0000
0000
0000
0000
0000
0000
0000
2000
0000
0000
0000
0000
0000
3200
0000
0000
0000
0000
0000
0320
0000
0000
0000
0000
0000
,
2030
0000
0001
3000
0010
0000
1000
0000
0010
0000
1010
0000
0100
0000
0101
0000
,
1010
0000
0100
0000
0101
0000
1000
0010
0000
0000
1001
0000
0000
0000
0101
0000
,
0100
0000
0110
0000
0001
0000
0000
1000
0100
0000
0101
0000
0010
0000
0010
0000
,
0101
0000
0001
0000
0101
0000
0010
0001
1000
0100
1000
0100
0001
0010
0001
0010
,
1010
0000
1010
0000
1010
0000
0101
0101
0000
0000
1010
0000
0101
0000
1100
0000
,
0011
0000
0011
0000
0011
0000
1100
1100
0000
0000
0100
0000
1000
1000
0020
0030
,
1001
0000
0000
0010
0000
0000
0100
0010
0100
0010
0200
0000
0000
0000
0000
0000
0300
0000
0000
0000
0000
0010
0000
0000
,
1000
0000
0100
0000
0010
0000
1000
0100
1000
0100
1000
0100
1000
0000
0000
0000
0000
0000
0110
0000
0000
0000
0000
0000
,
1100
0000
0110
0000
0011
0000
1100
0100
0010
0000
0002
0000
0010
0003
0100
0000
,
1010
0000
0101
0000
1010
0000
0011
0010
0010
0000
0100
0000
1100
0000
0011
0000
,
1100
0000
0000
0101
0000
0000
0010
0000
0100
0000
0010
0000
1001
0000
0000
0100
0000
0000
0100
0000
0000
0100
0000
0000
,
1000
0100
1000
0100
0000
0000
0010
0001
0010
0001
0010
0100
1000
0100
1000
0100
0000
0000
1000
0100
0010
0001
0000
0000
,
2000
0000
0100
0000
0010
0000
0001
0000
0010
3000
0102
0000
1000
0000
0100
0003
,
0201
0000
1000
0000
0010
0000
0001
0000
1000
0300
0021
0000
0100
0000
1000
0030
,
2001
0000
0010
0000
0100
0000
0010
0000
0001
3000
0210
0000
1000
0000
0010
0310
,
1000
0000
0000
0000
0100
0000
0000
0000
0010
0000
0000
0000
0001
0000
0000
1000
0000
0000
0000
0000
0010
0000
0000
0000
0000
0000
0000
0000
0000
0000
0000
0000
0000
0010
0000
0000
0100
0000
0000
0010
0000
0000
0001
0000
0000
0010
0000
0000
,
1100
0100
0011
0010
1100
0100
0011
0100
,
1010
0000
0100
0000
1010
0100
0100
0022
0000
0033
2200
0000
0000
3300
0110
0000
,
1100
0110
0011
0110
1010
0101
0110
1010
,
0110
0000
0000
0000
0000
0000
0001
0000
0000
0001
0000
0000
0001
0000
0000
0000
0000
0000
1000
0000
0000
0110
0000
0000
0000
0000
0000
0000
0000
0000
1000
0000
0000
0000
0100
0000
0000
0000
0010
0000
0000
0000
0001
0000
0000
0000
0000
0000
,
0110
0000
1000
0000
0110
0000
0010
2020
0000
0000
0000
3030
0000
0000
0010
0000
,
1010
0000
0010
0000
2020
0000
3030
0010
0000
0000
0010
0000
0110
0000
0110
0000
,
1000
0000
0100
0000
1001
0000
0010
0000
0110
0000
2020
0000
0000
3030
0100
0000
,
0010
0000
1100
0000
0010
0000
1010
0000
1000
0010
0100
0001
0010
0100
1000
0100
,
2010
3010
1002
0103
1200
0310
1020
1030
,
1200
0000
0000
0000
0000
0000
0301
0000
0000
0000
0000
0000
0110
0000
0000
0000
1100
0000
0000
0000
0011
0000
0000
0000
1010
0000
0000
0000
0000
0000
0001
0000
0000
0000
0000
0000
0120
0000
0000
0000
0000
0000
0100
0000
0000
0030
0000
0000
,
2001
0000
0010
3000
1000
0000
0010
0000
1010
0000
1010
0000
0101
0000
0101
0000
,
2200
0000
0000
0000
0000
0000
0000
0000
0000
3300
0000
0000
1000
0000
0100
0000
1000
0000
0100
0000
0000
0000
0000
0000
0001
0000
0010
0000
0001
0000
0010
0000
0000
0000
0000
0000
1001
0000
0000
0000
0000
0000
0010
0000
0000
0000
0000
0000
,
2000
0000
0010
3000
0102
0000
1000
0003
1200
0000
0010
0310
2001
3000
0120
0030
,
1010
0000
0000
0000
1010
0000
0000
0110
0000
0000
2020
0000
0000
0000
0000
3030
,
1010
0000
0100
0100
1001
0000
0010
0010
0000
0100
0100
0100
1010
0000
0010
0010
,
1100
0000
0110
0000
0101
0000
1001
0220
0000
0000
0330
0000
0000
0000
0000
0000
;

//---------------dance-single - ----------------
#NOTES:
     dance-single:
     :
     Challenge:
     12:
     1.000,1.000,1.000,0.623,0.793,537.000,237.000,68.000,0.000,0.000:
0000
0000
0000
0000
,
2002
0000
0000
0000
0000
0000
0000
3003
,
1010
0000
0100
0000
0011
0000
1100
0110
0000
0000
2020
0000
0000
3030
0202
0303
,
0110
0000
1000
0000
0101
0000
0101
1010
0000
0000
0000
2020
0000
3030
0202
0303
,
1100
0000
0000
0000
0010
0000
0000
0000
0011
0000
0000
0000
0110
0000
0110
0000
0000
0000
0000
0000
1010
0000
0000
0000
0110
0000
0000
0000
0100
0010
0100
0010
,
2000
0000
0000
0000
3000
0000
0001
0010
0001
0010
0001
0000
0100
0000
1000
0000
0100
0000
0010
0000
0001
0000
0001
0000
0010
0000
0010
0000
0010
0000
0010
0000
,
1000
0000
0000
1000
0000
0000
0100
0000
0010
0000
0001
0000
0010
0000
0000
0000
0000
0000
1010
0000
0000
0000
0000
0000
1100
0000
0000
1100
0000
0000
0101
0000
0000
0110
0000
0000
0110
0000
0000
0000
0000
0000
0000
0000
0000
0000
0000
0000
,
2002
0000
0000
3003
0100
0000
0010
0000
0000
0000
0110
0110
0011
0011
0110
0000
,
1000
0000
0000
0000
0000
0000
0010
0000
0000
0000
0000
0000
0100
0000
0000
0000
0000
0000
0010
0000
0000
0010
0000
0000
0010
0000
0000
0000
0101
0000
0000
0000
1010
0000
0000
0000
0101
0000
0000
0000
0110
0000
0000
0000
1001
0000
0000
0000
,
0101
0000
0000
0000
0000
0000
0000
0000
0000
0000
0000
0000
0000
0000
0000
0000
0000
0000
0000
0000
0000
0000
0000
0000
0010
0000
0000
0000
0000
0000
0000
0000
0000
0000
0000
0000
0000
0000
0000
0000
0000
0000
0000
0000
0000
0000
0000
0000
1000
0000
0000
0000
0000
0000
0000
0000
0000
0000
0000
0000
0000
0000
0000
0000
0000
0000
0000
0000
0000
0000
0000
0000
0100
0000
0000
0000
0000
0000
0000
0000
0000
0000
0000
0000
0010
0000
0000
0000
0000
0000
0100
0000
0000
0000
0000
0000
1000
0000
0000
0000
0000
0000
0001
0000
0000
0000
0000
0000
0010
0000
0000
0000
0000
0000
0100
0000
0000
0000
0000
0000
0000
0000
0000
0000
0000
0000
0000
0000
0000
0000
0000
0000
0000
0000
0000
0000
0000
0000
0000
0000
0000
0000
0000
0000
0100
0000
0000
0000
0000
0000
0000
0000
0000
0000
0000
0000
0010
0000
0000
0000
0000
0000
0000
0000
0000
0000
0000
0000
1000
0000
0000
0000
0000
0000
0000
0000
0100
0000
0000
0000
0000
0000
0000
0000
0010
0000
0000
0000
0000
0000
0000
0000
,
0001
0000
0000
0100
0000
0000
0001
0000
0010
0000
0001
0000
1000
0000
0000
0100
0000
0000
0010
0000
0000
0000
0010
0000
0100
0000
1000
0000
0100
0000
0010
0000
0000
0001
0000
0000
0010
0000
0000
0010
0000
0000
0100
0000
0000
0000
0000
0000
,
1100
0000
0000
0000
1000
0100
1000
0100
1000
0000
0000
0000
0100
0000
0000
0000
1010
0000
0000
0000
0110
0000
0110
0000
1001
0000
0000
0000
0100
0010
0001
0010
,
0100
0000
0010
0000
1000
0000
0100
0100
0010
0001
0010
0100
1010
0000
0010
0001
,
1010
0000
0000
0000
0110
0000
0000
0000
0011
0000
0000
0000
1100
0000
0110
0000
0000
0000
0000
0000
2020
0000
0000
3030
0202
0000
0000
0303
2020
0000
0000
3030
,
1100
0000
0110
0001
1010
0000
0110
0001
1100
0000
1100
0010
0101
0000
0110
1000
,
0101
0000
1100
0010
1100
0000
0011
1000
0011
0000
0110
0001
0110
0000
1001
0010
,
1001
0000
1010
0101
1010
0000
0110
1010
0101
0000
1010
0110
0011
0000
1100
0100
,
0110
0000
0000
0000
1100
0000
0000
0000
0011
0000
0000
0000
0110
0000
0000
0000
1010
0000
0000
0000
0101
0000
0000
0000
2002
0000
0000
0000
0000
0000
0000
3003
,
0110
0000
1000
0000
0101
0000
1000
0100
0011
0000
2000
3000
0101
0000
0001
0000
,
1100
0000
0110
0000
0011
0000
1100
0220
0000
0330
1000
0000
0100
0000
0101
0000
,
1100
0000
0011
0000
0100
0000
0100
0010
0001
0000
2000
3000
0011
0000
0100
0000
,
0100
0000
0000
0100
0000
0000
0010
0000
0001
0000
0010
0000
0001
0000
0000
0000
0000
0000
0100
0000
0000
0010
0000
0000
0000
0000
0000
0000
0000
0000
2000
0000
0000
0000
0000
0000
3020
0000
0000
0001
0000
0000
1030
0000
0000
0100
0000
0000
,
0022
0000
0000
0033
1000
0000
0100
0000
0001
0000
0220
0330
1001
0000
0220
0330
,
1010
0000
0100
0000
0101
0000
1000
0100
0000
0000
1001
0100
0010
0000
1001
0000
,
1100
0000
0110
0000
1010
0000
1010
0202
0303
0000
1010
0000
0100
0000
0010
0000
,
1010
0000
0000
0000
1010
0000
0000
0000
0101
0000
0000
0000
1010
0000
0101
0000
1000
0100
1000
0100
1000
0100
0000
0000
0001
0010
0001
0010
0001
0010
0001
0000
,
1100
0000
0101
0000
1010
0000
0110
0110
0000
1000
0010
0000
1010
0000
0101
0000
,
0101
0000
0000
0000
1010
0000
0000
0000
0101
0000
0000
0000
1010
0000
0101
0000
0000
0000
0000
0000
0100
0000
0000
0000
1000
0000
0010
0100
0001
0100
0001
0000
,
1100
0000
0000
0110
0000
0000
1000
0100
0010
0001
0220
0000
0000
0330
0000
0000
0000
0000
0110
0000
0000
1001
0000
0000
,
1000
0000
0000
0000
0100
0000
0000
0000
0001
0000
0000
0000
1000
0000
0010
0000
0100
0000
0001
0000
0010
0000
0100
0000
0000
0000
0000
0000
0000
0000
0100
0000
0000
0100
0000
0000
1001
0000
0000
0000
0000
0000
0000
0000
0000
0000
0000
0000
,
1002
0000
0010
0003
1100
0000
0100
0100
0100
0000
2001
0010
0100
0010
0001
3000
,
2000
0000
0001
3000
0110
0000
0001
0001
1010
0000
0010
0000
0110
0000
1001
0000
,
0101
0000
0000
0010
0000
0000
1100
0000
0110
0000
0011
0000
0110
0000
0000
0100
0000
0000
0100
0000
0000
0100
0000
0000
,
0100
0010
0100
0010
0000
0000
0001
0010
0001
0010
0100
1000
0100
0010
0100
0010
0000
0000
1000
0001
0010
0100
0000
0000
,
2001
0000
0100
0100
0100
0000
0010
0010
0010
3000
1020
1000
1000
0000
1000
1030
,
1200
0000
0010
0010
0010
0000
1000
1000
1000
0300
0102
0100
0100
0000
0010
0013
,
0020
0000
0001
0001
0001
0000
1000
1000
1000
0030
1200
1000
1000
0000
1000
1300
,
1000
0000
0000
0000
0100
0000
0000
0000
0010
0000
0000
0000
1000
0000
0000
0000
0010
0000
0000
0000
1000
0000
0000
0000
0000
0000
0000
0000
0000
0000
0000
0000
0000
1000
0000
0000
0100
0000
0000
0010
0000
0000
0001
0000
0000
0010
0000
0000
,
1001
0100
0011
0100
1100
0010
0101
0010
,
1010
0000
0100
0000
1000
0100
0010
2200
0000
3300
0202
0000
0000
0303
1010
0000
,
1010
0000
0001
0000
1100
0000
0010
1000
0101
0000
0100
0000
0101
0000
0010
0000
,
1100
0000
0000
0000
0000
0000
0200
0000
0000
0300
0000
0000
0011
0000
0000
0000
0000
0000
1100
0000
0000
0110
0000
0000
0000
0000
0000
0000
0000
0000
1000
0000
0000
0000
0100
0000
0000
0000
0010
0000
0000
0000
0001
0000
0000
0000
0000
0000
,
1100
0000
0110
0000
0011
0000
1010
0202
0000
0303
0000
0000
0101
0000
0110
0000
,
0101
0000
0010
0000
2020
0000
3030
0101
0000
0000
1010
0000
1010
0000
1010
0000
,
0110
0000
0101
0000
1010
0000
0101
0000
1010
0000
0202
0000
0000
0303
1010
0000
,
1010
0000
0100
0000
1001
0000
0010
0100
1000
0100
0010
0100
0010
0001
0010
0100
,
1001
0000
0011
0000
1100
0000
0110
0001
1100
0000
0110
0000
0101
0000
0110
0000
,
1100
0000
0000
0110
0000
0000
1000
0000
0110
0000
0011
0000
1000
0000
0000
1100
0000
0000
0101
0000
0000
0110
0000
0000
,
2100
0000
0010
0100
0010
0000
0001
3010
0101
0000
0110
0000
1100
0000
0101
0000
,
1100
0000
0000
0000
0000
0000
1000
0100
1000
0100
0000
0000
0010
0001
0010
0001
0000
0000
1001
0000
0000
0000
0000
0000
,
0120
0000
0001
0030
1100
0000
0110
1001
0110
0000
2000
0000
0010
3000
0001
0000
,
1010
0000
0010
0000
0101
0000
0000
1010
0000
0000
0220
0000
0000
0330
0000
0000
,
1000
0000
0110
0110
1001
0000
0110
0110
0000
0011
0011
0011
1100
0000
0110
0110
,
2020
3030
0202
0303
2020
3030
0110
0110
0000
0000
0000
0000
0000
0000
0000
0000
;
