#TITLE:Ojos Que No Ven;
#SUBTITLE:(Corazon Que No Siente);
#ARTIST:Alexis & Fido;
#TITLETRANSLIT:;
#SUBTITLETRANSLIT:;
#ARTISTTRANSLIT:;
#CREDIT:;
#BANNER:;
#BACKGROUND:;
#LYRICSPATH:;
#CDTITLE:!tizaTitle.png;
#MUSIC:Ojos Que No Ven [Official Remix].ogg;
#OFFSET:-3.040;
#SAMPLESTART:81.701;
#SAMPLELENGTH:13.500;
#SELECTABLE:YES;
#BPMS:0.000=128.000,27.000=32.000,28.000=128.000,76.000=64.000,80.000=128.000,198.000=512.000,200.000=128.000,214.000=512.000,216.000=128.000,232.000=64.000,240.000=63.900,248.000=128.000,280.500=256.000,281.000=128.000,290.000=64.000,291.000=128.000,308.000=64.000,324.000=128.000;
#STOPS:27.750=0.452
,107.000=1.880
,124.000=0.947
,126.000=0.948
,198.000=0.174
,198.500=0.174
,199.000=0.174
,199.500=0.174
,214.000=0.167
,214.500=0.167
,215.000=0.167
,215.500=0.177
,280.000=1.400
,280.500=0.060
,280.750=0.060
;
#BGCHANGES:;
// cache tags:
#FIRSTBEAT:16.000;
#LASTBEAT:356.000;
#SONGFILENAME:Songs/Reggaeton and more/Ojos Que No Ven/Ojos Que No Ven.sm;
#HASMUSIC:1;
#HASBANNER:0;
#MUSICLENGTH:199.495;
// end cache tags

//---------------dance-single - Blank----------------
#NOTES:
     dance-single:
     Blank:
     Challenge:
     11:
     0.733,0.959,0.602,0.120,0.837,837.000,120.000,24.000,0.000,49.000:

0000
0000
0000
0000
,
0000
0000
0000
0000
,
0000
0000
0000
0000
,
0000
0000
0000
0000
,
1000
0100
0010
0100
1000
0010
0100
0001
,
2000
0000
0002
0000
0100
0000
0010
3003
,
0001
0000
0000
0000
0000
0000
0000
0000
0010
0000
0000
0000
0000
0000
0000
0000
0100
0000
0000
0000
0000
0000
0000
0000
0010
0000
0000
0000
0000
0000
0000
0000
0001
0000
0000
0000
0000
0000
0000
0000
1000
0000
0000
0000
0000
0000
0000
0000
0000
0000
1000
0100
0010
0001
0000
0010
0100
0000
1000
0010
0000
0000
0000
0000
,
1001
1000
0010
0100
0001
0010
0001
0100
,
0020
0000
0200
0000
1000
0000
0001
0330
,
1000
0000
0100
0000
1000
0000
0010
0000
0100
0000
0001
0000
1000
0100
1000
0010
,
0100
0000
0100
0010
0000
0010
1000
0000
0000
0000
0011
0000
1100
0000
0000
0000
,
0000
1110
0000
1011
,
0000
0111
0000
1011
,
0000
1110
0000
1011
,
0000
0000
0111
0000
0000
1110
0111
0000
,
0000
1101
0000
0111
,
0000
1101
0000
1110
,
0000
1101
0000
0111
,
1101
1011
1110
0000
,
1100
0000
0000
0000
0010
0000
0000
0000
0101
0000
0000
0000
1000
0000
0000
0000
0001
0000
0010
0000
0100
0000
1000
0000
1100
1000
0100
1000
0010
0100
0001
1000
,
0001
0001
0100
0010
1010
0000
1100
0010
,
0002
0000
0000
0200
0000
0000
0010
0000
1000
0000
0000
0000
1010
0000
0303
0000
,
1100
0010
0101
1000
1100
0000
1000
0010
,
0100
0000
0001
0000
1001
0000
0000
0000
0002
0000
0000
0200
0000
0000
0010
0303
,
1000
0010
1000
0100
0010
0000
0011
0010
,
0110
0000
0000
1001
0000
0000
0110
0000
2002
0000
0000
0000
0100
0000
3003
0000
,
1000
1000
0100
0100
0010
0000
1110
0000
,
1001
0000
1000
0010
0100
0000
0001
0000
0010
0100
0010
0001
0010
0000
0100
0000
,
0001
0100
1000
0000
1000
0010
0100
0001
0100
0010
1000
0100
1000
0000
1100
0000
,
1001
0000
0001
0100
0010
1000
0010
0100
0001
0000
0010
0100
0010
0000
1001
0000
,
1000
0010
1000
0000
0001
0100
0001
0100
0001
0000
0100
0000
0010
0000
1000
0000
,
2002
3003
0000
0000
0000
0000
0000
0000
0000
0000
0000
0000
0000
0000
0000
0000
1000
0000
0000
0000
0000
0000
0000
0000
0000
0000
0000
0000
0000
0000
0000
0000
2200
3300
0000
0000
0000
0000
0000
0000
0000
0000
0000
0000
0000
0000
0000
0000
0001
0000
0000
0000
0000
0000
0000
0000
0000
0000
0000
0000
0000
0000
0000
0000
,
0101
0001
0100
0001
0010
0100
0010
0001
0100
0010
0000
1000
0001
0000
1001
0000
,
1000
0000
0001
0000
0001
0100
0001
0000
1000
0010
1000
0010
0100
0001
0100
0001
,
1000
1001
0001
0101
,
1020
1030
0010
0120
0130
0002
0023
0130
,
1200
1300
0001
0011
0010
0100
0010
0001
,
0102
0000
0013
0000
0200
0300
1020
0030
1001
0000
0000
0000
0000
0000
0000
0000
,
1000
0100
1000
0100
1000
0010
1000
0010
1000
0001
1000
0001
1000
0100
1000
0010
,
1000
0001
1000
0100
0010
0100
1000
0001
0100
0010
0100
0001
0010
0100
1000
0100
,
0010
0001
1000
0100
0010
0001
1000
0010
0100
0001
0010
0001
0100
0010
1000
0100
,
1000
0010
0100
0001
0100
0001
1000
0010
1000
0010
1000
0100
1000
0001
0100
0000
,
0001
0010
0001
0010
0001
1000
0001
1000
0001
0100
0001
0100
0001
0100
0001
1000
,
0001
0010
0100
1000
0100
0010
0001
0100
0010
1000
0100
0010
0100
1000
0010
0100
,
0001
0010
0001
0010
0100
1000
0010
0100
0010
0100
0010
0100
0001
0010
0100
0010
,
0001
1000
0100
0010
0100
1000
0010
0100
0001
0010
0100
1000
0010
0100
0001
0100
,
0110
0000
0000
0000
1100
0000
0110
0000
0011
0000
0000
0000
0001
0010
0100
1000
,
0100
0010
0001
0000
0000
0000
1100
0000
1001
0000
0000
0000
1000
0100
0010
0001
,
0000
0000
1000
0010
0100
0010
1000
0100
0010
0100
1000
0001
0100
0010
0100
0001
,
1000
0100
0010
0001
0010
0100
1000
0010
0100
0000
0001
0000
0010
0000
0100
0000
,
1001
0001
1000
0001
1000
0001
1000
0001
1000
0001
1000
0001
0000
1000
0100
0010
,
0000
0001
0100
0000
0000
1000
0100
0010
0001
0000
1000
0000
1001
0000
0000
0000
,
1000
0100
0010
0001
1000
0100
0010
0001
1000
0100
0010
0001
1000
0000
1001
0000
,
0001
0100
0010
1000
0001
0100
0010
1000
0001
0000
0100
0000
0010
0000
1000
0000
,
1001
0001
0010
0001
0100
0010
1000
0000
0000
0000
1100
0000
1001
0000
0101
0000
,
1000
0100
0010
0100
1000
0100
0010
0000
0000
0000
0001
0000
1000
0000
0001
0100
,
0001
0000
1001
0000
1000
0100
1000
0100
1000
0000
0100
1000
0010
0000
0110
0000
,
0200
0000
0000
0000
0000
0000
0000
0000
0000
0002
0000
0000
0000
0000
0000
0000
0000
0000
0010
0000
0000
0000
0000
0000
0303
0000
0000
0000
0000
0000
0101
0000
0000
0000
0000
0000
1010
0000
0000
0000
0000
0000
0110
0000
0000
0000
0100
0000
,
0010
0000
0000
0000
0000
0000
0000
0000
0000
0000
0000
0000
1001
0000
0000
0000
0000
0000
0000
0000
0000
0000
0000
0000
1000
0000
0000
0000
0000
0000
0000
0000
0000
0000
0000
0000
0010
0000
0000
0000
0000
0000
0100
0000
0000
0000
0000
0000
0000
0000
0000
0000
0000
0000
0001
0000
0000
0000
0000
0000
0000
0000
0000
0000
0000
0000
0100
0000
0000
0000
0000
0000
0010
0000
0000
0000
0000
0000
0000
0000
0000
0000
0000
0000
0010
0000
0000
0000
0000
0000
1000
0000
0000
0000
0000
0000
0000
0000
0000
0000
0000
0000
1000
0000
0000
0000
0000
0000
0100
0000
0000
0000
0000
0000
0000
0000
0000
0000
0000
0000
0110
0000
0000
0000
0000
0000
0000
0000
0000
0000
0000
0000
0011
0000
0000
0000
0000
0000
0000
0000
0000
0000
0000
0000
0000
0000
0000
0000
0000
0000
0000
0000
0000
0000
0000
0000
0001
0000
0000
0000
0000
0000
0000
0000
0001
0000
0000
0000
0100
0000
0000
0000
0000
0000
0000
0000
0000
0000
0000
0000
0010
0000
0000
0000
0000
0000
1000
0000
0000
0000
0000
0000
,
0000
0000
0000
0000
0000
0000
0000
0000
0000
0000
0000
0000
1100
0000
0000
0000
0000
0000
0000
0000
0000
0000
0000
0000
0101
0000
0000
0000
0000
0000
0000
0000
0000
0000
0000
0000
0000
0000
0000
0000
0000
0000
0000
0000
0000
0000
0000
0000
0000
0000
0000
0000
0000
0000
0000
0000
0000
0000
0000
0000
1100
0000
0000
0000
0000
0000
0000
0000
1000
0000
0000
0000
0100
0000
0000
0000
0000
0000
0000
0000
0000
0000
0000
0000
0010
0000
0000
0000
0000
0000
0001
0000
0000
0000
0000
0000
0000
0000
0000
0000
0000
0000
0000
0000
0000
0000
0000
0000
0011
0000
0000
0000
0000
0000
0000
0000
0000
0000
0000
0000
1010
0000
0000
0000
0000
0000
0000
0000
0000
0000
0000
0000
0000
0000
0000
0000
0000
0000
0000
0000
0000
0000
0000
0000
0000
0000
0000
0000
0000
0000
0000
0000
0000
0000
0000
0000
0000
0000
0000
0000
0000
0000
0000
0000
0000
0000
0000
0000
0000
0000
0000
0000
0000
0000
0000
0000
0000
0000
0000
0000
0000
0000
0000
0000
0000
0000
0000
0000
0010
0000
0000
0000
,
0100
0000
0000
0000
0000
0000
0000
0000
0000
0000
0000
0000
1001
0000
0000
0000
0000
0000
0000
0000
0000
0000
0000
0000
0001
0000
0000
0000
0000
0000
0000
0000
0000
0000
0000
0000
0100
0000
0000
0000
0000
0000
0010
0000
0000
0000
0000
0000
0000
0000
0000
0000
0000
0000
1000
0000
0000
0000
0000
0000
0000
0000
0000
0000
0000
0000
0010
0000
0000
0000
0000
0000
0100
0000
0000
0000
0000
0000
0000
0000
0000
0000
0000
0000
0100
0000
0000
0000
0000
0000
0001
0000
0000
0000
0000
0000
0000
0000
0000
0000
0000
0000
0001
0000
0000
0000
0000
0000
0010
0000
0000
0000
0000
0000
0000
0000
0000
0000
0000
0000
0110
0000
0000
0000
0000
0000
0000
0000
0000
0000
0000
0000
1100
0000
0000
0000
0000
0000
0000
0000
0000
0000
0000
0000
0000
0000
0000
0000
0000
0000
0000
0000
0000
0000
0000
0000
1000
0000
0000
0000
0000
0000
0000
0000
1000
0000
0000
0000
0010
0000
0000
0000
0000
0000
0000
0000
0000
0000
0000
0000
0100
0000
0000
0000
0000
0000
0001
0000
0000
0000
0000
0000
,
0000
0000
0000
0000
0000
0000
0000
0000
0000
0000
0000
0000
0011
0000
0000
0000
0000
0000
0000
0000
0000
0000
0000
0000
1010
0000
0000
0000
0000
0000
0000
0000
0000
0000
0000
0000
0000
0000
0000
0000
0000
0000
0000
0000
0000
0000
0000
0000
0000
0000
0000
0000
0000
0000
0000
0000
0000
0000
0000
0000
0011
0000
0000
0000
0000
0000
0000
0000
0001
0000
0000
0000
0010
0000
0000
0000
0000
0000
0000
0000
0000
0000
0000
0000
0100
0000
0000
0000
0000
0000
1000
0000
0000
0000
0000
0000
0000
0000
0000
0000
0000
0000
0000
0000
0000
0000
0000
0000
1100
0000
0000
0000
0000
0000
0000
0000
0000
0000
0000
0000
1010
0000
0000
0000
0000
0000
0000
0000
0000
0000
0000
0000
0000
0000
0000
0000
0000
0000
0000
0000
0000
0000
0000
0000
0000
0000
0000
0000
0000
0000
0000
0000
0000
0000
0000
0000
1100
0000
0000
0000
0000
0000
0000
0000
0000
0000
0000
0000
0010
0000
0000
0000
0000
0000
0000
0000
0000
0000
0000
0000
0101
0000
0000
0000
0000
0000
0000
0000
0000
0000
0000
0000
,
1001
1011
0000
1101
,
0000
1011
0000
1101
,
0000
1110
0000
0111
,
0000
0000
1110
0000
0000
1011
1101
0000
,
0000
1110
0000
1111
,
0000
0111
0000
1111
,
0000
1011
0000
1111
,
1011
1101
1110
0111
,
1111
0000
1000
0001
1001
0000
1000
0100
0000
0010
0001
0010
0100
0000
1000
0000
,
1010
0000
0101
0000
1001
0000
1000
0100
0010
0000
0001
0000
0000
0001
0010
0000
,
0100
0000
0010
0000
0001
0000
0000
0000
0011
0000
0000
0000
0100
0000
0000
0000
1010
0000
1000
0100
0010
0000
0001
0000
1001
0000
1000
0000
0010
0000
0000
0000
,
0101
0000
0101
0000
1000
0100
1000
0010
0100
0010
1000
0000
0100
0010
0001
0010
,
0100
0010
0001
0000
0100
0001
0010
0001
0100
0001
0010
0000
0001
0100
0010
1000
,
0100
0010
0001
0000
0001
0010
0100
1000
0100
0010
0001
0000
0001
0100
0010
1000
,
0100
0010
0001
0000
0010
0100
1000
0010
0100
0001
1000
0000
0001
0100
0001
0100
,
0000
0000
0000
1000
0000
0000
0100
0000
0000
0000
0010
0000
0000
0000
0001
0000
0100
0000
0000
0010
0000
0000
1000
0000
0000
0000
0001
0000
0000
0000
0100
0000
,
0001
0000
0000
0000
1000
0100
0010
0100
1000
0000
0001
0010
0001
0000
1000
0100
1000
0000
0001
0000
1000
0100
0010
0000
0001
0010
0100
0000
1000
0000
0100
0000
,
0010
0001
0000
0000
0000
0000
0000
0000
0000
0000
0000
0000
0000
0000
1000
0100
0010
0000
0001
0010
0100
0000
0000
0000
0000
0000
0000
0000
0000
0000
0001
0100
,
0010
0000
1000
0100
0010
0000
0000
0000
0000
0000
0000
0000
0000
0000
1000
0100
0010
0001
0010
0001
0010
0000
0000
0000
0000
0000
0000
0000
0000
0000
0000
0000
,
1000
0100
0010
0001
1000
0010
0100
0001
1000
0100
0010
0001
1000
0010
0100
0001
,
1000
0100
0010
0100
1000
0010
0100
0010
0100
0001
0010
0100
0010
0001
1000
0010
,
0100
0001
0010
0100
0010
0001
1000
0100
0010
0001
0010
0100
1000
0100
0010
0100
,
1000
0100
0010
0001
0010
0100
0010
0001
0100
0010
1000
0010
0100
0001
0100
0010
,
0100
0001
0100
0010
1000
0010
0100
0010
1000
0010
0100
0001
0010
0100
1000
0100
,
0010
0001
1000
0010
0100
0001
0010
0100
1000
0100
1000
0100
1000
0010
0100
0001
,
0010
0001
0010
0001
0100
0010
0100
0010
1000
0100
0010
0100
1000
0010
0001
0010
,
1000
0100
0010
0001
0010
0100
1000
0100
0001
0100
1000
0010
1000
0000
0000
0000
,
0001
0000
0000
0000
;
