#TITLE:Disconnected;
#SUBTITLE:-Trance-;
#ARTIST:DJ Banzai;
#TITLETRANSLIT:;
#SUBTITLETRANSLIT:;
#ARTISTTRANSLIT:;
#CREDIT:;
#BANNER:Disconnected Trance-banner.PNG;
#BACKGROUND:Disconnected Trance-bg.PNG;
#LYRICSPATH:;
#CDTITLE:;
#MUSIC:Disconnected (Trance Mix).mp3;
#OFFSET:-0.040;
#SAMPLESTART:38.919;
#SAMPLELENGTH:12.162;
#SELECTABLE:YES;
#BPMS:0.000=148.000;
#STOPS:;
#BGCHANGES:;
// cache tags:
#FIRSTBEAT:16.000;
#LASTBEAT:256.000;
#SONGFILENAME:Songs/toune/Disconnected Trance/Disconnected (Trance Mix).sm;
#HASMUSIC:1;
#HASBANNER:1;
#MUSICLENGTH:107.083;
// end cache tags

//---------------dance-single - Tyrgannus----------------
#NOTES:
     dance-single:
     Tyrgannus:
     Challenge:
     11:
     0.868,0.926,0.271,0.411,1.000,578.000,29.000,44.000,59.000,2.000:
0000
0000
0000
0000
,
0000
0000
0000
0000
,
0000
0000
0000
0000
,
0000
0000
0000
0000
,
0200
0000
0000
0000
0002
0000
0000
0300
0010
0000
2000
0000
0000
0003
0001
3000
,
1000
0001
1000
0001
1000
0001
0010
0000
0000
0000
0000
0000
1100
0000
0000
0000
0000
0000
1000
0000
0000
0000
0000
0000
,
0020
0000
0000
0000
2000
0000
0000
0030
0100
0000
0002
0000
0000
3000
1000
0003
,
0001
1000
0001
1000
0001
1000
0100
0000
0000
0000
0000
0000
0011
0000
0000
0000
0000
0000
00MM
0000
0000
1000
0000
0000
,
0001
0000
0100
0010
0000
0000
0010
1000
0100
0000
1000
0001
0000
0000
0001
0010
,
0100
0000
1000
0100
0000
0000
0100
1000
0001
0000
0100
0010
0000
0000
0010
0100
,
0001
0000
1000
0001
0000
0000
0001
0100
0010
0000
1000
0100
0000
0000
0100
0010
,
0001
0000
0100
0010
0000
0000
0010
1000
0100
0000
1000
0001
0000
0000
0001
0100
,
0010
0000
1000
0100
0000
0000
0010
0100
1000
0000
0001
0100
0000
0000
0010
1000
,
0001
0000
0010
0100
0000
0000
1000
0001
0100
0000
0010
1000
0000
0000
0001
0010
,
0100
0000
0010
0001
0000
0000
1000
0010
0100
0000
0001
0100
0000
0000
0010
1000
,
0100
0000
1000
0010
0000
0000
0100
0001
1000
0000
0001
0010
0000
0000
0100
1000
,
0001
M000
0100
0000
0010
1000
0000
10M0
0100
0000
0010
0000
0100
1000
0000
M001
,
0100
0000
0010
0000
1000
0100
0000
0M10
0001
0000
1000
0000
0010
0100
0001
0010
,
0100
0000
0010
0000
0001
1000
0000
M010
0100
0000
0010
0000
1000
0100
0000
0M10
,
0001
0000
0100
0000
0010
1000
0000
M100
0010
0000
0100
0000
1000
0010
0100
0001
,
0020
0000
2000
0000
0030
0002
00M0
3000
0200
0003
2000
0000
0300
0002
0M00
3000
,
0200
0003
2000
0000
0300
0002
0M00
3000
0020
0003
2000
0000
0030
0002
30M0
0000
,
0020
0003
2000
0000
0030
0002
0M00
3000
0200
0003
2000
0000
0300
0002
0M00
3000
,
0103
0010
1000
0010
0100
0001
0100
0001
1000
0001
1000
0100
0010
0100
0010
0001
,
1000
0100
1000
0000
0010
0100
0000
0001
0010
0100
0010
0000
0001
1000
0000
0010
,
0100
0010
1000
0000
0100
0010
0000
0100
1000
0001
0100
0000
0010
1000
0100
0010
,
0001
0100
0010
0000
1000
0010
0000
1000
0100
0010
0100
0000
0010
0001
0000
1000
,
0010
0100
0010
0000
0100
0001
0000
0001
1000
0100
0010
0000
0100
1000
0010
0100
,
0001
0010
0001
0000
1000
0100
0000
1000
0001
0010
0100
0000
0010
0001
0000
1000
,
0010
0100
0001
0000
0100
0010
0000
0010
1000
0100
0010
0000
0001
0010
0100
1000
,
0010
0100
0001
0000
0100
0010
0000
1000
0001
1000
0100
0000
0010
0100
0000
0100
,
1000
0001
0100
0000
0010
1000
0000
0001
0010
0001
1000
0010
0100
0001
0010
0100
,
1000
0100
1000
0010
0100
0001
0000
0100
0010
1000
0100
0010
0001
0010
0000
0100
,
1000
0001
0100
0001
1000
0100
0000
0010
0001
1000
0010
0100
0010
1000
0000
0001
,
0010
0100
1000
0100
0010
0001
0000
1000
0100
1000
0010
0100
0001
0010
0000
0100
,
0010
0001
1000
0010
0100
0010
0000
0100
0010
1000
0001
1000
0100
0010
0001
0010
,
0100
1000
0001
0100
0010
0100
0000
0010
1000
0100
0010
0001
0010
0100
0000
0010
,
0001
1000
0010
0100
0010
1000
0000
0001
0010
0100
1000
0100
1000
0010
0000
0100
,
0001
1000
0100
1000
0010
0100
0000
0010
1000
0100
0010
0001
0100
0010
0000
0100
,
0001
0010
0100
1000
0010
0100
0001
0010
0100
1000
0100
0010
0001
0100
0010
1000
,
0200
0000
0010
0000
0000
1000
0000
2300
0001
0000
0010
0000
0000
0001
0000
3020
,
0100
0000
1000
0000
0000
0001
0000
0230
0001
0000
0010
0000
0000
0010
0000
0302
,
1000
0000
0100
0000
0000
1000
0000
0023
0100
0000
0001
0000
0000
0001
0000
0230
,
0001
0000
0010
0000
0000
0010
0000
2300
0001
0000
0010
0000
0000
0001
0000
3200
,
1000
0000
0010
0000
0000
1000
0000
2300
0001
0000
0010
0000
0000
0001
0000
3020
,
0100
0000
1000
0000
0000
0001
0000
0230
0001
0000
0010
0000
0000
0010
0000
0302
,
1000
0000
0100
0000
0000
1000
0000
0023
0100
0000
0001
0000
0000
0001
0000
0230
,
0001
0000
0010
0000
0000
0010
0000
2300
0001
0000
0010
0000
0000
0001
0000
3100
,
1100
MM00
1001
M00M
0010
0101
0M0M
1001
,
1000
0100
1000
0000
0001
0100
0000
0010
1000
0000
0100
0000
0010
0001
0000
0100
,
0101
0M0M
0110
0MM0
0100
1010
M0M0
1100
,
0100
1000
0001
0000
0100
0010
0000
0010
1000
0000
0100
0000
0010
0100
0000
0010
,
0011
00MM
1010
M0M0
1000
0110
0MM0
0101
,
0001
1000
0001
0000
1000
0100
0000
0010
0100
0000
1000
0000
0010
0100
0000
0001
,
1001
M00M
1100
MM00
0100
0011
00MM
1010
,
0010
1000
0001
0000
0100
0010
0000
0100
0001
0000
0010
0000
0100
1000
0000
1000
,
0001
0000
0001
0100
0000
0000
0100
0010
0000
0000
0010
1000
0000
0000
1000
0100
,
0020
0000
0002
0000
1100
0000
0033
0001
,
0010
0000
0010
0001
0000
0000
0001
1000
0000
0000
1000
0010
0000
0000
0010
0100
,
0002
0000
0200
0000
1010
0000
0303
0M0M
,
0000
0000
0001
0010
000M
00M0
1100
0000
0000
0000
1000
0010
M000
00M0
0101
0000
,
0000
0000
0001
0010
000M
00M0
1100
0000
0000
0000
1000
0010
M000
00M0
0101
0000
,
0000
0000
0001
0100
000M
0M00
1010
0000
0000
0000
1000
0100
M000
0M00
0011
0000
,
0000
0000
0001
0100
000M
0M00
1010
0000
0000
0000
1000
0100
M000
0M00
0011
0000
,
11MM
0000
0000
0000
;
