#TITLE:Eye of Madness;
#SUBTITLE:;
#ARTIST:Moment;
#TITLETRANSLIT:;
#SUBTITLETRANSLIT:;
#ARTISTTRANSLIT:;
#CREDIT:;
#BANNER:BN.bmp;
#BACKGROUND:BG.bmp;
#LYRICSPATH:;
#CDTITLE:CDTitle.png;
#MUSIC:Eye of Madness.mp3;
#OFFSET:0.405;
#SAMPLESTART:30.000;
#SAMPLELENGTH:11.920;
#SELECTABLE:YES;
#BPMS:0.000=160.000,52.000=80.000,64.000=160.000,148.000=80.000,160.000=160.000,184.000=80.000,200.000=160.000,248.000=80.000,260.000=160.000,344.000=80.000,356.000=160.000;
#STOPS:;
#BGCHANGES:;
// cache tags:
#FIRSTBEAT:4.000;
#LASTBEAT:427.500;
#SONGFILENAME:Songs/Hard Songs Megapack Volume 9/Eye of Madness/Eye of Madness.sm;
#HASMUSIC:1;
#HASBANNER:1;
#MUSICLENGTH:190.252;
// end cache tags

//---------------dance-single - ----------------
#NOTES:
     dance-single:
     :
     Hard:
     15:
     1.000,1.000,1.000,1.000,1.000,1464.000,450.000,243.000,0.000,254.000:
0000
0000
0000
0000
,
1010
0100
0010
0001
0010
0100
1000
0100
,
1000
0010
1000
0001
0011
0100
0010
0001
,
0010
0100
1000
0100
1000
0010
1000
0001
,
0110
0100
0010
0001
0010
0100
1000
0100
,
1000
0010
1000
0001
1100
0100
0010
0001
,
0010
0100
1000
0100
1000
0010
1000
0001
,
1110
0001
0110
1000
0111
1000
0101
0010
1101
0010
1001
0100
1011
0100
1010
0001
,
1110
0001
1010
0100
1011
0100
1011
0100
1001
0100
1011
0100
1010
0001
1110
0001
,
0110
1000
0111
1000
0101
0010
1101
0010
1100
0001
1110
0110
0101
0110
1010
0101
,
1110
0001
1010
0100
1011
0100
1001
0100
1011
0100
1010
0001
1110
0001
0110
1000
,
0111
1000
0101
0010
1101
0010
1101
0010
1001
0010
1101
0010
1001
0100
1011
0100
,
1001
0010
1101
0010
1101
0010
1001
0100
1011
0100
0011
1000
0111
1000
0110
0001
,
2110
0010
0001
3020
0000
0100
2030
3020
,
1230
0302
0203
0321
2030
0000
0000
0000
,
0000
0000
0000
0000
0000
0000
0000
0000
0000
0000
0000
0000
3021
0000
0000
0000
0000
0000
0000
0000
0000
0000
0000
0000
0000
0000
0000
0000
0000
0000
0100
0000
0000
0000
0000
0000
1001
0100
0001
2100
0000
0000
0000
0000
0000
3000
0000
0000
,
2030
0100
3020
0000
0230
0000
0302
0100
0023
0000
2030
0100
3002
0010
0203
0000
,
0320
0000
2030
0010
3200
0000
0302
0010
0203
0010
1301
0011
1100
1010
0101
0010
,
0100
0010
1100
0001
0110
1000
0101
0000
0011
0000
0101
1000
0110
0000
0010
0100
,
1001
0100
1011
0100
1010
0001
1110
0001
1010
0100
1011
0100
0011
1000
0111
1000
,
0110
0001
1110
0001
0110
1000
0111
1000
0111
1000
0111
1000
0101
0010
1101
0010
,
1001
0100
1011
0100
0011
1000
0111
1000
0110
0001
1110
0001
1010
0100
1011
0100
,
2011
0100
3020
0000
0230
0000
0302
0010
0203
0000
0320
0100
2030
0001
3200
0000
,
2300
0000
0000
0000
0000
0000
0000
0000
3020
0000
0000
0000
0100
0000
0000
0000
2030
0000
0000
0000
0000
0000
0000
0000
3002
0000
0000
0000
1000
0000
0000
0000
0013
0000
0000
0000
0100
0000
0000
0000
0022
0000
0000
0000
2233
0000
0000
3300
2002
0000
0000
0000
3223
0000
0000
0000
2332
0000
0000
0000
3223
0000
0000
0330
,
0102
1000
0203
0001
0320
0100
2030
0000
3002
0000
0203
0320
0032
0000
0023
0230
,
1312
0100
1013
0100
0011
1000
0111
1000
0110
0001
1110
0001
1010
0100
1011
0100
,
1001
0010
1101
0010
1100
0001
1110
0001
1100
0010
1101
0010
1001
0100
1011
0100
,
0011
1000
0111
1000
0101
0010
1101
0010
1100
0001
1110
0001
1010
0100
2011
0100
,
0010
0001
3210
1000
0010
1000
0310
0100
0001
0010
0201
1000
0010
0000
0320
0000
,
0200
0000
0000
0000
0000
0000
0031
0000
0000
0000
0000
0000
2300
0000
0000
0000
0000
0000
0010
0000
0000
0000
0000
0000
3020
0000
0000
0000
0000
0000
1000
0000
0230
0001
0000
0000
0000
0000
0000
0000
0320
0000
1000
0000
0000
0100
0000
0000
,
2031
0000
0000
0010
0000
0000
0001
0000
3200
0000
0000
0000
1000
0000
0000
0000
0320
0000
1000
0000
0000
0100
0000
0000
0032
0000
0000
0100
0000
0000
1000
0000
0003
0000
0000
0000
0010
0000
0000
0000
0200
0000
1000
0000
0010
0000
0001
0000
,
1320
0000
0000
0100
0000
0000
1032
0000
0000
0000
0000
0000
2103
0000
0000
0000
0000
0000
3012
0000
0100
0000
1000
0000
0123
0000
0000
0000
0000
0000
1032
0000
0000
0100
0000
0000
2003
0000
0000
0000
0000
0000
3202
0000
0000
0010
0000
0000
,
2303
0000
0000
0100
0000
0000
3002
0000
0000
0100
0000
0000
0023
0000
0000
0000
0000
0000
0032
0000
0010
0000
0100
0000
2003
0000
0000
0010
0000
0000
3100
0000
0000
0001
0000
0000
0020
0000
0000
0001
0000
0000
0230
0000
0000
0001
0000
0000
,
2300
0010
3111
1000
0011
0100
1011
0100
1010
0001
1110
0001
1100
0010
1101
0010
,
1001
0100
1011
0100
1010
0001
1110
0001
1010
0100
1011
0100
1010
0001
1110
0001
,
0110
1000
0111
1000
0011
0100
1011
0100
1010
0001
1110
0001
0110
1000
0111
1000
,
0011
0100
1011
0100
1010
0001
1110
0001
1100
0010
1101
0010
0101
1000
0111
1000
,
0102
0000
0100
0000
1000
0000
0123
0000
0000
1000
0000
0100
1032
0000
0010
0000
,
0100
0000
0213
0000
0000
0001
0000
0010
2301
0000
0100
0000
0001
0000
3120
0100
,
0000
1000
0000
0100
1032
0000
0010
0000
0100
0000
0213
0000
0301
0010
0010
0000
,
0110
1000
0111
1000
0101
0010
1101
0010
1001
0010
1101
0010
0101
1000
0111
1000
,
0101
0010
1101
0010
1100
0001
1110
0001
1010
0100
1011
0100
1001
0010
1101
0010
,
0101
1000
0111
1000
0110
0001
1110
0001
1100
0010
1101
0010
0101
1000
0111
1000
,
0111
1000
0111
1000
0101
0010
1101
0010
1001
0100
1011
0100
1001
0010
1101
0010
,
1001
0100
1011
0100
1001
0010
1101
0010
1001
0100
1011
0100
1010
0001
1110
0001
,
0110
1000
0111
1000
0011
0100
1011
0100
1010
0100
1011
0100
0011
1000
0111
1000
,
0001
0100
0010
0001
0100
0010
1000
0100
0011
0001
0010
0100
1000
0010
0001
1000
,
0100
0010
0100
0001
0100
0010
0100
0001
0100
0010
0100
0001
0100
0010
0100
0001
,
0100
0010
0100
0001
0100
0010
0100
0001
0100
0010
0100
0001
0100
0010
0100
0001
,
0100
1000
0010
0100
0001
0010
0001
0100
0010
1000
0010
0001
0010
0000
0100
0000
,
1000
0100
0010
0001
0010
0100
0010
1000
,
0100
0000
0000
0010
0000
0000
1000
0000
0000
0010
0100
0001
0100
0010
0100
0001
0000
0000
0010
0000
0000
0001
0010
0100
,
1001
0000
0100
0000
0010
0000
0001
0000
0100
0000
0010
0000
0101
0000
1000
0000
0010
0000
0100
0000
0010
0000
0001
0000
1010
0000
0100
0000
0010
0000
1000
0000
0100
0000
0010
0000
1001
0000
0000
0100
0000
0000
0010
0000
0000
0100
0000
0000
,
0001
0010
0100
0010
0100
1000
0100
0010
0002
0000
0000
0000
0003
0000
0000
0000
,
1000
0100
0010
0001
0010
0100
0010
1000
,
0100
0000
0000
0010
0000
0000
1000
0000
0000
0010
0100
0001
0100
0010
0100
0001
0000
0000
0010
0000
0000
0001
0010
0100
,
1001
0000
0100
0000
0010
0000
0001
0000
0100
0000
0010
0000
0101
0000
1000
0000
0010
0000
0100
0000
0010
0000
0001
0000
1010
0000
0100
0000
0010
0000
1000
0000
0100
0000
0010
0000
1001
0000
0000
0100
0000
0000
0010
0000
0000
0100
0000
0000
,
0001
0000
0000
0010
0000
0000
0100
0000
0000
0010
0000
0000
0100
0000
0000
1000
0000
0000
0100
0000
0000
0010
0000
0000
0002
0000
0000
0000
0010
0000
0000
0000
0010
0000
0000
0000
0013
0000
0000
0000
0010
0000
0000
0000
0010
0000
0000
0000
,
1010
0000
0000
0000
0000
0000
0000
0000
0000
0000
0000
0000
0000
0000
0000
0000
0000
0000
0000
0000
0000
0000
0000
0000
0000
0000
0000
0000
0000
0000
1010
0000
0000
0000
0000
0000
0100
0000
0000
0000
0000
0000
0000
0000
0000
0000
0000
0000
0010
0000
0000
0000
0000
0000
0000
0000
0100
0000
0000
0000
1000
0000
0000
0000
0010
0000
0000
0000
0000
0000
0000
0000
0001
0000
0000
0000
0000
0000
0000
0000
0000
0000
0000
0000
0100
0000
0000
0000
0000
0000
0000
0000
0000
0000
0000
0000
0001
0000
0000
0000
0000
0000
1010
0000
0000
0000
0000
0000
0100
0000
0000
0000
0000
0000
0000
0000
0000
0000
0000
0000
0001
0000
0000
0000
0000
0000
0100
0000
0000
0000
0000
0000
1000
0000
0000
0000
0010
0000
0000
0000
0000
0000
0000
0000
0001
0000
0000
0000
0000
0000
0000
0000
0000
0000
0000
0000
0100
0000
0000
0000
0000
0000
0000
0000
0000
0000
0000
0000
0001
0000
0000
0000
0000
0000
1010
0000
0000
0000
0000
0000
0100
0000
0000
0000
0000
0000
0000
0000
0000
0000
0000
0000
,
1000
0000
0000
0000
0000
0000
0000
0000
0000
0000
0000
0000
0100
0000
0000
0000
0010
0000
0000
0000
0000
0000
0000
0000
0001
0000
0000
0000
0000
0000
0000
0000
0000
0000
0000
0000
0100
0000
0000
0000
0000
0000
0000
0000
0000
0000
0000
0000
0001
0000
0000
0000
0000
0000
1010
0000
0000
0000
0000
0000
0100
0000
0000
0000
0000
0000
0000
0000
0000
0000
0000
0000
1000
0000
0000
0000
0000
0000
0100
0000
0000
0000
0000
0000
0000
0000
0000
0000
0010
0000
0000
0000
0000
0000
0000
0000
0001
0000
0000
0000
0000
0000
0000
0000
0000
0000
0000
0000
0100
0000
0000
0000
0000
0000
0000
0000
0000
0000
0000
0000
0001
0000
0000
0000
0000
0000
1010
0000
0000
0000
0000
0000
0100
0000
0000
0000
0000
0000
0000
0000
0000
0000
0000
0000
0001
0000
0000
0000
0000
0000
0000
0000
0100
0000
0000
0000
1000
0000
0000
0000
0010
0000
0000
0000
0000
0000
0000
0000
0001
0000
0000
0000
0000
0000
0000
0000
0000
0000
0000
0000
0100
0000
0000
0000
0000
0000
0000
0000
0000
0000
0000
0000
,
0001
0000
0000
0000
0000
0000
1010
0000
0000
0000
0000
0000
0100
0000
0000
0000
0000
0000
0000
0000
0000
0000
0000
0000
0001
0000
0000
0000
0000
0000
0100
0000
0000
0000
0000
0000
1000
0000
0000
0000
0010
0000
0000
0000
0000
0000
0000
0000
0101
0000
0000
0000
0000
0000
0000
0000
0000
0000
0000
0000
1001
0000
0000
0000
0000
0000
0000
0000
0000
0000
0000
0000
0001
0000
0000
0000
0000
0000
1010
0000
0000
0000
0000
0000
0101
0000
0000
0000
0000
0000
0000
0000
0000
0000
0000
0000
1001
0000
0000
0000
0000
0000
0100
0000
0000
0000
0000
0000
0000
0000
0000
0000
0010
0000
0000
0000
0000
0000
0000
0000
0001
0000
0000
0000
0000
0000
0000
0000
0000
0000
0000
0000
0100
0000
0000
0000
0000
0000
0000
0000
0000
0000
0000
0000
0001
0000
0000
0000
0000
0000
1010
0000
0000
0000
0000
0000
0100
0000
0000
0000
0000
0000
0000
0000
0000
0000
0000
0000
0001
0000
0000
0000
0000
0000
0100
0000
0000
0000
0000
0000
1000
0000
0000
0000
0010
0000
0000
0000
0000
0000
0000
0000
,
0001
0100
0010
0100
1000
0010
0100
0001
0010
1000
0100
0010
0001
0010
1000
0100
,
2000
0010
0001
3020
1000
0100
2030
3020
,
1230
0302
0203
0321
2030
0000
0000
0000
,
0000
0000
0000
0000
0000
0000
0000
0000
0000
0000
0000
0000
3021
0000
0000
0000
0000
0000
0000
0000
0000
0000
0000
0000
0000
0000
0000
0000
0000
0000
0100
0000
0000
0000
0000
0000
1001
0100
0001
2100
0000
0000
0000
0000
0000
3000
0000
0000
,
2030
0100
3020
0000
0230
0000
0302
0100
0023
0000
2030
0100
3002
0010
0203
0000
,
0320
0000
2030
0010
3200
0000
0302
0010
0203
0010
1301
0011
1100
1010
0101
0010
,
0100
0010
1100
0001
0110
1000
0101
0000
0011
0000
0101
1000
0110
0000
0010
0100
,
1001
0100
1011
0100
1010
0001
1110
0001
1010
0100
1011
0100
0011
1000
0111
1000
,
0110
0001
1110
0001
0110
1000
0111
1000
0111
1000
0111
1000
0101
0010
1101
0010
,
1001
0100
1011
0100
0011
1000
0111
1000
0110
0001
1110
0001
1010
0100
1011
0100
,
2011
0100
3020
0000
0230
0000
0302
0010
0203
0000
0320
0100
2030
0001
3200
0000
,
2300
0000
0000
0000
0000
0000
0000
0000
3020
0000
0000
0000
0100
0000
0000
0000
2030
0000
0000
0000
0000
0000
0000
0000
3002
0000
0000
0000
1000
0000
0000
0000
0013
0000
0000
0000
0100
0000
0000
0000
0022
0000
0000
0000
2233
0000
0000
3300
2002
0000
0000
0000
3223
0000
0000
0000
2332
0000
0000
0000
3223
0000
0000
0330
,
0102
1000
0203
0001
0320
0100
2030
0000
3002
0000
0203
0320
0032
0000
0023
0230
,
1312
0100
1013
0100
0011
1000
0111
1000
0110
0001
1110
0001
1010
0100
1011
0100
,
1001
0010
1101
0010
1100
0001
1110
0001
1100
0010
1101
0010
1001
0100
1011
0100
,
0011
1000
0111
1000
0101
0010
1101
0010
1100
0001
1110
0001
1010
0100
2011
0100
,
0010
0001
3210
1000
0010
1000
0310
0100
0001
0010
0201
1000
0010
0000
0320
0000
,
0200
0000
0000
0000
0000
0000
0031
0000
0000
0000
0000
0000
2300
0000
0000
0000
0000
0000
0010
0000
0000
0000
0000
0000
3020
0000
0000
0000
0000
0000
1000
0000
0230
0001
0000
0000
0000
0000
0000
0000
0320
0000
1000
0000
0000
0100
0000
0000
,
2031
0000
0000
0010
0000
0000
0001
0000
3200
0000
0000
0000
1000
0000
0000
0000
0320
0000
1000
0000
0000
0100
0000
0000
0032
0000
0000
0100
0000
0000
1000
0000
0003
0000
0000
0000
0010
0000
0000
0000
0200
0000
1000
0000
0010
0000
0001
0000
,
1320
0000
0000
0100
0000
0000
1032
0000
0000
0000
0000
0000
2103
0000
0000
0000
0000
0000
3012
0000
0100
0000
1000
0000
0123
0000
0000
0000
0000
0000
1032
0000
0000
0100
0000
0000
2003
0000
0000
0000
0000
0000
3202
0000
0000
0010
0000
0000
,
2303
0000
0000
0100
0000
0000
3002
0000
0000
0100
0000
0000
0023
0000
0000
0000
0000
0000
0032
0000
0010
0000
0100
0000
2003
0000
0000
0010
0000
0000
3100
0000
0000
0001
0000
0000
0020
0000
0000
0001
0000
0000
0230
0000
0000
0001
0000
0000
,
2300
0010
3111
1000
0011
0100
1011
0100
1010
0001
1110
0001
1100
0010
1101
0010
,
1001
0100
1011
0100
1010
0001
1110
0001
1010
0100
1011
0100
1010
0001
1110
0001
,
0110
1000
0111
1000
0011
0100
1011
0100
1010
0001
1110
0001
0110
1000
0111
1000
,
0011
0100
1011
0100
1010
0001
1110
0001
1100
0010
1101
0010
0101
1000
0111
1000
,
0102
0000
0100
0000
1000
0000
0123
0000
0000
1000
0000
0100
1032
0000
0010
0000
,
0100
0000
0213
0000
0000
0001
0000
0010
2301
0000
0100
0000
0001
0000
3120
0100
,
0000
1000
0000
0100
1032
0000
0010
0000
0100
0000
0213
0000
0301
0010
0010
0000
,
1101
0010
1101
0010
0101
1000
0111
1000
0110
0001
1110
0001
1110
0001
1110
0001
,
1010
0100
1011
0100
0011
1000
0111
1000
0111
1000
0111
1000
0110
0001
1110
0001
,
1010
0100
1011
0100
1011
0100
1011
0100
1010
0001
1110
0001
1100
0010
1101
0010
,
1101
0010
1101
0010
0101
1000
0111
1000
0101
0010
1101
0010
1101
0010
1101
0010
,
1100
0001
1110
0001
1010
0100
1011
0100
1011
0100
1011
0100
1010
0001
1110
0001
,
0110
1000
0111
1000
0101
0010
1101
0010
1100
0001
1110
0001
1010
0100
1011
0100
,
2000
0100
3020
1000
0230
0010
0302
1000
0023
1000
0230
0010
0302
0010
0203
0001
,
2300
0010
3200
0001
0320
0100
1030
0010
0200
1000
0320
0100
0032
0100
0023
0100
,
0032
0010
0203
1000
0302
0010
2003
0100
3020
0100
0032
0010
1003
0001
0200
0001
,
0320
1000
0032
1000
0203
1000
0320
0100
2030
0010
3200
0001
2300
0010
3002
0010
,
0203
1000
0320
0001
0230
0010
2300
0010
3100
0001
0020
0100
0032
1000
0023
0001
,
0230
1000
0320
0100
0032
1000
0023
0100
0032
0010
0203
1000
0302
0010
2003
0100
,
3010
1111
0000
1111
0000
1111
0000
1111
,
0000
1111
0000
1111
1111
0000
1111
1111
,
1111
1111
1111
1111
1111
1111
1111
1111
,
1011
0100
1011
0100
1010
0100
1011
0100
1010
0001
1110
0001
0110
1000
0111
1000
,
0110
0001
1110
0001
1100
0010
1101
0010
1101
1011
0110
1101
1011
0100
0010
0100
,
0001
0000
0010
0000
0100
0000
0010
0000
0100
1000
0010
0001
0100
0000
1000
0000
0001
0100
0010
1000
0001
0000
0010
0000
0100
1000
0010
0100
0001
0000
0000
0000
;
