#TITLE:Halloween;
#SUBTITLE:(Speedy Mix);
#ARTIST:Aqua;
#TITLETRANSLIT:;
#SUBTITLETRANSLIT:;
#ARTISTTRANSLIT:;
#CREDIT:;
#BANNER:Halloween (Speedy Mix)-bn.png;
#BACKGROUND:Halloween (Speedy Mix)-bg.png;
#LYRICSPATH:;
#CDTITLE:!snapps-cdtitle.png;
#MUSIC:Aqua - Halloween (Speedy Mix).mp3;
#OFFSET:0.000;
#SAMPLESTART:99.495;
#SAMPLELENGTH:11.871;
#SELECTABLE:YES;
#BPMS:0.000=164.000,184.000=41.000,192.000=82.000,202.000=164.200;
#STOPS:;
#BGCHANGES:;
// cache tags:
#FIRSTBEAT:4.000;
#LASTBEAT:279.750;
#SONGFILENAME:Songs/Fabulously Fresh Flock of Fantastic Files F5/(Snapps) Halloween (Speedy Mix)/Halloween (Speedy Mix).sm;
#HASMUSIC:1;
#HASBANNER:1;
#MUSICLENGTH:116.016;
// end cache tags

//---------------dance-single - ----------------
#NOTES:
     dance-single:
     :
     Hard:
     11:
     1.000,1.000,1.000,0.155,0.478,612.000,230.000,18.000,0.000,2.000:  // measure 1
0000
0000
0000
0000
,  // measure 2
0000
0000
0000
0000
,  // measure 3
0000
0000
0000
0000
,  // measure 4
2002
0000
0000
0000
0000
3003
0000
1010
,  // measure 5
0110
0001
1010
1010
0100
0001
0010
1100
,  // measure 6
0101
0011
1010
1100
0010
0100
0010
0101
,  // measure 7
1010
0010
0110
0100
0101
0001
1001
1000
,  // measure 8
1010
0000
0010
0100
0010
0000
1001
0000
1000
0001
0100
0001
1000
0000
1010
0000
,  // measure 9
0110
1001
0110
0011
0100
0010
0100
0011
,  // measure 10
0101
1100
0101
0011
0100
0010
0100
1001
,  // measure 11
0101
0001
0101
0110
0010
1010
1000
1000
,  // measure 12
1001
0000
0010
0100
0010
0000
1001
0000
1000
0100
0010
0001
1000
0010
1000
0010
,  // measure 13
1100
0000
0100
0000
1010
0000
1010
0000
0100
0000
0010
0000
0010
0100
0010
0000
,  // measure 14
0101
0000
0101
0000
1010
0000
1000
0010
1000
0000
1000
0010
1000
0100
0010
0000
,  // measure 15
1001
0001
0101
0100
1100
1000
1010
0010
,  // measure 16
0110
0000
0100
0000
0101
0000
0001
0000
0011
1000
0010
1000
0010
0000
0100
0000
,  // measure 17
1010
0110
0101
0011
0010
1000
0100
0110
,  // measure 18
1100
1100
0101
0011
0100
0010
1000
0110
,  // measure 19
1001
0010
0101
0011
0100
1010
0001
0100
,  // measure 20
0001
0100
0010
1000
0010
0000
1001
0000
1000
0010
0100
0001
1000
0010
1000
0010
,  // measure 21
1100
0000
0101
0000
0001
0000
0101
0000
2000
0000
0000
0000
3101
0000
0001
0100
,  // measure 22
0001
0000
1010
0000
0010
0000
0010
0000
0010
1000
0010
0100
0010
1000
0010
0100
,  // measure 23
1010
0000
1100
0000
1000
0000
1100
0000
0002
0000
0000
0000
1103
0000
1000
0010
,  // measure 24
1000
0000
0101
0000
0010
0000
0010
0000
0010
1000
0010
0100
0010
1000
0010
0100
,  // measure 25
1010
0000
1010
0000
0100
0000
0000
0000
2010
0000
0000
0000
3100
0000
0010
0100
,  // measure 26
0010
0000
1001
0000
1001
0000
0100
0000
0100
0001
0100
0010
0100
0001
0100
0010
,  // measure 27
0101
0110
1010
0110
0101
0110
1010
0110
,  // measure 28
0101
0100
0001
0010
0201
0300
2001
3010
,  // measure 29
1000
0100
0010
0001
1000
0010
0100
0001
1000
0001
0100
0010
1000
0001
0010
0100
,  // measure 30
1001
0000
0000
1001
0000
0000
1001
0000
1001
0000
0100
0000
0010
0000
2000
0000
,  // measure 31
0010
0001
0010
0001
3010
0101
0110
1010
,  // measure 32
0100
0101
0110
1001
0010
1100
0101
2100
,  // measure 33
0010
0001
3010
0100
0010
0001
0100
1001
,  // measure 34
1010
1001
0100
1001
0101
1001
0110
2010
,  // measure 35
0100
0010
0001
0100
3010
0101
0110
1010
,  // measure 36
0100
1001
0101
0011
0100
1001
0110
2001
,  // measure 37
0100
3010
1000
0100
1000
0010
0100
1001
,  // measure 38
0011
0000
1100
0000
0010
0000
1001
0000
1100
0000
0011
0000
1000
0001
0010
0100
,  // measure 39
1000
0000
1010
0000
0101
0000
0010
0000
1010
0000
0100
0000
1001
0000
0100
0010
,  // measure 40
0100
0000
1001
0000
0101
0000
1010
0000
0101
0000
1001
0000
1001
0000
0100
0010
,  // measure 41
0100
0010
0101
1000
0101
0010
1100
0010
,  // measure 42
1000
0100
1001
0100
0010
1001
0100
0001
,  // measure 43
0100
0000
1010
0000
0101
0000
0010
0000
1001
0000
0010
0000
0101
0000
0010
1000
,  // measure 44
0010
0000
1001
0000
1010
0000
1100
0000
1010
0000
1001
0000
0101
0000
0010
0100
,  // measure 45
0010
0101
1010
0100
1001
0010
1100
0010
,  // measure 46
0001
0000
0010
0100
0010
1000
0010
0100
0010
0000
0100
0001
0100
0010
0100
0001
,  // measure 47
1100
0000
0000
0000
0010
0000
0000
1000
1100
0000
1000
0000
1010
0000
0000
0000
0101
0000
0000
0000
0100
0000
0000
0001
0011
0000
0001
0000
0101
0000
0000
0000
,  // measure 48
1010
0000
0000
0000
1000
0000
0000
0010
0110
0000
0010
0000
1010
0000
0000
0000
1001
0000
0000
0000
1000
0000
0000
0001
0101
0000
0001
0000
1001
0000
0000
0000
,  // measure 49
0010
0010
0010
1000
1000
1000
0010
0100
0100
0100
0001
0010
0100
0100
0001
0010
,  // measure 50
0001
0010
0100
1000
0001
0100
0010
1000
0001
0100
0010
1000
0001
0010
0100
1000
0001
1000
0010
0100
0001
1000
0010
0100
0010
1000
0010
0100
0001
0100
0010
0100
,  // measure 51
2002
0000
0000
0000
3003
0010
0100
2000
0001
0000
0010
0000
3001
0000
0100
0000
,  // measure 52
0010
0101
1010
0110
1000
0110
0101
0110
,  // measure 53
0001
0110
1100
2001
0010
0100
0001
3100
,  // measure 54
0010
0100
0001
0110
1001
0110
0010
1100
,  // measure 55
1001
1100
0011
2010
0010
0100
0010
0100
,  // measure 56
3001
0110
0101
0110
1000
0110
1001
0101
,  // measure 57
0010
1100
0101
2010
0001
0100
0010
0001
,  // measure 58
3100
1000
0010
0110
1001
0110
0100
0101
,  // measure 59
1001
0000
0101
0000
0100
0010
0100
0001
1000
0000
0100
0000
1000
0000
0100
0000
,  // measure 60
1000
0100
1100
0000
0001
0101
1010
0100
,  // measure 61
0101
0000
0010
0000
1001
0000
0010
0100
0010
0000
1001
0000
1010
0000
0101
0000
,  // measure 62
1010
0000
1001
0000
1001
0000
0010
0100
0010
0000
0100
0000
1010
0000
0001
0000
,  // measure 63
1010
0100
0011
0100
0001
0010
1001
0010
,  // measure 64
0100
1001
0010
1000
0010
0101
1010
0100
,  // measure 65
1001
0000
0100
0000
1010
0000
0100
0001
0100
0000
1001
0000
0101
0000
0011
0000
,  // measure 66
0101
0000
1001
0000
1010
0000
0100
0010
0100
0000
1010
0000
0101
0000
0010
0000
,  // measure 67
1001
0000
0100
0000
0011
0000
0100
0000
1000
0000
0100
0010
0100
0001
0100
0010
,  // measure 68
0100
0000
0010
1000
0010
0100
0010
1000
0201
0000
0000
0000
0000
0000
0000
0000
,  // measure 69
0000
0000
0000
0000
,  // measure 70
0300
0000
0000
0000
0000
0000
0000
0000
0000
0000
0000
0000
0000
0000
0000
1001
;

//---------------dance-single - ----------------
#NOTES:
     dance-single:
     :
     Challenge:
     13:
     1.000,1.000,1.000,0.155,1.000,819.000,279.000,18.000,0.000,2.000:  // measure 1
0000
0000
0000
0000
,  // measure 2
1000
0010
0100
0000
0010
0100
0001
0000
1000
0010
0100
0000
0010
1000
0001
0000
,  // measure 3
1000
0010
0100
0001
0100
0010
1000
0010
0100
0001
0100
0010
1000
0010
0100
0010
,  // measure 4
2002
0000
0000
0000
0000
3003
0000
1010
,  // measure 5
0110
0000
0001
0000
1010
0000
1010
0000
0100
0000
0001
0000
0100
0010
1100
0000
,  // measure 6
0101
0000
0011
0000
1010
0000
1100
0000
0010
0000
0100
0000
0010
1000
0101
0000
,  // measure 7
1010
0000
0010
0000
0110
0000
0100
0010
0101
0000
0001
0000
1001
0010
1000
0000
,  // measure 8
1010
0000
0010
0100
0010
0000
1001
0000
1000
0001
0100
0001
1000
0000
1010
0000
,  // measure 9
0110
0000
1001
0000
0110
0000
0011
0100
1000
0000
1000
0000
1000
0100
0011
0000
,  // measure 10
0101
0000
1100
0000
0101
0000
0011
0100
0010
0000
0010
0000
0100
0010
1001
0000
,  // measure 11
0101
0010
0001
0000
0101
0000
0110
0001
0010
0000
1010
0000
1000
0010
1000
0000
,  // measure 12
1001
0000
0010
0100
0010
0000
1001
0000
1000
0100
0010
0001
1000
0010
1000
0010
,  // measure 13
1100
0000
0100
0000
1010
0000
1010
0001
0010
0000
1010
0000
0010
0100
0010
0000
,  // measure 14
0101
0000
0101
0000
1010
0000
1000
0010
1000
0000
1000
0010
1000
0100
0010
0000
,  // measure 15
1001
0000
0001
0010
0101
0000
0100
0010
1100
0000
0100
0010
1100
0010
0100
0000
,  // measure 16
0110
0000
0100
0010
0101
0000
0001
0000
0011
1000
0010
1000
0010
0000
0100
0000
,  // measure 17
1010
0000
0110
0000
0101
0000
0011
0100
0010
0000
1010
0000
0100
1000
0110
0000
,  // measure 18
1100
0000
1100
0000
0101
0000
0011
0100
0010
0000
0110
0000
1000
0001
0110
0000
,  // measure 19
1001
0100
0010
0000
0101
0000
0011
0100
1000
0000
1010
0000
0001
0010
0100
0000
,  // measure 20
1001
0100
0010
1000
0010
0000
1001
0000
1000
0010
0100
0001
1000
0010
1000
0010
,  // measure 21
1100
0000
0101
0010
1001
0000
0101
0010
2001
0000
0010
0000
3101
0000
0001
0100
,  // measure 22
0001
0000
1010
0100
0011
0000
0010
0000
0011
1000
0010
0100
0011
1000
0010
0100
,  // measure 23
1010
0000
1001
0010
0101
0000
1100
0010
1002
0000
0100
0010
1103
0000
1000
0010
,  // measure 24
1000
0000
0101
1000
0110
0000
0010
0001
0110
1000
0010
0100
0011
1000
0010
0100
,  // measure 25
1010
0000
1010
0100
1001
0000
0011
0100
2010
0000
0010
0001
3100
0000
0010
0100
,  // measure 26
0010
0000
1001
0010
1001
0000
0100
0010
1100
0001
1010
0001
1100
0001
0100
0010
,  // measure 27
0101
0000
0110
0001
1010
0000
0110
1000
0101
0000
0110
0001
1010
0000
0110
1000
,  // measure 28
0101
0000
1100
0010
0101
0000
1001
0010
0201
0000
0301
0010
0201
0000
0310
0000
,  // measure 29
1000
0100
1010
0001
1100
0010
1100
0001
1010
0001
0100
0010
1000
0001
1010
0100
,  // measure 30
1001
0000
0010
1001
0010
0000
1001
0000
1001
0000
0100
0000
0010
0000
2000
0000
,  // measure 31
0010
0000
0001
0100
0010
0000
0001
0100
3010
0000
0101
1000
0110
0000
1010
0001
,  // measure 32
0100
0000
0101
1000
0110
0000
1001
0100
0010
0000
1100
0010
0101
0000
2100
0001
,  // measure 33
0010
0000
0001
0100
3010
0000
0100
1000
0010
0000
0001
0010
0100
0000
1001
0100
,  // measure 34
1010
0000
1001
0010
0100
0000
1001
0010
0101
0000
0101
1000
0110
0000
2010
0000
,  // measure 35
0100
0000
0010
0100
0001
0000
0100
0001
3010
0000
0101
1000
0110
0000
1010
0001
,  // measure 36
0100
0000
1001
0010
0101
0000
0011
1000
0100
0000
1001
0100
1010
0000
2001
0000
,  // measure 37
0100
0000
3010
0001
1000
0000
0100
0001
1000
0000
0010
0001
0100
0000
1001
0100
,  // measure 38
0011
0000
1100
0001
0010
0000
1001
0010
1100
0000
0011
0100
1000
0001
0010
0100
,  // measure 39
1000
0000
1010
0000
0101
0000
0010
0100
1010
0000
0100
0000
1001
0010
0100
0001
,  // measure 40
0100
0000
1001
0010
0101
0000
1010
0100
1010
0000
1001
0000
1001
0010
0100
1000
,  // measure 41
0011
0000
1010
0000
0101
0000
1000
0010
0101
0000
0110
0000
1100
0001
0100
0000
,  // measure 42
0100
0010
0100
0000
1001
0000
0010
1000
0010
0000
1001
0000
0100
0010
0001
0000
,  // measure 43
0100
0000
1010
0000
0101
0000
0010
0100
1001
0000
0110
0000
0101
0010
0100
0010
,  // measure 44
0100
0000
1001
0000
1010
0000
1100
0000
1010
0000
1001
0010
0101
0000
0010
0100
,  // measure 45
0010
0000
0101
0010
1001
0000
0100
0010
1001
0000
0110
0000
1100
0000
0010
0000
,  // measure 46
0001
0000
0010
0100
0010
1000
0010
0100
0010
0000
0100
0001
0100
0010
0100
0001
,  // measure 47
1100
0010
0100
0010
1001
0100
0010
1100
1100
0010
1100
0010
1001
0100
0010
0100
0101
0010
0100
0010
1100
0010
0100
0011
0011
0100
0011
0100
0101
0010
0100
0010
,  // measure 48
1100
0100
0010
0100
1001
0100
0010
0110
0110
1000
0110
0001
1010
0100
0010
0100
1001
0010
0100
0010
1100
0010
1000
0101
0101
0010
0101
0010
1001
0100
0010
0100
,  // measure 49
0010
0010
0010
1000
1000
1000
0010
0100
0100
0100
0001
0010
0100
0100
0001
0010
,  // measure 50
0001
0010
0100
1000
0001
0100
0010
1000
0001
0100
0010
1000
0001
0010
0100
1000
0001
1000
0010
0100
0001
1000
0010
0100
0010
1000
0010
0100
0001
0100
0010
0100
,  // measure 51
2002
0000
0000
0000
3003
0010
0100
2000
0010
0000
0001
0100
0010
0000
3001
0100
,  // measure 52
0010
0000
1010
0001
0110
0000
0101
1000
0010
0000
1010
0001
0110
0000
1001
0010
,  // measure 53
0100
0000
0011
0100
1010
0000
0012
1000
0100
0000
1000
0010
0103
0000
0010
0001
,  // measure 54
0100
0000
1000
0100
0010
0000
1001
0010
0101
0000
1001
0100
0010
0000
1001
0100
,  // measure 55
1010
0000
1010
0001
0110
0000
0102
0000
0010
0000
0100
0010
1000
0000
0010
1000
,  // measure 56
0103
0000
1010
0001
0110
0000
0101
1000
0010
0000
1001
0100
1010
0000
1100
0001
,  // measure 57
0010
0000
1001
0010
0101
0000
1002
0000
0010
0000
0103
1000
0001
0000
0010
1000
,  // measure 58
0001
0000
0100
1000
0010
0000
1001
0010
1100
0000
0011
1000
0100
0000
1001
0100
,  // measure 59
0011
0000
1100
0010
0001
1000
0100
0010
0001
0000
0010
0000
0001
0000
0010
0000
,  // measure 60
0001
0000
0010
0000
0011
0000
0000
0000
0001
0000
0101
0000
1010
0000
0100
0010
,  // measure 61
0101
0000
0010
0000
1001
0100
0010
1000
0010
0000
1001
0100
1010
0000
0101
0010
,  // measure 62
0101
0000
1001
0000
1001
0100
0010
0001
1100
0000
0101
0000
1010
0000
0001
0100
,  // measure 63
1010
0000
0110
0000
0011
1000
0010
0000
0010
0100
0010
0000
1001
0000
0100
0001
,  // measure 64
0100
0000
1001
0000
0010
0100
1000
0000
0010
0000
0101
0000
1010
0000
0100
0010
,  // measure 65
1001
0000
0110
0000
1010
0100
0010
0100
0010
0000
1001
0000
0101
0000
0011
0000
,  // measure 66
0101
0000
1001
0100
1010
0000
0100
0010
0100
0000
1010
0100
1001
0000
0010
0100
,  // measure 67
1001
0000
0110
0000
0011
0000
0100
0000
1000
0000
0100
0010
0100
0001
0100
0010
,  // measure 68
0100
0000
0010
1000
0010
0100
0010
1000
0012
0000
0000
0000
0000
0000
0000
0000
,  // measure 69
0000
0000
0000
0000
,  // measure 70
0003
0000
0000
0000
0000
0000
0000
0000
0000
0000
0000
0000
0000
0000
0000
1001
;
