#TITLE:Havoc Impact;
#SUBTITLE:;
#ARTIST:Nexus;
#TITLETRANSLIT:;
#SUBTITLETRANSLIT:;
#ARTISTTRANSLIT:;
#CREDIT:Aoreo and Mulletman;
#BANNER:../Beast - bn.png;
#BACKGROUND:../Beast - bg.png;
#LYRICSPATH:;
#CDTITLE:;
#MUSIC:Havoc Impact.ogg;
#OFFSET:-0.031;
#SAMPLESTART:99.943;
#SAMPLELENGTH:12.000;
#SELECTABLE:YES;
#DISPLAYBPM:185.000;
#BPMS:0.000=185.000;
#STOPS:;
#BGCHANGES:;
// cache tags:
#FIRSTBEAT:15.000;
#LASTBEAT:738.000;
#SONGFILENAME:Songs/Beast Aoreo BEAST! 2/Havoc Impact - [Aoreo & Mulletman]/Havoc Impact.sm;
#HASMUSIC:1;
#HASBANNER:1;
#MUSICLENGTH:243.957;
// end cache tags

//---------------dance-single - J. Nero----------------
#NOTES:
     dance-single:
     J. Nero:
     Challenge:
     16:
     1.000,1.000,0.066,0.250,1.000,2510.000,16.000,61.000,2.000,0.000:
0000
0000
0000
0000
,
0000
0000
0000
0000
,
0000
0000
0000
0000
,
0000
0000
0000
0000
0000
0000
0000
0000
0000
0000
0000
0000
1000
0001
0100
0010
,
1000
0100
1000
0010
0100
0001
0100
0001
0100
0010
1000
0100
1000
0001
0100
0010
,
0100
0001
1000
0100
0010
0001
1000
0001
0100
0010
1000
0001
1000
0010
0100
0001
,
0010
0001
1000
0100
1000
0001
1000
0100
0010
0001
1000
0001
1000
0010
0100
0001
,
0100
0010
1000
0001
1000
0010
0100
0001
0100
0010
1000
0100
0010
0001
0100
0010
,
1000
0001
1000
0001
0100
0010
1000
0001
1000
0100
0010
0100
1000
0001
1000
0010
,
0100
0001
0100
0010
1000
0001
1000
0100
1000
0010
0100
0001
1000
0001
0100
0010
,
1000
0001
0010
0100
1000
0001
0100
0001
1000
0010
0100
0010
1000
0001
1000
0100
,
0010
0100
0010
0001
1000
0100
1000
0001
0100
0001
1000
0010
0100
0010
1000
0001
,
0100
0010
0100
0001
1000
0010
0100
0010
0100
0001
1000
0100
1000
0001
0010
0100
,
1000
0001
1000
0100
0010
0001
1000
0100
1000
0001
1000
0100
0010
0100
1000
0001
,
0010
0001
1000
0010
0100
0010
1000
0001
0100
0001
0010
0001
1000
0100
0010
0001
,
1000
0100
1000
0001
0100
0010
0100
0001
1000
0010
0100
0010
1000
0001
0100
0010
,
0100
0001
0010
0100
1000
0001
1000
0100
0010
0001
1000
0001
1000
0010
0100
0010
,
1000
0001
0100
0010
0100
0001
1000
0010
0100
0010
1000
0001
1000
0100
0010
0001
,
0100
0001
1000
0100
1000
0001
0010
0100
1000
0001
1000
0010
0100
0010
1000
0001
,
0010
0001
1000
0100
0010
0001
0100
0010
1000
0100
1000
0001
1000
0100
1000
0001
,
0100
0100
0000
0000
0000
0000
0000
0000
,
0001
0001
0000
0000
1000
1000
0000
0000
,
0100
0100
0000
1000
0000
0001
0100
0010
,
0400
0000
0000
0000
,
0301
0001
0000
0000
0000
0000
0000
0000
,
0010
0010
0000
0000
0100
0100
0000
0000
,
1000
1000
0010
0100
0001
1000
0010
1000
,
0001
0100
0010
0100
0001
1000
0100
0010
0100
1000
0001
1000
,
0001
0000
0001
0000
0100
0000
0020
0000
0000
0000
0230
0000
0320
0000
2030
3000
,
0100
0000
0100
0000
2000
0000
3001
0000
0100
0000
0100
0000
0001
1000
0001
1000
,
0010
0010
1000
0200
0000
1300
0100
0020
,
0000
0000
0230
0000
2300
0000
3002
0000
0203
0000
0320
0000
2030
0000
3002
0003
,
0100
0100
0010
2000
0000
3001
0100
0020
,
0130
0000
0100
0000
0001
0000
1000
0000
0100
0000
0100
0000
1000
0100
1000
0100
,
0020
0030
0002
0003
2000
3000
0020
0000
0000
0000
0230
0300
0002
0003
2000
3000
,
1001
0000
0000
0000
0000
0000
0000
0000
0000
0000
0000
0000
0101
0000
0000
0000
0000
0000
0000
0000
0000
0000
0000
0000
0100
0000
0000
0010
0000
0000
1000
0000
0000
0001
0000
0000
1000
0000
0001
0000
1000
0000
0001
0000
1000
0000
0001
0000
,
1000
0001
1000
0100
0010
0100
1000
0001
0010
0100
0010
0001
1000
0001
1000
0010
,
0100
0001
0100
0010
1000
0010
1000
0001
1000
0100
0010
0100
0010
0001
1000
0001
,
1000
0100
0010
0001
1000
0001
0010
0100
1000
0001
1000
0010
0100
0001
0100
0010
,
1000
0001
1000
0001
0100
0010
0100
0001
1000
0100
1000
0001
0010
0100
0010
0100
,
1000
0001
1000
0010
0100
0001
0100
0010
1000
0001
1000
0100
0010
0001
1000
0001
,
0010
0100
1000
0001
1000
0001
0100
0010
0100
0001
1000
0100
1000
0001
1000
0010
,
0100
0010
0100
0001
1000
0001
1000
0100
1000
0001
0100
0010
0100
0001
1000
0001
,
0010
0100
1000
0001
1000
0100
0010
0100
1000
0001
1000
0010
0100
0001
1000
0001
,
0100
0010
0100
0001
1000
0010
1000
0001
0100
0010
1000
0100
0010
0100
1000
0001
,
0100
0010
0100
0001
1000
0001
0010
0100
0010
0001
1000
0100
1000
0010
0100
0001
,
0010
0001
1000
0010
0100
0010
1000
0001
0100
0010
1000
0100
1000
0001
0010
0001
,
0100
0010
1000
0001
1000
0100
0010
0001
1000
0001
0010
0100
1000
0001
1000
0010
,
0100
0001
0100
0010
1000
0010
1000
0001
0010
0100
1000
0001
1000
0010
0100
0001
,
1000
0100
1000
0010
0100
0001
0100
0010
1000
0001
1000
0100
0010
0100
1000
0010
,
0100
0001
0100
0010
1000
0001
0010
0100
0010
0001
1000
0100
1000
0001
0010
0100
,
0010
0001
1000
0001
1000
0100
1000
0010
0100
0001
0100
0010
1000
0001
1000
0010
,
0100
0001
1000
0100
0010
0100
1000
0001
0010
0100
1000
0001
1000
0010
0100
0001
,
0100
0010
0100
0001
1000
0001
1000
0100
0010
0100
0010
0001
1000
0001
0010
0100
,
0010
0100
1000
0001
1000
0010
0100
0001
0100
0001
1000
0100
1000
0001
0010
0001
,
1000
0010
1000
0100
0010
0001
1000
0010
0100
0001
0100
0010
1000
0001
0010
0100
,
1000
0001
1000
0100
0010
0001
1000
0001
0100
0010
0100
0001
0100
0001
0100
0010
,
1000
0001
1000
0100
1000
0100
1000
0001
0100
0001
0100
0010
1000
0001
0010
0100
,
1000
0001
1000
0001
1000
0100
1000
0100
0010
0100
0010
0001
0010
0001
1000
0001
,
1000
0010
0100
0001
0100
0010
1000
0001
1000
0100
0010
0100
1000
0001
1000
0010
,
0100
0001
1000
0100
0010
0100
1000
0001
1000
0010
0100
0010
1000
0100
1000
0010
,
0100
0001
0010
0001
1000
0100
0010
0100
1000
0001
0010
0100
1000
0001
1000
0100
,
0010
0001
1000
0001
1000
0010
0100
0001
0100
0010
1000
0001
1000
0001
0010
0100
,
0010
0001
1000
0001
1000
0100
0010
0100
1000
0001
1000
0010
0100
0010
1000
0001
,
0010
0001
1000
0100
1000
0001
0100
0010
0100
0001
1000
0100
0010
0100
1000
0001
,
1000
0010
0100
0001
1000
0001
0010
0100
1000
0001
1000
0100
0010
0001
1000
0100
,
1000
0010
0100
0001
0100
0010
1000
0100
0010
0100
1000
0001
0010
0100
0010
0001
,
1000
0010
0100
0001
1000
0001
0010
0100
0010
0001
1000
0001
1000
0010
0100
0001
,
1000
0001
1000
0100
0010
0100
1000
0001
0010
0100
0010
0001
1000
0001
1000
0010
,
0100
0001
0100
0010
1000
0010
1000
0001
1000
0100
0010
0100
0010
0001
1000
0001
,
1000
0100
0010
0001
1000
0001
0010
0100
1000
0001
1000
0010
0100
0001
0100
0010
,
1000
0001
1000
0001
0100
0010
0100
0001
1000
0100
1000
0001
0010
0100
0010
0100
,
1000
0001
1000
0010
0100
0001
0100
0010
1000
0001
1000
0100
0010
0001
1000
0001
,
0010
0100
1000
0001
1000
0001
0100
0010
0100
0001
1000
0100
1000
0001
1000
0010
,
0100
0010
0100
0001
1000
0001
1000
0100
1000
0001
0100
0010
0100
0001
1000
0001
,
0010
0100
1000
0001
1000
0100
0010
0100
1000
0001
1000
0010
0100
0001
1000
0001
,
0100
0010
0100
0001
1000
0010
1000
0001
0100
0010
1000
0100
0010
0100
1000
0001
,
0100
0010
0100
0001
1000
0001
0010
0100
0010
0001
1000
0100
1000
0010
0100
0001
,
0010
0001
1000
0010
0100
0010
1000
0001
0100
0010
1000
0100
1000
0001
0010
0001
,
0100
0010
1000
0001
1000
0100
0010
0001
1000
0001
0010
0100
1000
0001
1000
0010
,
0100
0001
0100
0010
1000
0010
1000
0001
0010
0100
1000
0001
1000
0010
0100
0001
,
1000
0100
1000
0010
0100
0001
0100
0010
1000
0001
1000
0100
0010
0100
1000
0010
,
0100
0001
0100
0010
1000
0001
0010
0100
0010
0001
1000
0100
1000
0001
0010
0100
,
0010
0001
1000
0001
1000
0100
1000
0010
0100
0001
0100
0010
1000
0001
1000
0010
,
0100
0001
1000
0100
0010
0100
1000
0001
0010
0100
1000
0001
1000
0010
0100
0001
,
0100
0010
0100
0001
1000
0001
1000
0100
0010
0100
0010
0001
1000
0001
0010
0100
,
0010
0100
1000
0001
1000
0010
0100
0001
0100
0001
1000
0100
1000
0001
0010
0001
,
1000
0010
1000
0100
0010
0001
1000
0010
0100
0001
0100
0010
1000
0001
0010
0100
,
1000
0001
1000
0100
0010
0001
1000
0001
0100
0010
0100
0001
1000
0001
0100
0010
,
1000
0001
0010
0100
1000
0001
1000
0010
0100
0001
0100
0010
1000
0001
0010
0100
,
1000
0001
1000
0001
1000
0010
0100
0010
1000
0100
0010
0001
1000
0010
0100
0001
,
1000
0100
1000
0001
0100
0010
1000
0001
1000
0100
0010
0100
1000
0001
1000
0010
,
0100
0001
1000
0100
0010
0100
1000
0001
1000
0010
0100
0010
1000
0100
1000
0010
,
0100
0001
0010
0001
1000
0100
0010
0100
1000
0001
0010
0100
1000
0001
1000
0100
,
0010
0001
1000
0001
1000
0010
0100
0001
0100
0010
1000
0001
1000
0001
0010
0100
,
0010
0001
1000
0001
1000
0100
0010
0100
1000
0001
1000
0010
0100
0010
1000
0001
,
0010
0001
1000
0100
1000
0001
0100
0010
0100
0001
1000
0100
0010
0100
1000
0001
,
1000
0010
0100
0001
1000
0001
0010
0100
1000
0001
1000
0100
0010
0001
1000
0100
,
1000
0010
0100
0001
0100
0010
1000
0100
0010
0100
1000
0001
0010
0100
0010
0001
,
1000
0010
0100
0001
1000
0001
0010
0100
0010
0001
1000
0001
1000
0010
0100
0001
,
1000
0100
0010
0001
1000
0001
1000
0010
0100
0001
0010
0100
1000
0001
1000
0001
,
0100
0010
1000
0100
0010
0001
1000
0001
1000
0010
0100
0001
0010
0100
1000
0001
,
1000
0010
0100
0001
0010
0001
1000
0100
1000
0001
0010
0100
0010
0001
1000
0001
,
1000
0100
0010
0100
1000
0001
0010
0100
1000
0001
1000
0010
0100
0010
1000
0001
,
0100
0001
0010
0100
0010
0100
1000
0001
1000
0001
0100
0010
0100
0001
1000
0100
,
0010
0001
1000
0001
0010
0100
1000
0010
0100
0001
0100
0010
1000
0100
1000
0001
,
0100
0010
0100
0001
1000
0001
0100
0010
1000
0100
1000
0010
0100
0001
1000
0010
,
0100
0001
0010
0001
1000
0100
1000
0010
0100
0001
0010
0100
1000
0001
1000
0010
,
0100
0001
0100
0010
1000
0001
1000
0100
0010
0100
1000
0001
1000
0010
0100
0001
,
0100
0010
1000
0001
0010
0100
0010
0001
1000
0001
1000
0010
0100
0010
1000
0001
,
1000
0100
0010
0100
1000
0001
1000
0010
0100
0001
1000
0001
1000
0010
0100
0001
,
1000
0100
1000
0010
0100
0001
0010
0001
0100
0010
1000
0100
1000
0010
0100
0001
,
0010
0001
0100
0010
1000
0001
0010
0100
1000
0001
1000
0100
0010
0001
1000
0001
,
1000
0100
1000
0001
0100
0010
0100
0001
1000
0001
0010
0100
1000
0001
1000
0010
,
0100
0001
0100
0010
1000
0001
1000
0100
0010
0100
1000
0001
1000
0100
0010
0001
,
1000
0001
0010
0100
1000
0001
1000
0010
0100
0001
0100
0010
1000
0001
1000
0001
,
0200
0300
0000
0000
0202
0303
0000
0000
2002
3003
0000
0000
2200
3300
0000
0000
,
0100
1000
0001
0100
0010
0100
0001
1000
0001
0010
0100
0010
0001
1000
0001
1000
,
0100
0010
0100
1000
0001
0100
0010
0100
0001
1000
0100
0010
0100
1000
0010
0100
,
0001
0010
0001
1000
0100
1000
0010
0100
0001
0010
0001
1000
0100
0010
0100
1000
,
0001
0010
0100
1000
0001
1000
0100
0010
0001
1000
0010
0100
0001
0100
0010
1000
,
0100
1000
0001
1000
0100
0010
0001
0010
0100
0010
0001
1000
0001
1000
0010
0100
,
0001
1000
0001
0010
0100
0010
0001
1000
0001
1000
0100
0010
0100
1000
0001
1000
,
0010
0100
0001
0100
0010
0100
0001
1000
0100
0010
0100
1000
0001
1000
0100
0010
,
0001
1000
0001
0010
0100
1000
0001
1000
0010
0100
0001
1000
0010
0100
0001
1000
,
0001
1000
0010
0100
0010
0100
0010
1000
0001
1000
0010
1000
0001
1000
0100
1000
,
0100
0010
0100
0010
0001
0010
0001
1000
0001
1000
0100
0010
0001
1000
0010
0100
,
0001
1000
0010
0100
0001
0010
0100
1000
0001
0010
0100
0010
0001
1000
0010
1000
,
0010
1000
0001
0010
0100
1000
0010
0100
0001
0100
0010
0100
0001
1000
0010
0100
,
0010
1000
0010
1000
0001
0100
0001
0100
0010
1000
0010
1000
0001
0100
0010
0100
,
0001
0100
0010
0100
0001
1000
0100
0010
0100
1000
0100
0010
0100
0010
0001
1000
,
0010
0100
0001
1000
0100
0010
0001
1000
0100
0010
0001
1000
0001
1000
0001
0010
,
0100
1000
0001
1000
0001
0100
0010
0100
0010
0100
0001
1000
0100
0010
0100
0010
,
0001
1000
0001
1000
0100
0010
0100
1000
0001
1000
0010
0100
0001
0100
0010
0100
,
0001
1000
0100
1000
0001
1000
0100
1000
0001
0100
0010
0100
0001
0100
0010
0100
,
0001
0100
0001
1000
0100
0010
0100
1000
0001
0010
0100
1000
0001
1000
0010
0100
,
0001
1000
0001
1000
0100
0010
0001
1000
0001
0010
0100
1000
0001
1000
0010
0100
,
0001
1000
0001
1000
0100
0010
0100
1000
0001
1000
0010
0100
0001
1000
0001
1000
,
0100
0010
0001
1000
0001
0100
0010
0100
0001
1000
0100
1000
0001
1000
0100
1000
,
0001
1000
0100
1000
0001
0100
0010
0100
0001
1000
0010
0100
0001
0010
0100
1000
,
0001
1000
0100
0010
0001
1000
0001
1000
0010
0100
0010
0100
0001
1000
0001
1000
,
0100
0010
0001
0010
0001
1000
0100
1000
0001
0100
0001
0100
0001
0100
0010
0100
,
0001
1000
0100
1000
0001
0010
0100
1000
0100
1000
0100
1000
0001
0100
0010
0100
,
0001
1000
0100
1000
0001
0010
0001
0010
0100
1000
0100
1000
0001
0100
0010
0100
,
0001
1000
0001
0010
0100
1000
0001
1000
0001
0100
0010
0100
0001
1000
0001
1000
,
0100
0010
0001
1000
0010
0100
0010
0100
0001
1000
0001
1000
0100
0010
0100
1000
,
0010
0100
0010
0100
0001
1000
0001
1000
0010
0100
0001
1000
0001
0010
0100
1000
,
0001
1000
0100
0010
0001
1000
0001
1000
0010
0100
0010
0100
0001
1000
0100
1000
,
0001
0010
0001
0010
0100
1000
0001
1000
0100
1000
0100
1000
0001
1000
0001
1000
,
0020
0030
0000
0000
0220
0330
0000
0000
0202
0303
0000
0000
2002
3003
0000
0000
,
0M00
0000
0001
0000
0000
0100
0000
0000
0010
0000
0000
0010
0000
0000
0010
0000
,
0000
0000
1000
0000
0000
0001
0000
0000
0100
0000
0000
0100
0000
0000
0100
0000
,
0000
0000
0001
0000
0000
0010
0000
0000
0100
0000
0000
0100
0000
0000
0100
0000
,
0000
0000
1000
0000
0000
0010
0000
0000
0100
0000
0000
0100
0000
0000
0100
0000
,
0000
0000
0010
0000
0000
1000
0000
0000
0001
0000
0000
0001
0000
0000
0001
0000
,
0000
0000
0010
0000
0000
0100
0000
0000
1000
0000
0000
1000
0000
0000
1000
0000
,
0000
0000
0010
0000
0000
0100
0000
0000
0001
0000
0000
0001
0000
0000
0001
0000
,
0000
0000
1000
0000
0000
0100
0000
0000
1000
0000
0000
1000
0000
0000
1000
0000
,
000M
0000
0010
0000
0000
0200
0000
0000
0001
0000
0000
0001
0000
0000
0301
0000
,
0000
0000
1000
0000
0000
0200
0000
0000
1000
0000
0000
1000
0000
0000
1300
0000
,
0000
0000
0001
0000
0000
0200
0000
0000
0010
0000
0000
0010
0000
0000
0310
0000
,
0000
0000
1000
0000
0000
0002
0000
0000
0010
0000
0000
0010
0000
0000
0013
0000
,
0000
0000
0100
0000
0000
2000
0000
0000
0010
0000
0000
0010
0000
0000
3010
0000
,
0000
0000
0100
0000
0000
0002
0000
0000
1000
0000
0000
1000
0000
0000
1003
0000
,
0000
0000
0100
0000
0000
2000
0000
0000
0010
0000
0000
0010
0000
0000
3010
0000
,
0000
0000
0100
0000
0000
0002
0000
0000
0100
0000
0000
0100
0000
0000
0103
0000
,
0202
0303
0000
0000
2002
3003
0000
0000
2200
3300
0000
0000
2002
3003
0000
0000
,
0001
0100
0010
0100
0001
1000
0001
1000
0100
0010
0100
0010
0001
1000
0001
1000
,
0010
0100
0001
1000
0100
1000
0001
0100
0010
0100
0001
1000
0001
0010
0100
1000
,
0001
1000
0100
0010
0001
1000
0001
1000
0100
1000
0001
0100
0010
0100
0001
1000
,
0001
1000
0010
0100
0010
1000
0001
0010
0100
0010
0100
1000
0001
1000
0100
0010
,
0001
0010
0001
1000
0100
1000
0001
0100
0010
0100
0001
1000
0010
0100
0010
1000
,
0001
0100
0010
0100
0001
1000
0100
0010
0100
1000
0001
1000
0010
0100
0001
0100
,
0001
1000
0100
0010
0100
0010
0001
1000
0001
1000
0100
1000
0010
0100
0001
0100
,
0010
1000
0001
1000
0100
0010
0100
1000
0001
0010
0001
1000
0010
1000
0001
1000
,
0010
0100
0001
1000
0001
0100
0010
0100
0010
0100
0001
0100
0010
0100
0010
1000
,
0010
1000
0001
0010
0001
0010
0100
0010
0100
1000
0100
1000
0001
0100
0010
1000
,
0100
0010
0001
0100
0010
1000
0010
0100
0001
1000
0001
1000
0100
0010
0001
1000
,
0001
1000
0001
1000
0100
0010
0100
1000
0001
0100
0001
0100
0010
0100
0010
1000
,
0001
0010
0100
1000
0001
0010
0100
0010
0001
0100
0001
0100
0001
1000
0001
0010
,
0100
1000
0001
1000
0001
1000
0100
1000
0100
0010
0100
0010
0001
0010
0001
1000
,
0001
1000
0010
0100
0010
1000
0001
0100
0010
0100
0001
0100
0001
1000
0010
1000
,
0001
0010
0001
1000
0100
1000
0001
0010
0100
1000
0001
0100
0010
1000
0001
1000
,
0002
0003
0000
0000
2002
3003
0000
0000
2020
3030
0000
0000
0202
0303
0000
0000
,
0002
0000
0003
0000
;

//---------------dance-single - J. Nero & G. Moese----------------
#NOTES:
     dance-single:
     J. Nero & G. Moese:
     Hard:
     14:
     1.000,1.000,0.135,1.000,1.000,1911.000,33.000,254.000,3.000,0.000:
0000
0000
0000
0000
,
0000
0000
0000
0000
,
0000
0000
0000
0000
,
0000
0000
0000
0000
0000
0000
0000
0000
0000
0000
0000
0000
1000
0001
0100
0010
,
2000
3000
0001
0000
0100
0001
0100
0001
0100
0000
0001
0000
2000
3000
0002
0003
,
0200
0300
0010
0000
2000
3000
0002
0003
0100
0010
1000
0001
1000
0010
0100
0001
,
0020
0030
0001
0000
2000
3000
0002
0003
0020
0030
0200
0300
2000
3000
0200
0300
,
0020
0030
0200
0300
2000
3000
0020
0030
0100
0010
1000
0100
0010
0001
0100
0010
,
2000
3000
0001
0000
0100
0010
1000
0001
2000
3000
0001
0000
2000
3000
0200
0300
,
2000
3000
0001
0000
0200
0300
0020
0030
0100
0010
1000
0001
0100
0001
1000
0010
,
0200
0300
0010
0000
2000
3000
0002
0003
2000
3000
0020
0030
0200
0300
0002
0003
,
2000
3000
0020
0030
0200
0300
0002
0003
2000
3100
0010
0001
0100
0010
1000
0001
,
0200
0300
0010
0000
1000
0010
0100
0010
0200
0300
0010
0000
2000
3000
0200
0300
,
0020
0030
0001
0000
2000
3000
0200
0300
0010
0001
1000
0100
0010
0100
1000
0001
,
0020
0030
0001
0000
2000
3000
0002
0003
0200
0300
0002
0003
2000
3000
0020
0030
,
2000
3000
0002
0003
2000
3000
0200
0300
1000
0010
0100
0010
1000
0001
0100
0010
,
0200
0300
0001
0000
1000
0100
1000
0100
0020
0030
0001
0000
0200
0300
0002
0003
,
2000
3000
0010
0000
2000
3000
0020
0030
0100
0010
1000
0001
1000
0100
0010
0001
,
0200
0300
0001
0000
2000
3000
0020
0030
0200
0300
0002
0003
2000
3000
0020
0030
,
0200
0300
0002
0003
2000
3000
0200
0300
1000
0010
1000
0001
1000
0100
1000
0001
,
0100
0100
0000
0000
0000
0000
0000
0000
,
0001
0001
0000
0000
1000
1000
0000
0000
,
0100
0100
0000
1000
0000
0001
0100
0010
,
0400
0000
0000
0000
,
0301
0001
0000
0000
0000
0000
0000
0000
,
0010
0010
0000
0000
0100
0100
0000
0000
,
1000
1000
0010
0100
0001
1000
0010
1000
,
0001
0100
0010
0100
0001
1000
0100
0010
0100
1000
0001
1000
,
0001
0000
0001
0000
0100
0000
0020
0000
0000
0000
0230
0000
0320
0000
2030
3000
,
0100
0000
0100
0000
2000
0000
3001
0000
0100
0000
0100
0000
0001
1000
0001
1000
,
0010
0010
1000
0200
0000
1300
0100
0020
,
0000
0000
0230
0000
2300
0000
3002
0000
0203
0000
0320
0000
2030
0000
3002
0003
,
0100
0100
0010
2000
0000
3001
0100
0020
,
0130
0000
0100
0000
0001
0000
1000
0000
0100
0000
0100
0000
1000
0100
1000
0100
,
0020
0030
0002
0003
2000
3000
0020
0000
0000
0000
0230
0300
0002
0003
2000
3000
,
1001
0000
0000
0000
0000
0000
0000
0000
0000
0000
0000
0000
0101
0000
0000
0000
0000
0000
0000
0000
0000
0000
0000
0000
0100
0000
0000
0010
0000
0000
1000
0000
0000
0001
0000
0000
1000
0000
0001
0000
1000
0000
0001
0000
1000
0000
0001
0000
,
1000
0001
1000
0100
0010
0100
1000
0001
0010
0100
0010
0001
1000
0001
1000
0010
,
0100
0001
0100
0010
1000
0010
1000
0001
1000
0100
0010
0100
0010
0001
1000
0001
,
1000
0100
0010
0001
1000
0001
0010
0100
1000
0001
1000
0010
0100
0001
0100
0010
,
1000
0001
1000
0001
0100
0010
0100
0001
1000
0100
1000
0001
0010
0100
0010
0100
,
1000
0001
1000
0010
0100
0001
0100
0010
1000
0001
1000
0100
0010
0001
1000
0001
,
0010
0100
1000
0001
1000
0001
0100
0010
0100
0001
1000
0100
1000
0001
1000
0010
,
0100
0010
0100
0001
1000
0001
1000
0100
1000
0001
0100
0010
0100
0001
1000
0001
,
0010
0100
1000
0001
1000
0100
0010
0100
1000
0001
1000
0010
0100
0001
1000
0001
,
0100
0010
0100
0001
1000
0010
1000
0001
0100
0010
1000
0100
0010
0100
1000
0001
,
0100
0010
0100
0001
1000
0001
0010
0100
0010
0001
1000
0100
1000
0010
0100
0001
,
0010
0001
1000
0010
0100
0010
1000
0001
0100
0010
1000
0100
1000
0001
0010
0001
,
0100
0010
1000
0001
1000
0100
0010
0001
1000
0001
0010
0100
1000
0001
1000
0010
,
0100
0001
0100
0010
1000
0010
1000
0001
0010
0100
1000
0001
1000
0010
0100
0001
,
1000
0100
1000
0010
0100
0001
0100
0010
1000
0001
1000
0100
0010
0100
1000
0010
,
0100
0001
0100
0010
1000
0001
0010
0100
0010
0001
1000
0100
1000
0001
0010
0100
,
0010
0001
1000
0001
1000
0100
1000
0010
0100
0001
0100
0010
1000
0001
1000
0010
,
0100
0001
1000
0100
0010
0100
1000
0001
0010
0100
1000
0001
1000
0010
0100
0001
,
0100
0010
0100
0001
1000
0001
1000
0100
0010
0100
0010
0001
1000
0001
0010
0100
,
0010
0100
1000
0001
1000
0010
0100
0001
0100
0001
1000
0100
1000
0001
0010
0001
,
1000
0010
1000
0100
0010
0001
1000
0010
0100
0001
0100
0010
1000
0001
0010
0100
,
1000
0001
1000
0100
0010
0001
1000
0001
0100
0010
0100
0001
0100
0001
0100
0010
,
1000
0001
1000
0100
1000
0100
1000
0001
0100
0001
0100
0010
1000
0001
0010
0100
,
1000
0001
1000
0001
1000
0100
1000
0100
0010
0100
0010
0001
0010
0001
1000
0001
,
1000
0010
0100
0001
0100
0010
1000
0001
1000
0100
0010
0100
1000
0001
1000
0010
,
0100
0001
1000
0100
0010
0100
1000
0001
1000
0010
0100
0010
1000
0100
1000
0010
,
0100
0001
0010
0001
1000
0100
0010
0100
1000
0001
0010
0100
1000
0001
1000
0100
,
0010
0001
1000
0001
1000
0010
0100
0001
0100
0010
1000
0001
1000
0001
0010
0100
,
0010
0001
1000
0001
1000
0100
0010
0100
1000
0001
1000
0010
0100
0010
1000
0001
,
0010
0001
1000
0100
1000
0001
0100
0010
0100
0001
1000
0100
0010
0100
1000
0001
,
1000
0010
0100
0001
1000
0001
0010
0100
1000
0001
1000
0100
0010
0001
1000
0100
,
1000
0010
0100
0001
0100
0010
1000
0100
0010
0100
1000
0001
0010
0100
0010
0001
,
1000
0010
0100
0001
1000
0001
0010
0100
0010
0001
1000
0001
1000
0010
0100
0001
,
2000
0000
0000
3000
0001
0100
0001
0100
0010
0000
0100
0000
0001
0000
1000
0100
,
0000
1000
0100
0010
0100
1000
0001
0100
,
0020
0000
0000
0030
0100
0001
0100
0001
0010
0000
0001
0000
1000
0100
1000
0000
,
0001
0100
0010
0100
0001
0100
0010
1000
,
0001
0000
0010
0000
0001
0100
0001
0100
0010
0000
0100
0000
0001
0000
1000
0100
,
1000
0001
0100
0010
1000
0100
0010
0100
,
1000
0000
0001
0000
0100
0010
0100
0001
1000
0000
0100
0000
0010
0001
0010
0000
,
0001
1000
0100
1000
0010
0100
0001
1000
,
0002
0000
0000
0003
0100
0001
0100
0010
1000
0000
0100
0000
1000
0000
0100
0010
,
0001
1000
0100
1000
0001
0100
0010
0100
,
0002
0000
0000
0003
1000
0100
1000
0001
0100
0000
0000
0000
0001
0100
0010
0100
,
0001
1000
0100
1000
0010
0100
0001
1000
,
0001
0000
0010
0000
0100
0010
0100
1000
0001
0000
0100
0000
0010
0000
1000
0100
,
0010
0100
1000
0001
0100
0010
0100
0001
,
2000
0000
0000
3000
0001
0100
0010
0100
0001
0000
0000
0000
1000
0100
1000
0001
,
0100
0001
0100
0010
0100
0001
1000
0100
,
2000
0000
3001
0100
0010
0100
0001
1000
0001
0000
0100
0000
0010
0000
0100
0000
,
0001
0000
1000
0100
0010
0100
1000
0001
1000
0000
0001
0000
0400
0000
0000
0000
,
0300
0000
0001
0010
0100
1000
0001
0100
0010
0000
0100
0000
0001
0000
0100
0000
,
0002
0000
0000
0023
0000
0000
0230
0000
,
0300
0000
1000
0000
0100
1000
0001
1000
0001
0000
0100
0000
0010
0000
0100
0000
,
0000
0000
0001
0000
1000
0100
1000
0001
0100
0000
0010
0000
4000
0000
0000
0000
,
3000
0000
0001
0000
0100
0010
1000
0001
1000
0000
0001
0000
0010
0000
0100
0000
,
2000
0000
0000
3200
0000
0000
0320
0000
,
0030
0000
0100
0000
1000
0010
0100
0001
0100
0000
0001
0000
1000
0000
0010
0000
,
0000
0000
0100
0000
0001
0100
0010
0100
0001
0000
1000
0000
0400
0000
0000
0000
,
0300
0000
1000
0000
0001
1000
0100
0010
0100
0000
0010
0000
0001
0000
1000
0000
,
0200
0000
0000
2300
0000
0000
3020
0000
,
0030
0000
0100
0000
0001
0100
0001
1000
0100
0000
1000
0000
0100
0000
0010
0000
,
0000
0000
0100
0000
1000
0001
0100
0010
0100
0000
0001
0000
2000
0000
0000
0000
,
3000
0000
0001
0000
0100
0010
0100
0001
1000
0000
0100
0000
0010
0000
0100
0000
,
0020
0000
0000
0000
0000
0000
0032
0000
0000
0000
0000
0000
0203
0000
0000
0300
,
0101
0000
0001
0000
0100
0000
0010
0100
0001
0000
1000
0000
0100
0000
0010
0001
,
1000
0000
0010
0000
0100
0000
0010
1000
0010
0000
0100
0000
0001
0000
0001
0000
,
1000
0000
0100
0000
0010
0000
0100
1000
0001
0000
1000
0000
0010
0000
0100
0001
,
0020
0000
0000
0230
0000
0000
2300
0000
,
3001
0000
0100
0000
0010
0000
1000
0100
1000
0000
0001
0000
0100
0000
0001
1000
,
0010
0000
0100
0000
0001
0000
1000
0010
0100
0000
0010
0000
1000
0000
1000
0000
,
0001
0000
0010
0000
0100
0000
0010
0001
1000
0000
0010
0000
0100
0000
0010
1000
,
0002
0000
0000
0023
0000
0000
0230
0000
,
1300
0000
0010
0000
0100
0000
0001
0100
0010
0000
1000
0000
0001
0000
1000
0010
,
0100
0000
0010
0000
1000
0000
0001
0010
0001
0000
0010
0000
0100
0000
0100
0000
,
1000
0000
0001
0000
1000
0000
0001
0100
0010
0000
0100
0000
0001
0000
1000
0100
,
1000
0001
0100
0001
0100
0010
1000
0001
1000
0100
0010
0100
0010
0001
1000
0001
,
1000
0000
0001
0000
0100
0000
0010
0100
0010
0000
1000
0000
0001
0000
1000
0100
,
1000
0000
0100
0000
0010
0000
0001
1000
0010
0000
0100
0000
0001
0000
0001
0000
,
1000
0000
0010
0000
0100
0000
0001
1000
0100
0000
1000
0000
0010
0000
0100
0001
,
0100
0010
1000
0001
1000
0010
0100
0010
1000
0001
1000
0100
1000
0001
0100
0001
,
2000
3000
0000
0000
2002
3003
0000
0000
0202
0303
0000
0000
2020
3030
0000
0000
,
2000
3001
0100
0010
0100
0001
1000
0001
1000
0100
0010
0100
0010
0001
1000
0001
,
0100
0010
0100
0001
1000
0001
1000
0100
0010
0001
1000
0001
1000
0010
0100
0000
,
0001
0100
0001
1000
0100
1000
0001
0010
0100
0010
0100
1000
0001
1000
0100
0010
,
0001
1000
0001
0100
0010
0100
0001
1000
0001
1000
0100
0010
0100
1000
0001
0000
,
1000
0100
1000
0001
0100
0001
1000
0010
0100
0010
0100
0001
1000
0001
0010
0100
,
1000
0001
0100
0010
0100
0001
1000
0100
1000
0001
0100
0010
0100
0001
1000
0000
,
0001
0100
0010
0100
0001
1000
0100
0010
0100
0010
0001
1000
0001
0100
0010
1000
,
0010
0100
0001
1000
0100
0010
0001
1000
0001
1000
0100
1000
0001
0100
0010
0100
,
0001
1000
0010
0100
0010
0100
0010
1000
0001
0100
0010
0100
0001
1000
0010
1000
,
0010
0100
0001
1000
0001
0100
0010
0100
0001
1000
0100
0010
0001
1000
0010
0100
,
0001
1000
0010
0100
0001
0010
0100
1000
0001
0010
0100
0010
0001
1000
0010
0100
,
0010
1000
0001
0010
0100
1000
0010
0100
0001
0100
0010
1000
0001
1000
0010
0100
,
0010
1000
0010
1000
0001
0100
0001
0100
0010
1000
0010
1000
0001
0100
0010
0100
,
0001
0100
0010
0100
0001
1000
0100
0010
0100
1000
0100
0010
0001
1000
0001
1000
,
0010
0100
0001
1000
0100
0010
0001
1000
0100
0010
0001
1000
0001
1000
0001
0010
,
0100
1000
0001
1000
0001
0100
0010
1000
0010
0100
0001
1000
0100
0010
0100
0010
,
0001
1000
0100
1000
0001
1000
0100
1000
0001
0100
0010
0100
0001
1000
0001
1000
,
0010
0100
0010
1000
0100
1000
0001
0100
0001
1000
0010
0100
0001
1000
0001
0000
,
0100
0010
0100
0001
1000
0001
0010
0100
0010
0100
1000
0001
1000
0010
0100
0001
,
0100
0010
1000
0001
1000
0100
0010
0001
0010
0001
1000
0100
1000
0001
0100
0000
,
0001
0100
0001
0100
0010
1000
0001
1000
0100
0010
0001
1000
0001
0010
0100
1000
,
0001
1000
0010
0100
0001
0100
0010
1000
0001
1000
0100
0010
0100
1000
0001
0000
,
0100
0001
1000
0010
0100
0010
0100
0001
1000
0100
0010
0100
1000
0001
1000
0010
,
0100
0001
0100
0010
1000
0010
0100
0001
1000
0001
1000
0100
0010
0100
1000
0001
,
01M0
0000
0001
0000
1002
0003
1000
0000
0020
0030
0200
0300
0101
0000
0001
0000
,
2000
3000
0100
0000
0210
0300
0020
0030
0001
0000
1000
0000
1010
0000
0010
0000
,
0100
0000
0001
0000
0102
0003
0100
0000
0020
0030
2000
3000
1100
0000
0100
0000
,
0020
0030
0001
0000
1002
0003
2000
3000
0010
0000
0100
0000
0101
0000
0001
0000
,
1000
0000
0100
0000
1200
0300
1000
0000
0002
0003
0200
0300
0101
0000
0001
0000
,
2000
3000
0100
0000
0210
0300
0020
0030
0001
0000
1000
0000
1001
0000
0001
0000
,
0100
0000
0001
0000
0102
0003
0100
0000
0020
0030
2000
3000
1100
0000
0100
0000
,
2000
0000
3002
0203
0320
0000
2030
3000
,
2002
3003
0000
0000
0022
0033
0000
0000
0220
0330
0000
0000
2200
3300
0000
0000
,
000M
0000
1000
0000
0000
0010
0000
0000
0100
0000
0000
0100
0000
0000
0100
0000
,
0000
0000
0001
0000
0000
0010
0000
0000
0100
0000
0000
0100
0000
0000
0100
0000
,
0000
0000
1000
0000
0000
0001
0000
0000
0100
0000
0000
0100
0000
0000
0100
0000
,
0000
0000
0001
0000
0000
1000
0000
0000
0010
0000
0000
0010
0000
0000
0010
0000
,
0000
0000
0100
0000
0000
0001
0000
0000
0010
0000
0000
0010
0000
0000
0010
0000
,
0000
0000
0100
0000
0000
1000
0000
0000
0001
0000
0000
0001
0000
0000
0001
0000
,
0000
0000
1000
0000
0000
0010
0000
0000
0100
0000
0000
0100
0000
0000
0100
0000
,
0000
0000
0001
0000
0000
0010
0000
0000
0100
0000
0000
0100
0000
0000
0100
0000
,
000M
0000
1000
0000
0000
0020
0000
0000
0100
0000
0000
0100
0000
0000
0130
0000
,
0000
0000
0001
0000
0000
2000
0000
0000
0100
0000
0000
0100
0000
0000
3100
0000
,
0000
0000
0010
0000
0000
0002
0000
0000
1000
0000
0000
1000
0000
0000
1000
0003
,
0000
0000
0010
0000
0000
0200
0000
0000
0001
0000
0000
0001
0000
0000
0301
0000
,
0000
0000
1000
0000
0000
0200
0000
0000
1000
0000
0000
1000
0000
0000
1300
0000
,
0000
0000
0001
0000
0000
0200
0000
0000
0010
0000
0000
0010
0000
0000
0310
0000
,
0000
0000
1000
0000
0000
0002
0000
0000
0010
0000
0000
0010
0000
0000
0013
0000
,
0000
0000
0100
0000
0000
2000
0000
0000
0001
0000
0000
0001
0000
0000
3001
0000
,
2002
3003
0000
0000
0000
0000
0000
0000
0202
0303
0000
0000
0000
0000
0000
0000
0220
0330
0000
0000
0000
0000
0000
0000
2020
3030
0000
0000
0000
0000
0000
0000
,
1001
0000
0001
0000
1000
0010
0100
0010
1000
0000
0002
0003
0200
0300
0020
0030
,
0100
0000
0002
0003
2000
3000
0100
0000
0010
0100
1000
0001
0100
0010
1000
0010
,
0100
0000
0010
0000
2000
3000
0002
0003
0020
0030
0200
0300
2000
3000
0020
0030
,
0200
0300
0002
0003
2000
3000
0002
0003
1000
0010
0100
0001
1000
0100
0010
0001
,
0100
0000
0001
0000
0010
0100
1000
0100
0010
0000
0001
0000
2000
3000
0020
0030
,
2000
3000
0001
0000
0200
0300
0020
0030
0100
0010
1000
0001
1000
0100
0010
0001
,
1000
0000
0002
0003
2000
3000
0020
0030
0200
0300
0002
0003
2000
3000
0200
0300
,
0020
0030
0002
0003
2000
3000
0002
0003
0100
0010
0100
0001
1000
0001
1000
0100
,
0020
0030
0002
0003
1000
0010
0100
0010
0200
0300
0010
0000
2000
3000
0200
0300
,
0020
0030
0001
0000
2000
3000
0200
0300
0010
0001
1000
0100
0010
0100
1000
0001
,
0200
0300
0001
0000
2000
3000
0002
0003
0200
0300
0002
0003
2000
3000
0020
0030
,
2000
3000
0002
0003
2000
3000
0200
0300
1000
0010
0100
0010
1000
0001
0100
0010
,
0200
0300
0001
0000
1000
0100
1000
0100
0020
0030
0001
0000
0200
0300
0002
0003
,
2000
3000
0010
0000
2000
3000
0020
0030
0100
0010
1000
0001
1000
0100
0010
0001
,
0200
0300
0001
0000
2000
3000
0020
0030
0200
0300
0002
0003
2000
3000
0020
0030
,
0200
0300
0002
0003
2000
3000
0200
0300
1000
0010
1000
0001
1000
0100
1000
0001
,
2000
3000
0000
0000
2200
3300
0000
0000
0220
0330
0000
0000
0022
0033
0000
0000
,
0002
0000
0000
0000
0000
0000
0000
0003
0000
0000
0000
0000
0000
0000
0000
0000
;
