#TITLE:MaxX AttaxX;
#SUBTITLE:;
#ARTIST:DM Ashura;
#TITLETRANSLIT:;
#SUBTITLETRANSLIT:;
#ARTISTTRANSLIT:;
#CREDIT:L3OJ;
#BANNER:maxx.png;
#BACKGROUND:maxxBG.png;
#LYRICSPATH:;
#CDTITLE:;
#MUSIC:MaxX AttaxX.ogg;
#OFFSET:-5.927;
#SAMPLESTART:31.002;
#SAMPLELENGTH:13.640;
#SELECTABLE:YES;
#DISPLAYBPM:325.000;
#BPMS:0.000=325.500,128.000=162.750,136.000=325.500,456.000=162.750,460.000=325.500;
#STOPS:;
#BGCHANGES:;
// cache tags:
#FIRSTBEAT:0.000;
#LASTBEAT:461.250;
#SONGFILENAME:Songs/Rodd's Revival/MaxX AttaxX (Rodd Steps)/MaxX AttaxX (Rodd Steps).sm;
#HASMUSIC:1;
#HASBANNER:1;
#MUSICLENGTH:95.937;
// end cache tags

//---------------dance-single - R. Farias----------------
#NOTES:
     dance-single:
     R. Farias:
     Challenge:
     10:
     0.931,1.000,0.052,0.229,0.031,598.000,5.000,22.000,44.000,0.000:

1000
0100
0010
0001
,
0100
0000
0010
0100
0010
0100
0010
0100
,
0010
1000
0100
0010
,
0001
0000
0010
0001
0010
0001
0010
0001
,
0100
0100
0010
1000
,
0100
0000
0010
0100
0010
0100
0010
0100
,
0010
0001
0100
0010
,
1000
0000
0100
1000
0100
1000
0100
1000
,
0100
0010
0100
1000
,
0001
0000
0100
0001
0100
0001
0100
0001
,
0100
0000
0010
0000
0100
0010
0100
0010
,
0100
0000
0001
1000
0001
1000
0001
1000
,
0001
0000
1000
0100
0010
0001
0010
0100
,
1000
0000
0001
0100
0010
1000
0100
0010
,
0100
0000
1000
0001
0100
0010
0100
0010
,
1000
0100
0010
0001
0010
0100
1000
0001
,
0100
0010
0100
0001
,
1000
0100
0010
0100
1000
0001
0100
0010
,
0100
0001
1000
0100
,
0010
0001
0010
0100
1000
0001
1000
0001
,
0100
0000
0010
1000
0001
0100
0010
1000
,
0100
0000
0010
0001
0010
0100
1000
0001
,
0100
0000
0010
0100
0001
1000
0100
1000
,
0001
0100
0010
1000
0100
1000
0001
1000
,
0010
0000
0100
0001
1000
0100
0010
0100
,
1000
0000
0001
0100
0010
0100
0001
1000
,
0100
0000
0010
0001
0100
0010
1000
0100
,
0010
0000
0100
1000
0001
0100
0010
1000
,
0100
0000
0010
0100
0010
0100
0010
0100
,
0010
0000
0001
0010
0001
0010
0001
0010
,
0001
0000
0100
0001
0100
0001
0100
0001
,
0100
0010
1000
0010
1000
0010
1000
0100
,
M02M
0M00
M00M
0M00
0M0M
M00M
0030
0000
,
MM11
M1M1
M11M
1M1M
,
21MM
0000
3100
0000
0010
0001
0010
0100
,
1000
0000
0001
0000
0100
0010
1000
0100
,
0010
0000
0100
0000
1000
0001
0100
0010
,
0100
0000
0001
1000
0000
0001
1000
0000
,
0100
0000
0010
0000
0001
0010
0100
1000
,
0001
0000
0100
0000
0010
0100
0010
1000
,
0010
0000
1000
0000
0100
1000
0100
0010
,
0100
0000
0010
0001
0000
0001
0100
0000
,
0010
0000
1000
0000
0100
0010
0001
0010
,
0100
0000
1000
0000
0001
0100
0010
1000
,
0100
0000
1000
0000
0010
0100
0001
0010
,
0001
0000
0100
0010
0000
0010
1000
0000
,
0100
0000
0010
0000
0001
0010
0001
0010
,
0001
0000
0100
0000
0001
0100
0001
0100
,
0001
0000
0100
0000
0010
0100
0010
0100
,
0010
0000
1000
0100
0000
0100
0010
0000
,
0001
0000
0100
0000
0010
1000
0100
1000
,
0001
0100
0010
1000
0100
0010
0100
1000
,
0001
0100
0010
0100
0001
1000
0100
0010
,
0001
0000
0100
0010
0000
1000
0100
0000
,
0010
0001
0010
0100
1000
0001
0100
0010
,
1000
0001
0100
0010
0100
0001
1000
0100
,
0010
0001
0100
0010
1000
0100
0010
0100
,
1000
0000
0001
0100
0000
0010
1000
0000
,
0100
0010
0002
0000
,
0203
0000
0320
0000
,
2030
0000
3100
0010
,
0001
0000
0100
0001
0000
0100
0001
0000
,
0100
0010
0100
0010
0100
0010
1000
0010
,
1000
0100
1000
0100
1000
0001
1000
0001
,
1000
0001
0010
0100
1000
0001
0010
0100
,
1000
0100
0010
0001
1000
0100
0010
0001
,
2000
0000
0001
0000
,
0100
0000
0010
0000
,
3002
0000
1000
0000
,
0203
0000
0010
0000
,
0302
0000
0100
0000
,
0023
0000
0100
0000
,
0230
0000
1000
0000
,
2300
0000
0001
0000
,
3002
0000
0100
0000
,
0203
0000
1000
0000
,
2300
0000
0100
0000
,
3200
0000
0010
0000
,
0320
0000
1000
0000
,
2030
0000
0100
0000
,
3200
0000
0010
0000
,
0320
0000
0001
0000
,
0031
0100
0010
1000
,
0100
0010
0100
1000
,
0001
0100
0010
1000
,
0100
0010
0100
1000
,
0001
0100
0010
0100
,
0001
1000
0100
0010
,
0001
0010
0100
1000
,
0001
0100
0010
0100
,
0001
1000
0100
0010
,
0100
0010
0001
0010
,
0001
0100
0001
0100
,
0010
0100
0010
1000
,
0010
1000
0100
1000
,
0100
1000
0100
1000
0100
0010
0100
0010
,
0100
0010
0001
0010
0001
0100
0010
1000
,
0001
0100
0010
1000
0100
0010
0100
1000
,
0001
0000
0100
0000
0010
1000
0000
0010
,
1000
0000
0100
0000
0010
0100
0000
0010
,
0100
0000
0010
0000
0001
0100
0000
0001
,
0100
0010
0100
0001
,
1000
0000
0100
0000
0010
0001
0000
0100
,
0010
0000
1000
0000
0100
0010
0000
0010
,
0100
0000
1000
0000
0001
0100
0000
0010
,
1000
0100
0010
0001
0010
0100
1000
0001
,
0100
0000
0010
0000
1000
0100
0000
1000
,
0100
0000
0010
0000
0100
0010
0000
0100
,
0010
0000
0001
0000
0010
0001
0000
0010
,
0001
0100
1000
0100
,
0010
0000
1000
0000
0100
0010
0000
0001
,
0100
0000
0010
0000
1000
0100
0000
1000
,
0001
0000
0100
0000
0010
1000
0000
0010
,
0100
0010
1000
0001
0100
0010
1000
0001
,
0200
0000
M000
0000
M0M0
M00M
0000
M0M0
M00M
000M
M000
00M0
000M
M0M0
M0MM
0000
,
M30M
0000
0000
0000
0000
MMMM
0000
0000
0000
0000
0000
0000
0000
0000
0000
0000
;
