#TITLE:Happy Snowman;
#SUBTITLE:;
#ARTIST:Easy Pop;
#TITLETRANSLIT:;
#SUBTITLETRANSLIT:;
#ARTISTTRANSLIT:;
#CREDIT:;
#BANNER:happy-bn.png;
#BACKGROUND:happy-bg.png;
#LYRICSPATH:;
#CDTITLE:!mei.png;
#MUSIC:happy.mp3;
#OFFSET:-0.246;
#SAMPLESTART:12.000;
#SAMPLELENGTH:12.000;
#SELECTABLE:YES;
#BPMS:0.000=180.000;
#STOPS:;
#BGCHANGES:;
// cache tags:
#FIRSTBEAT:0.000;
#LASTBEAT:317.667;
#SONGFILENAME:Songs/Bemani.se Megapack/(mei) Happy Snowman/happy.sm;
#HASMUSIC:1;
#HASBANNER:1;
#MUSICLENGTH:110.427;
// end cache tags

//---------------dance-single - ----------------
#NOTES:
     dance-single:
     :
     Challenge:
     10:
     1.000,1.000,0.426,0.417,1.000,920.000,47.000,46.000,0.000,0.000:
1000
0000
0001
0000
1000
0000
2002
3003
,
1000
0010
0100
0010
1000
0100
0010
0001
,
0000
0001
1000
0100
0010
0100
1000
0200
,
0310
0001
1000
0001
0100
0010
1000
0001
,
0000
0001
1000
0100
1000
0001
0010
0002
,
1003
0100
0010
0100
1000
0001
1000
0001
,
0000
0001
1000
0100
0001
0100
0010
0002
,
1003
0001
0010
0001
1000
0100
1000
0001
,
1001
1001
1001
1100
,
1000
0000
0001
0100
0000
0001
0000
0010
0000
0001
1000
0000
1100
0000
1001
0000
,
0001
0000
0100
0001
0000
1000
0000
0001
0000
1000
0100
0000
0110
0000
1001
0000
,
0010
0000
1000
0100
0000
0010
0000
0001
0000
1000
0001
0000
1001
0000
0110
0000
,
0010
0000
1000
0100
0000
0010
0000
0100
0000
1000
0000
0010
0110
0000
0101
0000
,
1000
0000
0010
0100
0000
0001
0000
1000
0000
0001
0010
0000
0011
0000
0101
0000
,
0100
0000
0001
1000
0000
0100
0000
0010
0000
0001
1000
0000
0101
0000
0110
0000
,
0010
0000
0100
0010
0000
1000
0000
0100
0000
0010
0001
0000
0011
0000
1001
0000
,
1000
0010
1000
0100
0010
0100
1000
0010
1000
0100
0010
0001
0100
0001
1000
0002
,
0000
0000
0000
1003
,
1001
0000
0001
0000
0100
0010
0000
1000
0000
0100
1000
0000
0010
0000
0100
0000
,
0001
0000
1000
0000
0100
0010
0000
0100
0000
0010
0001
0000
1000
0000
0001
0000
,
1000
0000
0000
1000
0000
0000
1000
0000
0100
1000
0001
0000
1000
0000
0100
0000
,
1000
0000
0100
0000
0010
0100
0000
1000
0000
0010
0100
0000
0001
0000
0010
0000
,
0100
0000
1000
0000
0001
1000
0000
0100
0000
1000
0100
0000
0010
0000
0001
0000
,
1000
0000
0010
0000
0100
0010
0000
0100
0000
0010
0100
0000
1001
0000
0010
0000
,
1001
1001
0110
0000
,
1000
0001
0000
1000
0001
0000
0100
0000
0010
0100
0000
0010
0100
0000
0001
0000
,
1000
0001
0000
1000
0001
0000
0100
0000
0010
1000
0000
0100
1000
0000
0010
0000
,
1000
0001
0000
0100
0010
0000
0100
0000
0001
0100
0010
0100
0001
0000
0100
0000
,
0001
1000
0001
0100
0001
1000
0100
0010
0001
0010
0100
1000
0100
1000
0001
1000
,
0002
1000
0103
1000
0001
1000
0100
0010
0100
0010
0001
0100
0001
1000
0001
1000
,
0200
1300
0010
0100
0001
0100
0010
1000
0100
0010
0100
0010
0001
0010
0100
1000
,
0200
0310
0001
0010
0001
1000
0100
0010
0100
1000
0100
0010
0001
0100
0010
0100
,
0002
1003
0001
0100
0001
0010
0100
1000
0200
1300
0010
0100
0001
0100
0010
1000
,
0200
0310
0001
1000
0010
1000
0100
0010
0100
1000
0100
0010
0001
1000
0010
1000
,
0200
0310
0001
1000
0100
0010
0001
0010
0100
1000
0001
0010
0100
1000
0100
0010
,
0200
0310
0001
1000
0100
0010
0100
0010
0001
0010
0100
1000
0100
0010
0100
1000
,
0002
1003
0010
0100
0010
1000
0001
1000
0020
0130
0001
0100
0010
1000
0010
1000
,
0020
1030
0001
1000
0001
1000
0001
1000
0100
1000
0100
1000
0100
1000
0001
1000
,
0002
1003
0001
0100
0001
0100
0001
0100
0001
1000
0001
1000
0100
0010
0001
1000
,
0002
0103
0001
0010
0001
0100
0001
0100
0010
0100
0010
0100
0010
1000
0100
0010
,
0002
1003
0001
1000
0100
0010
0100
0010
0002
1003
0100
0010
0100
0010
0001
0100
,
0020
1030
0001
0010
0100
1000
0001
0010
0100
1000
0100
0010
0100
0010
0001
0010
,
0200
1300
0100
1000
0100
0010
0001
0010
0001
0010
0001
0100
0001
0100
0001
1000
,
0002
1003
0100
0010
0001
0010
0001
1000
0001
1000
0001
0100
0001
0010
0001
0100
,
0002
1003
0001
1000
0100
0010
0001
1000
0002
1003
0010
0100
0001
1000
0001
0000
,
1000
0000
0100
0000
0010
0001
0000
1000
0000
0010
1000
0000
0001
0000
0100
0000
,
1001
0000
1000
0000
0100
1000
0000
0001
0000
1000
0100
0000
0011
0000
1001
0000
,
0001
0000
0010
0000
0001
1000
0000
0010
0000
0100
0001
0000
1001
0000
1100
0000
,
0010
0000
0000
0010
0000
0000
0010
0000
0001
1000
0010
0000
1000
0000
0001
0000
,
1001
0000
0001
0000
0010
0001
0000
0100
0000
0001
0100
0000
1001
0000
0110
0000
,
0010
0000
0100
0000
0010
0100
0000
0010
0000
0100
0001
0000
1001
0000
0101
0000
,
0001
0000
1000
0000
0100
0010
0000
0001
0000
1000
0100
0000
0110
0000
0001
0000
,
1001
1001
1001
0000
,
1000
0001
0000
0100
0001
0000
0010
0000
0001
0100
0000
0001
1000
0000
0001
0000
,
0010
0001
0000
1000
0010
0000
0010
0000
0001
1000
0000
0001
1000
0000
1000
0000
,
0001
1000
0000
0001
0100
0000
0100
0000
0001
1000
0001
1000
0001
1000
0000
0000
,
0001
1000
0001
1000
0001
1000
0100
0010
0001
1000
0100
0010
0001
1000
0100
0010
,
0001
1000
0000
1000
0001
0000
0100
0000
0010
0000
0100
0000
0001
1000
0001
0000
,
2000
3010
0100
0001
0010
0001
0100
0010
1000
0010
0100
0001
0010
0001
0100
0001
,
2000
3100
0010
0001
1000
0100
0010
0001
1000
0100
0010
0001
0010
0100
0010
0100
,
2000
3100
0010
0001
0010
0001
1000
0001
0100
0001
0010
0100
1000
0100
1000
0001
,
0020
0130
1000
0001
0010
0100
1000
0001
0020
0130
1000
0100
1000
0100
1000
0100
,
2000
3100
0010
0001
0010
0001
0010
0001
0010
0001
1000
0001
1000
0001
1000
0001
,
0200
0301
0010
0001
0100
0001
1000
0100
0010
0100
0010
0001
0010
0001
1000
0100
,
0020
0031
0010
0100
1000
0100
1000
0100
1000
0100
1000
0001
1000
0010
1000
0100
,
2000
3010
1000
0001
1000
0100
0010
0001
0020
0130
0010
0001
0010
0100
1000
0100
,
0020
0031
0010
0001
0010
0001
0010
0001
1000
0100
0010
0001
0010
0100
0010
0100
,
2000
3100
0010
0001
0010
0001
0010
0001
1000
0001
1000
0001
0100
0010
1000
0001
,
0200
0310
0100
0001
0010
0100
0010
0001
0010
0100
1000
0001
1000
0001
0010
0100
,
0020
0130
1000
0100
0010
0001
0100
0010
0200
0310
1000
0100
0010
0001
1000
0100
,
2000
3100
1000
0100
1000
0100
0010
0001
0010
0100
1000
0001
0010
0100
1000
0100
,
0020
0031
0100
0001
0100
0010
0100
0001
0100
0010
1000
0010
0100
0010
1000
0100
,
2000
3100
0010
0100
0010
0001
0010
0001
0100
0001
0100
0010
1000
0010
0100
0010
,
1000
0010
1000
0100
0010
0001
0100
0010
1000
0100
0010
0001
1000
0100
0010
0001
,
1000
0000
0100
0000
0010
0001
0000
0100
0000
0010
1000
0000
1000
0000
0010
0000
,
0001
0000
0010
0000
1000
0100
0000
0010
0000
0100
1000
0000
1000
0000
0001
0000
,
0010
0000
0001
0000
1000
0001
0000
0100
0000
0010
0100
0000
0001
0000
0100
0000
,
1100
0000
0000
0110
0000
0000
0101
0000
1000
0000
0100
0000
0010
0000
0001
0000
,
0011
0000
0000
1001
0000
0000
0101
0000
0000
0000
1000
0000
0001
0000
1000
0000
,
0110
0000
0000
0000
0000
0000
0000
0000
0000
1001
0000
0000
0000
0000
0000
0000
0000
0000
0220
0000
0330
0000
0000
0000
0000
0000
0000
0000
0000
0000
0000
0000
0000
0000
0000
0000
0000
0000
0000
0000
0000
0000
0000
0000
0000
0000
0000
0000
;
