#TITLE:Banzai;
#SUBTITLE:(Steps by PsYc0tIk DrEaM);
#ARTIST:Misa;
#TITLETRANSLIT:;
#SUBTITLETRANSLIT:;
#ARTISTTRANSLIT:;
#CREDIT:;
#BANNER:;
#BACKGROUND:;
#LYRICSPATH:;
#CDTITLE:;
#MUSIC:Misa - Banzai.mp3;
#OFFSET:0.000;
#SAMPLESTART:100.000;
#SAMPLELENGTH:12.000;
#SELECTABLE:YES;
#BPMS:0.000=135.900,292.000=67.000,300.000=80.000,302.000=95.000,305.500=105.000,308.000=135.900;
#STOPS:348.500=0.120
,348.750=0.120
,349.000=0.120
,349.250=0.120
,349.500=0.120
,363.000=0.120
,363.250=0.120
,363.500=0.120
,363.750=0.120
,364.000=0.120
,465.500=0.120
,465.750=0.120
,466.000=0.120
,466.250=0.120
,466.500=0.120
,466.750=0.120
;
#BGCHANGES:;
// cache tags:
#FIRSTBEAT:4.000;
#LASTBEAT:481.500;
#SONGFILENAME:Songs/new again/Banzai/Banzai .sm;
#HASMUSIC:1;
#HASBANNER:0;
#MUSICLENGTH:217.763;
// end cache tags

//---------------dance-single - Blank----------------
#NOTES:
     dance-single:
     Blank:
     Hard:
     10:
     0.658,0.940,0.827,0.046,0.264,790.000,180.000,10.000,135.000,18.000:

0000
0000
0000
0000
,
1000
0100
0010
0001
0100
1000
0010
0001
,
0010
0100
1000
0100
0000
0010
0001
0100
,
0000
1000
0000
0100
0000
0001
0100
1000
,
0010
0001
0100
1000
0000
0000
0000
0000
,
1000
0100
0001
0010
1000
0100
0010
0001
,
0010
1000
0001
0100
0000
0001
0000
0010
,
0000
1000
0000
0100
0000
0001
0000
0010
,
1000
0100
0010
0001
1000
0100
0010
0001
0010
1000
0001
0100
0010
1000
0001
0100
,
0000
1001
0100
1000
0000
1001
0010
0001
,
1000
0100
1000
0010
0000
0110
0100
0010
,
0000
0011
0001
0010
0000
1100
0100
1000
,
0100
0010
0001
0010
0000
1010
1000
0010
,
0000
0101
0001
0100
0000
1001
0001
0010
,
1000
0100
0001
1000
0000
1010
0101
1010
,
0000
0011
1010
0011
0000
0011
1100
0011
,
1010
0101
1001
0110
0000
1001
0110
1111
,
1000
0100
0001
0010
1000
0100
0001
0010
,
1000
0100
0010
0001
0000
1000
0100
1000
,
0000
0100
0000
0010
0000
0001
0010
0100
,
1000
0100
0010
0001
0000
0000
0000
0000
,
0001
0010
1000
0100
0001
0010
1000
0100
,
0001
0010
1000
0100
0000
0001
0100
1000
,
0000
0100
0000
0001
0000
0010
0000
0100
,
1000
0100
0001
0010
0000
0000
0000
0000
,
0000
1000
0100
0010
0001
0010
0100
1000
,
0100
0010
0100
0001
0100
1000
0100
0001
,
0000
0000
1000
0100
1000
0000
0100
0000
0001
0000
0010
0000
1000
0000
0100
0000
,
0001
0000
0010
0100
1000
0000
0200
0000
0000
0000
0000
0000
0300
0000
0000
0000
,
0000
0010
1000
0001
0100
0001
0010
0100
,
1000
0100
0010
0001
0200
0000
0300
0000
,
1100
0000
0011
0000
1000
0100
0000
0010
,
0001
1000
0100
0010
0100
1000
0001
1000
0100
0010
0001
0010
0100
1000
0000
0000
,
0010
1000
0100
0010
0100
1000
0100
0001
,
0100
1000
0010
0001
0000
1000
0100
0001
,
0000
0100
0000
1000
0000
0010
0000
0001
,
0100
1000
0010
0001
0000
0000
0000
0000
,
0010
0000
0110
0000
1110
0000
1111
1100
,
0110
1001
0011
1100
0000
0110
1001
0110
,
0000
0101
0000
1010
0000
0011
1100
0110
,
0011
0101
1100
1010
0000
0000
0000
0000
,
0000
1100
1100
1100
0000
0011
0011
0011
,
0011
0101
1100
1010
0000
1001
1001
1001
,
0000
0110
0110
0110
0000
0110
1001
0110
,
1001
1001
0110
0110
0000
1100
0011
1100
,
0000
1010
0101
1010
0000
1100
0101
0011
,
1010
1100
0101
0011
0000
1100
1001
0011
,
0000
0101
0110
1100
0000
0101
1100
0101
,
0011
1010
1100
0101
0000
1010
0101
1001
,
0000
0001
0010
0100
1000
0100
0010
0001
,
0100
1000
0010
0002
0000
0003
0000
0000
,
0000
0100
0010
0100
0001
0100
1000
0100
,
0100
0001
0100
0000
1000
0000
0200
0000
0000
0000
0000
0000
0000
0000
0300
0000
,
0001
0100
1000
0100
0001
0100
1000
0010
,
0001
0010
1000
0010
0002
0000
0000
0003
,
1000
1000
0100
0100
0010
0010
0001
0001
,
1000
0001
1000
0001
1000
0001
1000
0001
0010
0100
0010
0100
0010
0100
0010
0100
,
0000
1000
0100
0001
0100
1000
0100
0001
,
0100
1000
0010
0001
0000
0010
1000
0100
,
0000
0001
0000
0010
0000
1000
0100
0001
,
0100
1000
0100
0001
0000
0000
0000
0000
,
1000
1000
0100
0100
0001
0001
0100
0100
,
1000
1000
0100
0100
0000
1000
0100
0100
,
0000
0001
0000
0001
0000
1000
0000
1000
,
1000
0100
1000
0010
1000
0001
1000
0100
0010
0001
0100
0001
1000
0001
0010
0001
,
0100
1000
0100
0100
0010
0001
0001
0010
,
0100
0100
1000
0100
0000
0010
1000
0001
,
0000
1000
0000
0010
0000
0001
0000
0100
,
0000
1000
0100
0001
0010
1000
0100
0000
,
0001
1001
1011
1111
,
1010
1010
0011
0011
0000
1100
0110
0011
,
0000
1100
0000
1001
0000
0110
0000
0011
,
1100
0110
0011
0110
0000
0000
0000
0000
,
1000
0100
0010
0001
0010
0100
0010
0100
0010
1000
0100
0010
0001
0010
1000
0010
,
0001
0100
0001
1000
0001
0010
0001
0100
0001
0010
1000
0001
0100
0010
1000
0001
,
0110
1000
0100
0001
0010
1000
0100
0001
1000
0100
0010
0001
0010
0100
1000
0100
,
0010
0100
0001
0100
1000
0100
0001
0010
0100
1000
0100
0010
0001
0010
0100
1000
,
0100
0010
0100
1000
0100
0010
0001
0010
1000
0010
0001
0010
0100
1000
0100
0010
,
0001
1000
0100
0001
0010
1000
0100
0001
,
0010
1000
0010
0100
0000
1000
0010
0001
,
0000
0010
0000
1000
0000
0010
0001
0010
,
1000
0010
0001
0100
1000
0001
1000
0000
,
0100
0101
0111
1111
,
1010
0101
0011
1100
0000
0011
0000
1100
,
0000
0011
0000
1100
0000
0011
0000
1100
,
0101
0011
1010
1100
0000
1100
0110
0011
,
0000
1000
0100
1000
0000
0001
0010
0001
,
0000
0000
1000
0100
0010
0001
1000
0000
0001
0000
1001
0000
0000
0000
0010
0000
,
0001
0100
0000
0010
1000
0100
0010
0001
,
0010
1000
0000
1000
0100
0010
0000
0001
,
0010
0000
0100
0000
0000
0000
1000
0000
0100
0000
0010
0000
0010
1000
0001
0100
,
0001
1000
1100
0000
0100
0100
0100
0000
,
0010
0010
0010
1000
1000
0100
0010
0000
,
0001
0010
1000
0000
0100
0001
1000
0001
,
1000
0001
1000
0001
1000
0001
0200
0000
,
0000
0000
0300
0000
0010
1000
0100
1000
,
0010
1000
0100
1000
0010
1000
0100
0200
,
0000
1010
0011
0300
0000
0001
0010
1000
,
0100
0001
0010
1000
0100
0001
0010
2000
,
0000
0000
0000
0000
3000
1000
0100
0001
,
0010
1000
0100
0001
0010
1000
0200
0000
,
1001
0020
0330
0000
1000
0000
1010
0000
,
1110
1111
MMMM
MMMM
,
0000
0010
0011
1011
,
1111
MMMM
MMMM
0000
,
0000
0100
1100
1101
,
1111
MMMM
MMMM
0000
,
0000
1000
1001
1101
,
1111
0000
0000
0000
0000
1000
0100
0010
0001
0010
0100
1000
0100
0010
1000
0001
,
0100
0010
0100
0010
0001
0010
0100
1000
1100
0000
0100
0000
1100
0000
0000
0000
,
0011
0010
0011
0100
1100
0010
0110
0000
,
0110
0100
0110
0000
1010
1000
1010
0000
,
1100
0100
1100
0001
0101
0010
0011
0000
,
1001
0100
1001
0000
0110
1000
0110
0000
,
1100
1100
0101
0011
1010
1100
0101
0000
,
1000
0100
0001
0000
0010
1000
0100
0000
,
1000
0000
0100
0000
0001
0000
1000
0100
1000
0010
1000
0001
0100
0000
0110
0000
,
MMMM
M00M
M00M
MMMM
M00M
M00M
M00M
MMMM
0000
0MM0
M00M
M00M
M00M
MMMM
M00M
M00M
,
M00M
M00M
0000
MMMM
M00M
M00M
M00M
M00M
M00M
M00M
M00M
0000
MMMM
000M
00M0
0M00
,
MMMM
0000
0MM0
M00M
M00M
M00M
MMMM
M00M
M00M
M00M
M00M
0000
0MM0
0MM0
0000
0MM0
,
0MM0
0MM0
0MM0
0MM0
0MM0
0MM0
0MM0
0000
0000
0000
0000
0000
0000
0000
0000
0000
;
