#TITLE:City Escape;
#SUBTITLE:;
#ARTIST:Sonic Team;
#TITLETRANSLIT:;
#SUBTITLETRANSLIT:;
#ARTISTTRANSLIT:;
#CREDIT:;
#BANNER:;
#BACKGROUND:;
#LYRICSPATH:;
#CDTITLE:;
#MUSIC:City Escape.mp3;
#OFFSET:0.000;
#SAMPLESTART:44.973;
#SAMPLELENGTH:11.000;
#SELECTABLE:YES;
#BPMS:0.000=129.820,171.750=129.810,183.750=129.830,212.000=129.810;
#STOPS:;
#BGCHANGES:;
// cache tags:
#FIRSTBEAT:8.750;
#LASTBEAT:282.750;
#SONGFILENAME:Songs/toune 2/City Escape/City Escape.sm;
#HASMUSIC:1;
#HASBANNER:0;
#MUSICLENGTH:130.977;
// end cache tags

//---------------dance-single - ----------------
#NOTES:
     dance-single:
     :
     Hard:
     9:
     0.508,0.540,0.596,0.473,0.931,326.000,78.000,62.000,0.000,1.000:
0000
0000
0000
0000
,
0000
0000
0000
0000
,
0000
0000
0000
0000
0000
0000
0000
0000
0000
0001
0000
0000
0000
0000
0000
0010
0000
0000
0000
0000
0000
0100
0000
0000
1000
0000
0000
0100
0000
0000
1000
0000
0000
0000
0000
0000
0100
0000
0000
0000
0000
0000
0000
0000
0010
0000
0000
0000
,
0000
0000
0000
0000
0000
0000
0000
0000
0000
1000
0000
0000
0000
0000
0000
0100
0000
0000
0000
0000
0000
0010
0000
0000
0001
0000
0000
0010
0000
0000
0001
0000
0000
0000
0000
0000
0010
0000
0000
0000
0000
0000
0000
0000
0100
0000
0000
0000
,
0000
0000
0000
0000
0000
0000
0000
0000
0000
0001
0000
0000
0000
0000
0000
1000
0000
0000
0000
0000
0000
0100
0000
0000
0010
0000
0000
0100
0000
0000
0010
0000
0000
0000
0000
0000
0001
0000
0000
0000
0000
0000
0000
0000
1000
0000
0000
0000
,
0000
0000
0000
0000
0000
0001
0000
0010
0000
1000
0000
0010
0000
0000
0001
0000
,
0000
0010
0000
1000
0000
0000
0010
0000
0000
0110
0000
0000
0000
0000
0000
0000
,
0000
0001
0000
0100
0000
0000
0010
0000
0000
0100
0000
0001
0000
0000
0010
0000
,
0000
1000
0000
0010
0000
0000
0100
0000
0000
1000
0000
0100
0000
0000
0000
1100
,
0000
0000
0000
0000
0000
0001
0000
0001
0000
1000
0000
1000
0000
0000
0010
0000
,
0000
0010
0000
0100
0000
0000
0100
0000
0000
0010
0000
0100
0000
0000
0000
0000
,
0000
0001
0000
0001
0000
0000
1000
0000
0000
0100
0000
0010
0000
0000
0001
0000
,
0000
0000
0000
0001
0000
0000
0000
0000
0000
1000
0000
0000
0000
0000
0000
0000
0000
0000
0100
0000
0000
0000
0000
0000
0000
0000
0000
0010
0000
0000
0000
0000
0110
0000
0000
0000
0000
0000
0000
0000
0000
0000
0000
0000
0000
1001
0000
0000
,
0000
0000
0000
0000
0000
0000
0000
2000
0000
0000
0000
3200
0000
0000
0000
0320
,
0000
0000
0000
0031
0000
0002
0000
0023
0000
0230
0000
0000
0000
0000
0300
0000
,
0000
0000
0000
0000
0000
0001
0000
1000
0000
0001
0000
1000
0000
0100
0000
0010
,
0000
0100
0000
0010
0000
0100
0000
0010
0000
0220
0000
0000
0000
0000
0000
0000
,
0000
0330
0000
0000
0000
0000
0000
0002
0000
0003
0000
0200
0000
0300
0000
0002
,
0000
0003
0000
1000
0000
0010
0000
1000
0000
0010
0000
0000
0000
0000
0000
0000
,
0000
0000
0000
0011
0000
0000
0000
0110
0000
0000
0000
1100
0000
0000
0000
0000
,
0000
0000
0000
1100
0000
0000
0000
0110
0000
0000
0000
0011
0000
0000
0000
0000
,
0000
0000
0000
1001
0000
0000
1001
0000
0000
0110
0000
0000
0000
0000
0000
0000
,
0000
0000
0000
0110
0000
0000
0110
0000
0000
1001
0000
0000
0000
0000
0000
0000
,
0000
0000
0000
0001
0000
0000
0001
0000
0000
0001
0000
1000
0000
0000
1000
0000
,
0000
1000
0000
0100
0000
0000
0010
0000
0000
0001
0000
1000
0000
0000
0000
1001
,
0000
0000
0000
0000
0000
0000
0000
0002
0000
0000
0000
0023
0000
0000
0000
0230
,
0000
0000
0000
2300
0000
0000
0000
3000
0000
0000
0000
1100
0000
0000
0000
1100
,
0000
0000
0000
0001
0000
0000
0010
0000
0000
0002
0000
0000
0000
0003
0000
0000
,
0000
0000
0000
1000
0000
0000
0100
0000
0000
2000
0000
0000
0000
0000
3000
0000
,
0000
0000
0000
0101
0000
0000
0110
0000
0000
1010
0000
1010
0000
0000
0110
0000
,
0000
0101
0000
1001
0000
0000
1100
0000
0000
0110
0000
0011
0000
0000
0000
2002
,
0000
0000
0000
0000
0000
0000
0000
0000
0000
3003
0000
0000
0000
0000
0000
0000
0000
0000
0000
0000
0002
0000
0000
0000
0000
0000
0000
0000
0000
0000
0000
0000
0003
0020
0000
0000
0000
0000
0000
0000
0000
0000
0000
0000
0000
0032
0000
0000
,
0000
0000
0000
0023
0000
0000
0000
0032
0000
0000
0000
2003
0000
0000
0000
3200
,
0000
0000
0000
2300
0000
0000
3002
0000
0000
2003
0000
0000
3000
0000
0000
1010
,
0000
1100
0000
0110
0000
0000
0000
0000
0000
0000
0000
0000
0000
0000
0000
0000
,
0000
0000
0000
0000
0000
0000
0000
0000
0000
1000
0000
0000
0000
0000
0000
0001
0000
0000
0000
0000
0000
0100
0000
0000
0010
0000
0000
0100
0000
0000
0010
0000
0000
0000
0000
0000
0100
0000
0000
0000
0000
0000
0000
0000
0001
0000
0000
0000
,
0000
0000
0000
0000
0000
0000
0000
0000
0000
0010
0000
0000
0000
0000
0000
0100
0000
0000
0000
0000
0000
1000
0000
0000
0001
0000
0000
1000
0000
0000
0001
0000
0000
0000
0000
0000
1000
0000
0000
0000
0000
0000
0000
0000
0100
0000
0000
0000
,
0000
0000
0000
0000
0000
0000
0000
0000
0000
0001
0000
0000
0000
0000
0000
0100
0000
0000
0000
0000
0000
0010
0000
0000
1000
0000
0000
0010
0000
0000
1000
0000
0000
0000
0000
0000
0010
0000
0000
0000
0000
0000
0000
0000
0100
0000
0000
0000
,
0000
0000
0000
0000
0000
0002
0000
0023
0000
0230
0000
2300
0000
3200
0000
0320
,
0000
0032
0000
0113
0000
0000
0011
0000
0000
1100
0000
0000
0000
0000
0000
0000
,
0000
0000
0000
1001
0000
0000
1001
0000
0000
0110
0000
0000
0110
0000
0000
1000
,
0000
0100
0000
1000
0000
0000
0100
0000
0000
0022
0000
0000
0000
0000
0000
0033
,
0000
0000
0000
0000
0000
0001
0000
0010
0000
0001
0000
0010
0000
0100
0000
0010
,
0000
0100
0000
1000
0000
0000
0100
0000
0000
1000
0000
0000
0000
0000
0000
0000
,
0000
0000
0000
0110
0000
0000
0000
0000
0000
0110
0000
0000
0000
0000
0000
0000
0000
0000
1001
0000
0000
0000
0000
0000
0000
0000
0001
0000
0000
0000
0000
0000
0000
0010
0000
0000
0000
0000
0000
0100
0000
0000
0000
0000
0000
1000
0000
0000
,
0000
1000
0000
0100
0000
0000
0010
0000
0000
0001
0000
2002
0000
0000
0000
0000
,
3003
0000
0000
0000
0000
0000
0000
0000
0000
0000
0000
0000
0000
0000
0000
0000
0000
0000
0000
0000
2002
0000
0000
0000
0000
0000
0000
0000
0000
0000
3003
0000
0220
0000
0000
0000
0000
0000
0000
0000
0000
0000
0000
0000
0330
1001
0000
0000
,
0000
0000
0000
0001
0000
0100
0000
0010
0000
2000
0000
0000
0000
0000
3000
0000
,
0000
0000
0000
0000
0000
1000
0000
0100
0000
1000
0000
0100
0000
0010
0000
0100
,
0000
0010
0000
0001
0000
0010
0000
0001
0000
0022
0000
0000
0000
0000
0000
0000
,
0033
0000
0000
0000
0000
0001
0000
0010
0000
0001
0000
0010
0000
0100
0000
0010
,
0000
0100
0000
1000
0000
0100
0000
1000
0000
2200
0000
0000
0000
0000
0000
3300
,
0000
0000
0000
2000
0000
0000
3000
0020
0000
0000
0030
2000
0000
0000
3000
0020
,
0000
0000
0030
0200
0000
0000
0300
0020
0000
0000
0030
0200
0000
0000
0000
0300
,
0000
0000
0000
0101
0000
0000
0110
0000
0000
1010
0000
0000
0000
0000
0000
0000
,
0000
0000
0000
1010
0000
0000
0110
0000
0000
0101
0000
0000
0000
0000
0000
0000
,
0000
0000
0000
0000
0000
0000
0000
0000
0000
0000
0000
0000
0000
0000
0000
0000
0000
0000
0000
0000
0000
0000
0000
0000
0000
0000
0000
0000
0000
0000
0000
0000
0000
0000
0000
0000
1000
0000
0000
0000
0000
0000
0000
0000
0000
0000
0000
0000
0000
0000
0000
0000
0000
0000
0000
0000
0000
0000
0000
0000
0000
0000
0000
0000
0000
0000
0100
0000
0000
0000
0000
0000
0000
0000
0000
0000
0000
0000
0000
0000
0000
0000
0000
0000
0000
0000
0000
0000
0000
0000
0000
0000
0000
0000
0000
0000
0000
0000
0000
0000
0000
0000
0000
0000
0010
0000
0000
0000
0000
0000
0000
0000
0000
0000
0000
0000
0000
0000
0000
0000
0000
0000
0000
0000
0000
0000
0000
0000
0001
0000
0000
0000
0000
0000
0000
0000
0000
0000
0000
0000
0000
0000
0000
0000
0000
0000
0000
0000
0000
0000
0000
0000
0000
0000
0000
0000
0000
0000
0000
0000
0001
0000
0000
0000
0000
0000
0000
0000
0000
0000
0000
0000
0000
0000
0000
0000
0000
0000
0000
0000
0000
0000
0000
0000
0000
0000
0000
0000
0000
0000
0000
0000
,
0000
0100
0000
0000
0100
0000
0000
0000
0010
0000
0000
0000
0010
0000
0000
0000
0100
0000
0000
0000
0000
1100
0000
0000
,
0000
0000
0000
0011
0000
0011
0000
1100
,
0000
0000
0000
0000
0000
0000
1100
0000
0000
0000
0000
0000
0000
0000
0000
0000
0000
0000
0000
0000
0000
0000
0000
0000
0000
0000
0000
0000
0000
0000
0000
0000
0000
1001
0000
0000
0000
0000
0000
0000
0000
0000
0000
0000
1001
0000
0000
0000
,
0000
0000
0000
0110
0000
0000
0110
0000
0000
1001
0000
0000
0000
0000
0000
0000
,
0000
0000
0000
1001
0000
0000
1001
0000
0000
0110
0000
0000
0000
0000
0000
0000
,
0000
0000
0001
0000
0000
0000
0010
0000
0000
1000
0000
0010
0000
0000
0001
0000
,
0000
0100
0000
1000
0000
0000
0100
0000
0000
0001
0000
0010
0000
0000
1000
0000
,
0000
0000
0000
0011
0000
1100
0000
1001
,
0000
0000
0220
0000
0000
0330
0002
0000
0000
0003
0000
2000
0000
0000
3002
0000
,
0000
0000
0003
2000
0000
0000
0000
3000
0000
0000
0000
0000
0000
0000
0011
0000
,
0110
1100
0000
0000
0000
0000
0000
0000
,
0000
0000
0000
0000
0000
0000
0001
0000
0000
0000
0000
0000
0010
0000
0000
0000
0000
0000
0100
0000
0000
1000
0000
0000
0100
0000
0000
1000
0000
0000
0000
0000
0000
0100
0000
0000
0000
0000
0000
0000
0000
0010
0000
0000
0000
0000
0000
0000
,
0000
0000
0000
0000
0000
0000
1000
0000
0000
0000
0000
0000
0100
0000
0000
0000
0000
0000
0010
0000
0000
0001
0000
0000
0010
0000
0000
0001
0000
0000
0000
0000
0000
0010
0000
0000
0000
0000
0000
0000
0000
0100
0000
0000
0000
0000
0000
0000
,
0000
0000
0001
0000
1000
0000
0100
0010
0100
0010
0000
0110
0000
0000
0000
0000
;
