#TITLE:Drunk Crunk Franken;
#SUBTITLE:;
#ARTIST:t+pazolite;
#TITLETRANSLIT:;
#SUBTITLETRANSLIT:;
#ARTISTTRANSLIT:;
#CREDIT:lolipo;
#BANNER:crunk-bn.png;
#BACKGROUND:drunk-bg.png;
#LYRICSPATH:;
#CDTITLE:;
#MUSIC:Drunk Crunk Franken.ogg;
#OFFSET:0.828;
#SAMPLESTART:98.889;
#SAMPLELENGTH:12.000;
#SELECTABLE:YES;
#BPMS:0.000=220.000;
#STOPS:;
#BGCHANGES:;
// cache tags:
#FIRSTBEAT:4.000;
#LASTBEAT:652.000;
#SONGFILENAME:Songs/SPEEEDCOOOORE 4/Drunk Crunk Franken - [Lolipo]/Drunk Crunk Franken.sm;
#HASMUSIC:1;
#HASBANNER:1;
#MUSICLENGTH:177.545;
// end cache tags

//---------------dance-single - lolipo----------------
#NOTES:
     dance-single:
     lolipo:
     Challenge:
     15:
     1.000,1.000,0.107,0.665,1.000,1314.000,19.000,118.000,0.000,0.000:

0000
0000
0000
0000
,
1000
0100
0010
0001
1000
0001
0010
0001
,
1000
0010
1000
0001
0100
0010
0100
0001
,
1000
0100
0010
0100
1000
0001
0100
0010
,
0100
0000
0001
0000
1000
0000
0010
0000
0200
0300
0002
0003
0020
0030
0000
0000
,
0000
0001
0100
0010
0100
0001
1000
0100
,
0010
0100
1000
0001
0100
0010
0100
0001
,
1000
0100
0010
0100
1000
0001
0100
0010
,
0100
0000
0001
0000
1000
0000
0010
0000
4000
3000
0100
0000
0020
0030
0000
0000
,
0001
0100
0010
1000
0001
1000
0100
1000
0001
0010
0001
1000
0100
0010
0100
1000
,
0001
0100
0010
1000
0001
1000
0001
0010
0100
1000
0001
0100
0010
0100
0001
1000
,
0100
1000
0001
0010
0001
0100
0010
1000
0001
0010
0100
1000
0001
1000
0100
1000
,
0001
0100
0010
1000
0001
0100
0001
1000
0100
0000
1000
0000
0001
0000
0100
0000
,
0010
1000
0001
0010
0100
1000
0001
0010
0001
1000
0100
1000
0001
0100
0010
1000
,
0001
1000
0001
0010
0001
1000
0010
0100
0001
1000
0010
1000
0100
0010
0001
1000
,
0100
1000
0001
1000
0010
0100
0001
0100
0010
1000
0001
0010
0100
0010
0001
1000
,
0010
0100
0001
0100
0010
1000
0001
1000
0100
0000
0010
0000
0001
0000
0100
0000
,
0010
1000
0001
0100
0010
0100
0001
1000
0100
1000
0001
1000
0100
0010
0001
1000
,
0010
1000
0001
0100
0010
0100
0001
1000
0001
0010
0100
1000
0001
0010
0001
1000
,
0100
0010
0100
1000
0001
0100
0001
1000
0010
0100
0001
1000
0100
1000
0001
0010
,
0100
1000
0001
0100
0010
1000
0001
0100
0010
0000
1000
0000
0001
0000
0010
0000
,
0001
1000
0100
0010
0001
1000
0100
1000
0001
0100
0010
0100
0001
1000
0001
1000
,
0100
0010
0001
1000
0010
1000
0001
0100
0001
1000
0010
0100
0010
1000
0001
0010
,
0100
1000
0001
0100
0010
1000
0001
0100
0010
0100
0001
0010
0100
1000
0001
1000
,
0010
0000
1000
0001
1000
0000
0010
0100
0010
0000
1000
0001
0100
0000
0010
0000
,
2000
0000
3000
0000
,
0000
0000
0000
0000
,
0000
0000
0000
0000
,
0200
0300
1000
0010
0200
0300
0002
0003
,
2000
3000
0020
0030
2000
3000
0200
0300
,
0020
0030
0001
0100
0002
0003
2000
3000
,
0020
0030
1000
0001
0020
0030
0000
0000
,
0002
0003
1000
0100
0020
0030
0002
0003
,
0200
0300
0020
0030
0200
0300
0002
0003
,
2000
3000
0001
0010
0200
0300
2000
3000
,
0001
0100
0010
0100
0001
1000
0100
0010
,
0002
0000
0003
0000
1000
0010
0100
0001
1000
0000
0100
0000
1000
0000
0001
0000
,
0101
0000
0100
0000
0010
0000
1000
0000
0002
0003
0000
0000
0020
0030
0100
1000
,
0200
0000
0000
0000
1300
0001
1000
0001
0100
0000
0010
0000
1000
0000
0001
0000
,
1001
0011
1010
0101
,
0001
1000
0000
0001
0010
0000
0001
0000
1000
0100
1000
0000
0004
0003
0010
0000
,
0010
0000
0001
0000
1000
0000
0001
0000
0100
0000
0010
1000
0010
0000
0100
0001
,
2000
3000
0000
0000
0001
0010
0100
1000
0002
0003
0000
0000
0200
0000
0000
0000
,
0320
2030
3002
0023
0230
0320
0032
2003
,
3020
0000
0130
0001
1000
0001
0010
0100
1000
0000
0001
0010
0001
1000
0010
0100
,
0001
0100
0010
1000
0001
1000
0200
0000
,
2300
3000
0010
1000
0001
1000
0100
0010
0001
0000
1000
0100
1000
0001
0100
0010
,
1000
0001
1000
0001
0100
0000
1010
0000
,
1000
0000
0010
1000
0001
1000
0100
0010
0001
0000
1000
0100
1000
0001
0100
0010
,
1000
0010
0100
0001
1000
0001
0020
0000
,
0032
0003
0100
0001
1000
0001
0010
0100
1000
0000
0001
0010
0001
1000
0010
0100
,
0001
0000
1000
0000
0001
0000
1000
0010
0100
0000
0000
0000
1010
0000
0000
0000
,
1000
0000
0001
0010
0100
0010
0001
1000
0010
0100
0010
1000
0001
1000
0100
0010
,
0001
1000
0010
1000
0001
0100
0010
0100
0001
1000
0100
1000
0001
0010
0100
1000
,
0001
1000
0010
0100
0001
0100
0010
1000
0100
0010
0001
1000
0010
1000
0100
0010
,
0001
1000
0010
1000
0001
0010
0001
1000
0010
0000
0000
0000
2000
0000
3000
0000
,
0010
0100
0001
1000
0100
1000
0001
0010
0001
1000
0010
0100
0001
1000
0001
0010
,
0100
1000
0001
0100
0001
0010
0100
1000
0010
0100
0010
1000
0001
1000
0100
0010
,
0001
1000
0010
0100
0001
1000
0010
1000
0001
0100
0001
1000
0100
0010
0001
1000
,
0010
0000
0100
0001
0100
0000
0010
1000
0001
0000
0000
0000
1001
0000
0000
0000
,
1000
0000
0010
0100
0001
1000
0010
0100
0001
0000
1000
0100
0010
0001
1000
0010
,
0200
0300
0001
0000
2000
3000
0010
0000
0200
0300
0002
0003
2000
3000
0002
0003
,
0020
0030
0100
1000
0001
0100
0010
1000
0001
0010
0100
1000
0001
0100
0001
1000
,
0010
0000
0010
0000
1000
0100
0010
0001
1000
0000
1000
0000
0001
0000
0100
0000
,
0020
0030
0100
0001
1000
0010
0100
0001
1000
0000
0100
1000
0001
0100
0010
1000
,
0002
0003
0100
0000
0020
0030
1000
0000
0002
0003
2000
3000
0200
0300
0000
0000
,
0020
0030
0001
1000
0001
0010
0100
1000
0001
1000
0010
0100
0001
1000
0001
0010
,
0200
0300
1000
0000
0002
0003
1000
0000
0020
0030
0000
0000
0101
0000
0000
0000
,
0001
0000
1000
0010
0100
0010
1000
0001
0100
0000
0010
1000
0001
0010
0100
1000
,
0002
0003
1000
0000
0020
0030
0100
0000
0002
0003
1000
0000
0200
0300
0000
0000
,
0020
0030
0001
0100
0010
1000
0001
1000
0100
1000
0010
0100
0001
1000
0100
1000
,
0010
1000
1000
0000
0001
0100
0010
1000
,
0001
0000
0100
0010
1000
0001
0100
0010
1000
0000
0001
0010
0100
1000
0001
0100
,
0020
0030
1000
0000
0002
0003
0100
0000
0020
0030
2000
3000
0002
0003
2000
3000
,
0200
0300
0010
0001
1000
0000
0000
0000
0001
1000
0001
1000
0020
0030
0200
0300
,
0101
0000
0001
1000
0010
0000
0110
0000
,
2001
0000
0000
0000
,
0000
0000
0000
0000
,
0000
0000
0000
0000
,
0000
0000
0000
0000
,
3000
0000
0000
0000
,
0000
0000
0000
0000
,
0000
0000
0000
0000
,
0000
0000
0000
0000
,
1001
0001
0100
0010
,
1000
0001
0010
0001
,
0100
0010
1000
0010
,
0100
0001
0010
0100
,
1000
0010
1000
0100
0010
0001
1000
0100
,
1000
0010
0100
0001
1000
0010
0100
0010
,
1000
0001
0010
0001
1000
0010
0100
0001
1000
0100
0010
0001
,
1000
0000
0000
0000
0000
0010
0100
0000
0000
0001
0000
0000
,
1001
0000
1000
0010
0000
0000
0100
0000
0001
0010
0000
0001
,
0000
0000
1000
0010
0000
0100
0001
0000
0000
0010
0000
0000
,
0001
0000
1000
0010
0000
0000
0000
0000
0100
0001
0000
1000
,
0000
0000
0010
0100
0000
0001
0100
0010
1000
0001
0010
0001
,
1000
0000
0100
0010
0000
0001
1000
0000
0000
0010
0000
0100
,
0000
0000
0001
0010
0000
0100
1000
0000
0000
0010
0000
0000
,
0100
0000
0001
1000
0000
0000
0010
0000
0100
0001
0000
1000
,
0000
0000
0001
0010
0000
0100
1000
0000
0000
0000
0000
0000
,
1001
0000
1000
0010
0000
0000
0100
0000
0001
0010
0000
0001
,
0000
0000
1000
0010
0000
0100
0001
0000
0000
0010
0000
0000
,
0001
0000
1000
0010
0000
0000
0000
0000
0100
0001
0000
1000
,
0000
0000
0010
0100
0000
0001
0100
0010
1000
0001
0010
0001
,
1000
0000
0100
0010
0000
0001
1000
0000
0000
0010
0000
0100
,
0000
0000
0001
0010
0000
0100
1000
0000
0000
0010
0000
0000
,
0100
0000
0001
1000
0000
0000
0010
0000
0100
0001
0000
1000
,
0000
0000
0001
0010
0000
0001
0100
0000
0010
1000
0001
0010
,
0100
0000
0000
0000
0000
1000
0001
0000
0100
0000
0000
0020
,
0000
0000
2030
3200
,
0320
0000
0000
0000
0000
0031
1000
0000
0001
0000
0000
0200
,
0000
0300
0010
1000
,
1200
0000
0000
0000
0000
0310
0001
0000
1000
0000
0000
0020
,
0000
0000
0000
0230
0000
0000
0301
0000
1000
0010
0000
2000
,
0000
0000
0000
0000
,
3001
0010
0100
1000
0010
0100
0001
0000
0000
1000
0000
0000
,
0020
0000
0000
0000
0000
0000
0130
0000
0001
0000
0000
2000
,
0000
0000
3200
0320
,
0032
0000
0000
0000
0000
0000
1003
0000
0010
0000
0000
0200
,
0000
0300
0200
0302
,
2003
0000
0000
3000
0000
0000
0100
0000
0010
0000
0000
0002
,
0000
0000
0000
0103
0000
0000
0010
0000
1000
0001
0020
0000
,
0001
0001
0001
0001
,
0001
0001
0001
0001
,
0001
0001
0001
0001
,
0001
0001
0001
0001
,
0031
1000
0010
0100
0001
1000
0100
0010
,
0001
1000
0010
0100
0001
1000
0100
0010
,
0001
1000
0010
0100
0010
1000
0001
1000
0100
0010
0001
1000
0010
0100
0001
0000
,
0000
1010
0010
0100
,
0002
0003
1000
0100
0010
0000
0001
1000
,
0000
0020
0030
0010
0200
0300
0002
0003
,
0100
0010
1000
0001
0010
0001
1000
0100
1000
0010
0100
0001
1000
0100
1000
0001
,
0100
0001
0010
0100
1000
0001
0100
0001
1000
0010
1000
0100
0010
0001
1000
0010
,
2000
3000
0001
0010
0100
0000
1000
0001
,
0000
0200
0300
0100
0020
0030
2000
3000
,
0100
0010
0001
1000
0010
1000
0001
0010
0001
0100
0010
1000
0001
0100
0001
1000
,
0100
1000
0001
0010
0001
0100
0010
1000
0001
0010
0001
1000
0100
1000
0001
0100
,
0002
0003
1000
0100
0010
0000
0001
1000
,
0000
0020
0030
0010
0200
0300
0002
0003
,
0100
0010
1000
0001
0010
0001
1000
0100
1000
0010
0100
0001
1000
0100
1000
0001
,
0100
0001
0010
0100
1000
0001
0100
0001
1000
0010
1000
0100
0010
0001
1000
0010
,
2000
3000
0001
0010
0100
1000
0010
0100
,
0001
0000
0200
0000
0310
0000
1000
0000
0020
0000
0130
0000
0002
0003
1000
0000
,
0100
0010
0001
1000
0010
1000
0001
0010
0001
0100
0010
1000
0001
0100
0001
1000
,
0100
0000
1000
0001
1000
0000
0100
0010
0001
0000
1000
0010
1000
0000
0001
0100
,
0010
0100
0001
1000
0100
1000
0010
0100
,
0001
1000
0001
0010
0001
1000
0010
0010
,
0100
0001
0010
0100
1000
0010
0100
0010
,
1000
0000
0001
0100
0010
0000
1000
0001
1000
0000
0010
0100
0002
0000
0000
0000
,
1003
0100
0010
0001
1000
0001
0100
0010
,
1000
0001
0010
0001
1000
0010
1000
1000
,
0001
0100
0010
1000
0010
0010
1000
1000
,
0001
0000
0000
0000
1001
0000
0001
0000
4000
0000
3010
0000
0100
0000
0001
1000
,
0100
0000
1000
0010
0100
0000
0001
1000
,
0100
1000
0010
0100
0001
1000
0001
0100
,
0010
0000
1000
0010
0100
0000
0001
1000
,
0001
0001
0100
0010
1000
0000
0100
0000
,
1000
0010
0100
0001
1000
1000
0010
0000
,
1000
1000
0001
0001
0010
0000
0001
0000
,
0100
0000
0010
0000
1000
0000
0001
0000
0010
0100
1000
0000
0001
0000
0100
0000
,
0000
0010
0000
1000
0001
0010
0100
1000
,
0002
0000
0000
0000
,
0003
0000
0000
0000
;
