#TITLE:CAULI FLOWER;
#SUBTITLE:;
#ARTIST:onoken;
#TITLETRANSLIT:;
#SUBTITLETRANSLIT:;
#ARTISTTRANSLIT:;
#CREDIT:;
#BANNER:cauliflower.png;
#BACKGROUND:cauliflower-bg.png;
#LYRICSPATH:;
#CDTITLE:!HSTTitle.png;
#MUSIC:08.CAULI FLOWER.mp3;
#OFFSET:-0.085;
#SAMPLESTART:125.704;
#SAMPLELENGTH:12.000;
#SELECTABLE:YES;
#BPMS:0.000=119.990,184.000=59.990,186.000=29.990,189.625=59.990,207.000=120.000;
#STOPS:;
#BGCHANGES:;
// cache tags:
#FIRSTBEAT:0.000;
#LASTBEAT:368.000;
#SONGFILENAME:Songs/Fabulously Fresh Flock of Fantastic Files F5/(HST) CAULI FLOWER/cauliflower.sm;
#HASMUSIC:1;
#HASBANNER:1;
#MUSICLENGTH:211.487;
// end cache tags

//---------------dance-single - Copied from----------------
#NOTES:
     dance-single:
     Copied from:
     Hard:
     12:
     0.578,0.892,0.941,0.284,0.421,596.000,199.000,60.000,0.000,0.000:
0002
0000
0000
0000
,
0023
0000
0000
0000
,
0230
0000
0000
0000
,
2300
0000
0000
0000
,
3002
0000
0000
0000
,
0023
0000
0000
0000
,
0230
0000
0000
0000
,
2300
0000
0000
3010
,
1010
0100
0001
0010
0001
0100
0101
0000
,
1000
0000
0000
1000
0000
0000
1100
0000
,
0001
0000
0000
0001
0000
0000
0011
0000
,
0110
0000
0000
0100
0011
0000
1001
0000
,
0110
0100
1000
0001
1000
0010
1010
0000
,
0100
0000
0000
0100
0000
0000
0101
0000
,
1000
0000
0000
1000
0000
0000
1010
0000
,
1001
0000
0000
0001
0011
0000
0110
0000
,
1001
0000
0010
0000
1010
0000
0100
0001
0000
0100
0001
0000
0101
0000
0000
0001
,
1010
0000
0000
0000
1001
0000
0010
1000
0000
0010
1000
0000
1001
0000
0102
0000
,
1003
0000
0100
0000
0011
0000
0001
1000
0000
0001
1000
0000
1100
0000
0000
0010
,
1002
0000
0003
0000
1100
0000
0100
0010
0000
0100
0010
0000
0011
0000
0001
0000
,
2001
0000
3000
0000
1010
0000
0100
0001
0000
1000
0001
0000
1001
0000
0000
0000
,
0011
0000
0000
0000
0000
0000
0000
0000
1010
0000
0000
0000
0100
0000
0001
0000
0000
0000
1000
0000
0001
0000
0000
0000
0011
0000
0000
0000
0000
0000
0000
2020
,
3030
0000
0000
0000
0101
0000
1000
0010
0000
0100
0001
0000
0101
0000
0000
0000
,
0011
0000
0000
0000
1100
0000
0001
0100
0000
0010
1000
0000
1010
0000
0000
0000
,
1002
0103
0021
0000
0031
2000
0000
3001
,
0000
0000
0000
0000
0101
0000
0000
0000
0011
0000
1000
0000
0100
0000
0000
0000
0010
0000
0000
1000
0002
0000
0000
0000
0000
0000
0000
0000
0013
0000
0000
0000
,
2100
3001
0012
0000
0103
1020
0000
1030
,
1000
0010
1000
0000
0100
0010
0002
0000
1003
0000
1010
0000
0110
0000
0101
0000
,
2001
3001
0021
0000
0031
0012
0000
0103
,
0000
0000
0000
0000
0010
0000
0000
0000
1010
0000
0100
0000
0001
0000
0000
0000
0010
0000
0000
0100
2000
0000
0000
0000
0000
0000
0000
0000
3001
0000
0000
0000
,
0012
1003
2010
0000
3001
0021
0000
0031
,
0001
0100
0001
0000
0100
0010
1000
0000
0100
0010
0100
0010
0002
0000
0003
0000
,
2002
3003
0000
0000
,
0000
0000
0000
0000
,
0000
0000
0000
0000
,
0000
0000
0000
1000
,
2000
0000
0000
0000
,
3020
0000
0000
0000
,
0230
0000
0000
0000
,
0320
0000
0000
1000
,
2030
0000
0000
0000
,
3002
0000
0000
0000
,
0023
0000
0000
0000
,
0032
0000
0000
0103
,
0120
0000
0000
0000
,
2030
0000
0000
0000
,
3002
0000
2003
0100
0020
0000
0000
0000
,
0000
0000
0000
0000
3030
0000
0000
0000
0000
1000
0100
0010
1001
0000
0000
0010
,
1001
0000
0000
0000
0000
0000
0000
0000
0100
0000
0000
0000
1000
0000
0000
0000
0000
0000
0000
0000
1010
0000
0000
0000
1010
0000
0000
0000
0000
0000
0000
0000
0100
0001
0000
0000
0010
0000
0000
0000
0001
0000
0000
0000
0100
0000
0000
0000
1010
0000
0000
0000
0000
0000
0000
0000
0000
0000
0000
0000
0100
0000
0000
0000
,
0011
0000
0000
0000
0000
0000
0000
0000
0001
0000
0000
0000
0110
0000
0000
0000
0101
0000
0000
0000
1100
0000
0000
0000
0101
0000
0000
0000
1000
0010
0100
0001
0010
0000
0000
0000
1100
0000
0000
0000
0010
0000
0000
0000
0001
0000
0000
0000
1010
0000
0000
0000
0000
0000
0000
0000
0000
0000
0000
0000
0100
0000
0000
0000
,
1001
0000
0000
0000
0000
0000
0000
0000
0001
0000
0000
0000
0011
0000
0000
0000
0000
0000
0000
0000
0110
0000
0000
0000
0110
0000
0000
0000
0000
0000
0000
0000
0100
1000
0000
0000
0010
0000
0000
0000
0100
0000
0000
0000
0001
0000
0000
0000
0101
0000
0000
0000
0000
0000
0000
0000
0000
0000
0000
0000
0000
0000
0000
0000
,
1010
0000
0000
0000
0000
0000
0000
0000
0000
0000
0000
0000
1002
0000
0000
0000
0003
0000
0000
0000
0101
0000
0000
0000
1001
0000
0000
0000
1000
0010
0100
0001
0010
0000
0000
0000
1001
0000
0000
0000
0010
0000
0000
0000
0100
0000
0000
0000
1100
0000
0000
0000
0000
0000
0000
0000
0000
0000
0000
0000
0101
0000
0000
0000
,
0000
0001
0010
0000
0100
0000
0100
0000
1100
0000
0001
0000
0101
0000
0000
1001
,
0000
0000
1000
0000
0010
0000
0000
0000
0100
0001
0000
0000
0100
0000
0000
0000
0101
0000
0000
0000
0001
0000
0000
0000
0011
0000
0000
0000
0000
0000
1001
0000
,
0000
0001
0100
0000
0010
0000
0010
0000
1010
0000
0100
0000
0101
0000
1001
0000
,
1100
0000
0000
0000
1000
0010
0100
0001
0010
0000
0000
0000
0100
0000
0000
0000
0001
0000
0000
0000
0100
0000
0000
0000
1010
0000
0000
0000
0000
0000
1001
0000
,
0000
1000
0100
0000
0010
0000
0010
0000
0011
0000
0101
0000
0000
0000
1001
0000
,
1001
0000
0000
0000
0000
0000
0000
0000
1000
0010
0000
0000
0100
0000
0000
0000
0001
0000
0000
0000
0100
0000
0000
0000
0101
0000
0000
0000
0000
0000
1001
0000
,
0000
0001
1000
0000
1010
0000
0000
0000
0101
0000
1000
0000
0000
0000
1010
0000
,
1010
0000
0000
0000
0100
0001
0010
0100
1000
0000
0000
0000
0001
0000
0000
0000
0100
0000
0010
0000
1000
0000
0100
0000
1001
0000
0000
0000
0000
0000
0011
0000
,
0000
0000
0110
0000
1100
0000
0000
0000
1000
0000
0100
0000
0101
0010
1000
0101
,
0000
0000
1010
0000
0000
0000
0001
0000
0010
0000
0001
0000
1000
0001
0010
1100
,
0000
0000
0011
0000
0110
0000
0010
0000
0100
0000
1000
0000
0011
0000
1000
0101
,
0000
0000
1001
0000
1001
0000
0100
0000
0010
0000
0001
0000
1001
0010
0100
1010
,
0000
0000
1001
0000
0100
0000
0001
0000
0010
0000
0100
0000
1001
0100
0001
1010
,
0000
0000
0110
0000
0000
0000
0001
0000
1000
0000
0001
0000
0110
0001
0100
1010
,
0000
0000
1001
0000
0101
0000
0000
0000
0000
1010
0000
0000
1000
0001
0010
1100
,
0000
0010
1001
0000
0000
0000
0010
0000
0100
0001
0100
0010
1100
0000
0001
0000
,
0100
0000
0010
2010
0000
3001
0000
0010
,
0001
0100
0010
1000
0100
0000
1002
0000
0000
0000
0013
0000
0000
0000
0010
0000
,
0001
0000
1000
1200
0000
0310
0001
0100
,
0001
1000
0100
0010
0001
0100
1010
0001
,
0100
0000
0010
2010
0000
3001
0000
0010
,
0001
1000
0001
0100
0000
0000
2010
0000
0000
0000
3001
0000
0001
0010
0001
0010
,
0100
1000
0100
1000
0010
0100
0010
0100
0001
0010
0001
0010
0100
1000
0100
1000
,
0010
1000
0010
1000
0001
1000
0001
1000
0010
0100
0010
0100
1002
0000
0003
0000
,
0011
0000
0000
0000
0000
0000
0010
0000
0000
0100
0000
0000
0010
0000
0000
0000
0000
0000
0000
0000
0101
0000
0000
0000
0000
0000
0000
0000
1010
0000
0000
0000
0000
0000
0000
0000
0011
0000
0000
0000
0000
0000
0001
0000
0000
0000
0000
0000
,
0100
0000
0000
0000
0000
0000
0000
0000
0000
0000
0000
0000
0101
0000
0000
0000
0000
0000
0000
0000
1010
0000
0000
0000
0000
0000
0000
0000
1001
0000
0000
0000
0000
0000
0000
0000
0001
0000
0000
0010
0000
0000
0100
0000
0000
0010
0000
0000
,
0001
0100
0010
0000
0100
0010
1000
0000
0001
0010
0100
1000
0100
0000
0000
0000
,
1001
0100
0001
0100
0001
0100
0010
1000
0100
1000
0100
0000
1200
0000
0300
0000
,
0120
0000
0031
0010
0001
0000
0011
0000
0110
0000
1100
0000
1001
0000
0000
0000
,
0001
1010
0110
0101
0011
0101
1001
0000
,
0000
0000
0011
0000
0000
0000
0110
0000
0000
0000
0100
1000
2200
0000
3300
0000
,
0000
0000
0010
1000
0010
0000
0101
0000
0011
0000
1001
0000
0011
0000
0000
0000
,
2010
0010
3010
0010
0010
0010
0010
0010
0010
0010
0010
0010
0100
0000
0000
0000
,
0100
0010
0100
0001
1000
0100
0010
0001
0100
0010
1000
0100
0010
0000
0000
0000
,
1000
0000
0000
0000
0000
0000
0100
0000
0000
1000
0000
0000
0000
0000
0000
0000
0000
0000
1010
0000
0000
0000
0000
0000
0000
0000
0000
0000
0000
0000
0000
0000
0000
0000
0000
0000
0101
0000
0000
0000
1001
0000
0000
0000
1100
0000
0000
0000
,
0110
0000
0011
0000
0101
0000
1010
0000
1100
0000
0011
0000
0101
0000
1100
0000
0110
0000
2002
0000
0000
3003
0000
0000
,
1000
0000
0000
0000
0000
0000
0010
0000
0000
0000
0000
0000
0100
0000
0000
0000
0000
0000
0000
0000
0000
0000
0000
0000
0000
0000
0000
0000
0000
0000
0000
0000
0000
0000
0000
0000
0000
0000
0000
0000
0000
0000
0000
0000
0000
0000
0000
0000
0101
0000
0000
0000
0000
0000
0000
0000
0000
0000
0000
0000
0000
0000
0000
0000
0000
0000
0000
0000
0000
0000
0000
0000
0000
0000
0000
0000
0000
0000
0000
0000
0011
0000
0000
0000
0000
0000
0000
0000
0000
0000
0000
0000
0000
0000
0000
0000
0000
0000
0000
0000
0000
0000
0000
0000
0000
0000
0000
0000
0000
0000
0000
0000
0110
0000
0000
0000
0000
0000
0000
0000
0000
0000
0000
0000
0000
0000
0000
0000
0000
0000
0000
0000
0000
0000
0000
0000
0000
0000
0000
0000
0000
0000
0000
0000
1100
0000
0000
0000
0000
0000
0000
0000
0000
0000
0000
0000
0000
0000
0000
0000
0000
0000
0000
0000
0000
0000
0000
0000
0000
0000
0000
0000
0000
0000
0000
0000
1010
0000
0000
0000
0000
0000
0000
0000
0000
0000
0000
0000
0000
0000
0000
0000
,
0000
0110
0000
0101
0000
0000
1001
0000
0000
1010
0000
0000
,
0101
0000
0000
0000
1010
0000
0000
0000
0011
0000
0000
0000
1100
0000
0000
0000
0011
0000
0000
0000
0101
0000
0000
0000
1001
0000
0000
0000
1010
0000
0000
0000
0101
0000
0000
0000
0001
0000
0000
0100
0000
0000
0001
0000
0000
0100
0000
0000
,
0010
1000
0010
1000
0100
0010
0100
0010
0001
0100
0001
0100
2002
0000
0000
0000
,
3003
0000
0000
0000
;
