#TITLE:Beethoven Virus;
#SUBTITLE:;
#ARTIST:Banya;
#TITLETRANSLIT:;
#SUBTITLETRANSLIT:;
#ARTISTTRANSLIT:;
#CREDIT:;
#BANNER:beethovenvirus.PNG;
#BACKGROUND:beethovenvirus-bg.PNG;
#LYRICSPATH:;
#CDTITLE:Oni.png;
#MUSIC:beethovenvirus.mp3;
#OFFSET:-1.500;
#SAMPLESTART:6.837;
#SAMPLELENGTH:12.000;
#SELECTABLE:YES;
#BPMS:0.000=162.000;
#STOPS:;
#BGCHANGES:;
// cache tags:
#FIRSTBEAT:12.000;
#LASTBEAT:261.000;
#SONGFILENAME:Songs/toune 3/Beethoven Virus/beethoven virus.sm;
#HASMUSIC:1;
#HASBANNER:1;
#MUSICLENGTH:101.120;
// end cache tags

//---------------dance-single - ----------------
#NOTES:
     dance-single:
     :
     Hard:
     8:
     0.671,0.611,0.376,0.208,0.025,416.000,38.000,21.000,0.000,0.000:  // measure 1
0000
0000
0000
0000
,  // measure 2
0000
0000
0000
0000
,  // measure 3
0000
0000
0000
0000
,  // measure 4
0000
0000
0000
0000
0000
0010
0100
1000
,  // measure 5
0020
0000
0130
0001
0020
0000
0031
1000
,  // measure 6
0200
0000
0302
0000
0013
0001
0100
0010
,  // measure 7
1010
0011
0101
1010
,  // measure 8
0210
0000
0001
0000
0010
0000
0301
0001
,  // measure 9
0010
0001
0100
0010
1000
0000
1010
0000
,  // measure 10
0100
0001
0010
0001
0100
0000
1000
0010
,  // measure 11
0100
0001
0010
0001
0100
0010
1000
0100
,  // measure 12
1000
0000
0001
0010
0100
1000
0001
0010
,  // measure 13
0101
0000
1000
0100
0010
1000
0010
0100
,  // measure 14
0002
0000
0013
0000
0001
0100
0001
0100
,  // measure 15
0011
0101
1010
1100
,  // measure 16
1002
0000
0010
0000
0100
0000
1003
0010
,  // measure 17
1000
0001
0100
0001
0020
0000
0130
1000
,  // measure 18
0001
0010
0001
0100
0020
0000
1030
0100
,  // measure 19
1000
0001
0010
0001
0100
0001
0010
0100
,  // measure 20
1000
0000
0100
0001
1000
0001
0100
0010
,  // measure 21
1000
0100
0100
0100
0001
0100
0001
0010
,  // measure 22
0001
0100
0100
0100
0010
1000
0100
1000
,  // measure 23
0001
0010
0010
0010
0001
0100
0010
1000
,  // measure 24
0100
0001
0001
0001
0010
0001
0010
0100
,  // measure 25
0001
0010
0001
0100
0100
0001
0010
0001
,  // measure 26
1000
0100
0010
0001
1000
0100
0010
0001
,  // measure 27
1000
0100
1000
0100
0010
0001
0010
0001
,  // measure 28
1000
0100
0010
0001
0100
0010
0001
0100
,  // measure 29
2002
0000
0000
0000
3003
0000
0100
0010
0100
0000
0010
0000
1000
0000
0010
0000
,  // measure 30
0001
0010
0100
1000
0001
0010
0001
0000
,  // measure 31
0100
0010
1000
0010
0001
0100
0010
0000
,  // measure 32
0001
1000
0001
1000
0100
0010
0100
0000
,  // measure 33
0001
0010
0001
0100
0010
1000
0100
1000
,  // measure 34
0010
0100
0001
0010
0001
1000
0001
0000
,  // measure 35
1000
0100
0010
0001
0100
0001
0010
0001
,  // measure 36
0100
0010
1000
0010
0100
0001
1001
0000
,  // measure 37
1001
0000
0001
1000
0001
0000
0100
0000
1000
0000
1000
0000
1000
0000
0000
0000
,  // measure 38
0100
0000
0001
0100
0001
0000
0010
0000
0001
0000
0001
0000
0010
0000
0001
0000
,  // measure 39
1000
0000
0010
1000
0010
0000
0100
0000
0001
0000
0001
0000
0001
0000
0000
0000
,  // measure 40
0100
0000
0010
1000
0010
0000
0100
0000
1000
0000
0001
0000
1000
0000
0010
0000
,  // measure 41
1000
1000
0100
0100
0010
0010
0001
0001
,  // measure 42
0001
0010
0001
0010
0100
0001
0100
0001
,  // measure 43
0010
1000
0100
1000
0001
0100
0010
0100
,  // measure 44
0001
1000
0010
0100
0220
0000
0330
0000
,  // measure 45
1001
0000
1001
0000
1001
0001
0010
0100
,  // measure 46
2000
0000
3001
0010
0002
0000
0103
0010
,  // measure 47
1000
0000
0101
0000
0110
0000
1000
0010
,  // measure 48
0101
0011
1010
1001
,  // measure 49
0120
0000
1030
0000
0100
0001
0010
0001
,  // measure 50
0100
0000
1010
0000
0100
1000
0010
0100
,  // measure 51
0001
0000
0101
0000
0001
0010
0100
1000
,  // measure 52
0010
0000
1000
0010
1000
0000
0001
0100
,  // measure 53
0001
0000
0010
0000
1000
0010
1000
0010
,  // measure 54
1000
0000
0101
0000
0001
0010
0100
1000
,  // measure 55
0010
0001
0011
0000
0101
0000
1000
0010
,  // measure 56
1010
0101
0011
0101
,  // measure 57
1010
0010
0100
0001
0010
0001
0100
0001
,  // measure 58
0020
0000
1030
0001
0200
0000
0310
1000
,  // measure 59
0002
0000
0103
0010
0002
0000
0103
0010
,  // measure 60
1000
0010
0100
0001
0010
0000
0001
0100
,  // measure 61
0001
0000
1000
0000
0010
1000
0010
1000
,  // measure 62
1010
0000
0001
0100
0001
0000
0010
0001
,  // measure 63
0010
0000
0100
0001
0100
0000
0010
1000
,  // measure 64
0100
1000
0010
0100
0001
0010
0001
0100
,  // measure 65
0001
0010
0002
0000
0100
0100
0100
0103
,  // measure 66
1001
0000
0000
0000
;

//---------------dance-single - ----------------
#NOTES:
     dance-single:
     :
     Medium:
     6:
     0.526,0.581,0.257,0.218,0.000,324.000,26.000,22.000,0.000,0.000:  // measure 1
0000
0000
0000
0000
,  // measure 2
0000
0000
0000
0000
,  // measure 3
0000
0000
0000
0000
,  // measure 4
0000
0000
0000
0000
0000
0001
0100
0001
,  // measure 5
1000
0000
0100
0001
0100
0000
0010
1000
,  // measure 6
0020
0000
0100
0000
0130
0001
0100
0001
,  // measure 7
0100
1010
0001
1001
,  // measure 8
0110
0000
0001
0000
1000
0000
0010
1000
,  // measure 9
0020
0000
0100
0000
1030
0000
0001
0100
,  // measure 10
0002
0000
0010
0000
0103
0000
1000
0100
,  // measure 11
1000
0000
0010
0000
1000
0000
0001
0100
,  // measure 12
0001
0000
0010
0000
0001
1000
0001
1000
,  // measure 13
0001
0000
1000
0000
0010
0000
0100
0001
,  // measure 14
0010
0000
0001
0000
0100
0001
0100
0010
,  // measure 15
1000
1010
1001
0011
,  // measure 16
0101
0000
0001
0000
0010
0000
0001
0100
,  // measure 17
0002
0000
0010
0000
1003
0000
0100
0010
,  // measure 18
2000
0000
0010
0000
3100
0000
0001
0100
,  // measure 19
0001
0000
0010
0001
0100
0000
0010
1000
,  // measure 20
0010
0000
0100
0000
0001
1000
0001
0000
,  // measure 21
1000
0010
1000
0000
0100
0001
0100
0000
,  // measure 22
0010
1000
0100
0001
,  // measure 23
0010
0001
0010
0000
0100
0001
0010
0000
,  // measure 24
0100
0010
1000
0100
,  // measure 25
1000
0001
1000
0001
1000
0000
0100
0000
,  // measure 26
0010
1000
0010
0000
0100
0000
0001
0000
,  // measure 27
0100
0001
0100
0000
0010
0000
1000
0000
,  // measure 28
0010
1000
0010
1000
0010
0000
0100
0001
,  // measure 29
0200
0000
0300
0001
1000
0000
0001
0000
,  // measure 30
0100
0001
0010
0000
0010
1000
0100
0000
,  // measure 31
1000
0010
0100
0001
0100
0000
0001
0000
,  // measure 32
0010
0001
0010
0000
0100
0001
0100
0000
,  // measure 33
0010
1000
0100
1000
0010
0000
0100
0000
,  // measure 34
0001
1000
0001
0000
0110
0000
1001
0000
,  // measure 35
0001
0010
0001
0000
0100
0010
0100
0000
,  // measure 36
0010
1000
1000
0000
0100
0001
0001
0000
,  // measure 37
1000
0001
1000
1000
0001
0000
0100
0000
,  // measure 38
0010
1000
0010
0010
0100
0000
0001
0000
,  // measure 39
1000
0001
0100
0100
0001
0000
0010
0000
,  // measure 40
0001
0010
0001
0001
0100
0000
0010
0000
,  // measure 41
1000
0100
1000
1000
1000
0000
0100
0000
,  // measure 42
0010
1000
0010
0010
0010
0000
0100
0000
,  // measure 43
0001
0010
0100
0100
0100
0000
0010
0000
,  // measure 44
1000
1000
1000
0000
0022
0000
0033
0000
,  // measure 45
0110
0000
0110
0000
0110
0000
1000
0010
,  // measure 46
2000
0000
3000
0001
0200
0000
0300
0001
,  // measure 47
0020
0000
0130
0000
0001
1000
0001
1000
,  // measure 48
0002
0203
0320
2030
,  // measure 49
3001
0000
0100
0000
0001
0000
0010
0001
,  // measure 50
0200
0000
0010
0000
0301
0000
1000
0100
,  // measure 51
2000
0000
0010
0000
3001
0000
0100
0001
,  // measure 52
0010
0000
0001
0100
0010
0000
1000
0010
,  // measure 53
1000
0000
0001
0100
0001
0100
0001
0000
,  // measure 54
1010
0010
1001
0001
,  // measure 55
0101
0110
0202
0303
,  // measure 56
1001
1001
0110
0110
,  // measure 57
2002
0000
3003
0000
0010
0000
1000
0010
,  // measure 58
1000
0000
0001
0000
0100
0000
0001
0010
,  // measure 59
0001
0000
0100
0000
0010
0000
1000
0010
,  // measure 60
1000
0000
0100
0001
0100
0000
0001
0010
,  // measure 61
0001
0000
0100
0001
0010
0000
0001
0000
,  // measure 62
0100
0000
1010
0000
1000
0000
0010
0100
,  // measure 63
0001
0000
0101
0000
0010
0000
1000
0010
,  // measure 64
0100
0000
1001
0000
0001
0000
0010
0001
,  // measure 65
0100
0000
0010
0000
1000
0010
1000
0010
,  // measure 66
0200
0300
0000
0000
;

//---------------dance-single - ----------------
#NOTES:
     dance-single:
     :
     Easy:
     4:
     0.340,0.514,0.158,0.277,0.000,197.000,16.000,28.000,0.000,0.000:  // measure 1
0000
0000
0000
0000
,  // measure 2
0000
0000
0000
0000
,  // measure 3
0000
0000
0000
0000
,  // measure 4
1000
0001
0100
0010
,  // measure 5
1000
0010
0001
0100
,  // measure 6
0001
0000
0010
0010
,  // measure 7
2000
0010
0100
0001
,  // measure 8
3100
0000
0010
1000
,  // measure 9
0002
0000
1003
0010
,  // measure 10
0200
0000
0301
0010
,  // measure 11
0001
0001
1000
1000
,  // measure 12
0010
0000
0000
0100
,  // measure 13
0010
0000
1000
0000
,  // measure 14
0001
1000
0001
0000
,  // measure 15
0100
0001
0010
0001
,  // measure 16
0100
0001
1000
0000
,  // measure 17
0002
0003
1010
0000
,  // measure 18
0200
0300
1001
0000
,  // measure 19
0002
0013
0002
0103
,  // measure 20
0202
0000
0000
0303
,  // measure 21
1000
0100
1000
0100
,  // measure 22
0010
0100
0010
0000
,  // measure 23
0001
0100
0001
0100
,  // measure 24
0001
0001
0010
0000
,  // measure 25
0001
0010
0001
0010
,  // measure 26
0001
0100
0001
0100
,  // measure 27
0010
1000
0100
1000
,  // measure 28
0010
0100
0001
0000
,  // measure 29
2002
3003
0100
0010
,  // measure 30
1000
0010
0100
0000
,  // measure 31
0001
0010
0001
0000
,  // measure 32
1000
0010
1000
0000
,  // measure 33
0001
0010
0100
1000
,  // measure 34
0010
0100
0010
0000
,  // measure 35
1000
0100
1000
0100
,  // measure 36
0010
1000
0010
0000
,  // measure 37
1000
0001
0000
0001
,  // measure 38
0100
0010
0000
1000
,  // measure 39
0100
1000
0000
0001
,  // measure 40
0010
0001
0000
0100
,  // measure 41
0100
0100
0000
0001
,  // measure 42
0010
0100
0000
0001
,  // measure 43
1000
0001
0000
0100
,  // measure 44
0001
0010
0002
0003
,  // measure 45
0100
0010
0100
0010
,  // measure 46
1000
0001
0100
0001
,  // measure 47
1000
0001
2000
3000
,  // measure 48
1001
1001
1001
1001
,  // measure 49
2002
0000
3003
0100
,  // measure 50
0020
0000
1030
0001
,  // measure 51
0200
0000
0301
0010
,  // measure 52
0001
0100
0001
1000
,  // measure 53
0020
0000
0130
0100
,  // measure 54
0100
0010
1000
0001
,  // measure 55
0100
0100
0202
0303
,  // measure 56
0110
0110
0110
0110
,  // measure 57
0220
0000
0330
0010
,  // measure 58
2000
0000
3010
0100
,  // measure 59
0002
0000
0013
0001
,  // measure 60
0100
0010
1000
0010
,  // measure 61
0200
0000
0000
0310
,  // measure 62
0002
0000
1003
0010
,  // measure 63
2000
0000
3100
0001
,  // measure 64
0100
0001
0010
0001
,  // measure 65
0200
0000
0000
0300
,  // measure 66
1001
0000
0000
0000
;
