#TITLE:Carnival Night Zone - Act 2;
#SUBTITLE:- Sonic 3;
#ARTIST:Sonic Team;
#TITLETRANSLIT:;
#SUBTITLETRANSLIT:;
#ARTISTTRANSLIT:;
#CREDIT:;
#BANNER:Carnival Night Zone - Act 2 - Banner.PNG;
#BACKGROUND:Carnival Night Zone - Act 2 - Background.PNG;
#LYRICSPATH:;
#CDTITLE:;
#MUSIC:Sonic 3 - Carnival Night Zone - Act 2.mp3;
#OFFSET:-0.140;
#SAMPLESTART:54.485;
#SAMPLELENGTH:12.000;
#SELECTABLE:YES;
#BPMS:0.000=110.000;
#STOPS:12.000=1.091
,58.000=1.091
,116.000=1.670
,129.000=1.091
,175.000=1.091
;
#BGCHANGES:;
// cache tags:
#FIRSTBEAT:12.000;
#LASTBEAT:234.000;
#SONGFILENAME:Songs/new cc/Sonic 3 - Carnival Night Zone - Act 2 (Crazylegz Edit)/Carnival Night Zone -  Act 2.sm;
#HASMUSIC:1;
#HASBANNER:1;
#MUSICLENGTH:134.980;
// end cache tags

//---------------dance-single - ----------------
#NOTES:
     dance-single:
     :
     Hard:
     10:
     0.548,0.542,0.289,0.230,0.333,448.000,39.000,31.000,0.000,0.000:
0000
0000
0000
0000
,
0000
0000
0000
0000
,
0000
0000
0000
0000
,
2002
0000
3003
0000
1000
0000
0000
0001
0010
0000
0100
0000
1000
0000
0100
0000
,
0010
0001
1000
0001
1001
0000
2002
0000
,
0000
0000
0000
0000
3003
0000
0000
0000
0001
0000
0010
0000
0100
1000
0100
0010
,
0001
0100
0001
0102
0100
0100
0010
0010
,
0100
0000
0100
0000
0013
0000
0010
0100
1000
0000
0100
0000
0010
0000
0001
0000
,
1000
0001
0010
0100
1100
0000
2200
0000
,
0000
0000
0000
0000
3300
0000
0000
0000
1000
0000
0100
0000
0010
0001
0010
0100
,
1000
0000
0010
0000
1000
0000
1010
0000
0000
0000
1000
0000
0010
0100
0010
0000
,
0100
0000
0001
0010
0001
0010
0001
0000
0010
0000
0100
0000
1000
0100
0000
1000
,
0100
0000
0020
0000
0031
0010
0100
1000
0100
0000
0010
0000
0001
0010
0000
0001
,
0010
0000
0000
0001
1000
0010
0100
0001
0100
0000
0001
0000
0100
0001
0000
0100
,
0001
0000
0200
0000
0310
1000
0010
0100
0001
0000
0000
0000
1001
0000
0000
0000
,
1000
0001
0010
1001
0000
0100
0001
0001
,
0101
0001
1000
1010
0000
1000
1000
1000
,
1001
0010
0100
1001
0000
0001
0001
0001
,
0011
0000
0010
0000
0100
0000
1100
0000
0000
0000
0001
0000
0200
0000
0300
0010
,
1000
0001
0100
0010
1000
0010
0100
0001
,
1001
2002
0000
3003
,
0001
0010
0001
0100
0001
0010
0001
0100
,
0001
1000
0010
1000
0100
1000
0010
1000
,
0100
0000
0010
0000
0001
0010
0001
0010
0001
0000
0100
0000
0010
1000
0010
1000
,
0010
0000
0100
0000
0001
0010
0001
0010
0002
0000
0000
0000
0000
0003
0000
0001
,
0010
0000
0100
0000
1000
0100
1000
0100
1000
0000
0010
0000
0100
0001
0100
0001
,
0100
0000
0010
0000
1000
0100
1000
0100
2000
0000
0000
0000
0000
3000
0000
1000
,
0100
0000
0010
0000
0001
0100
0010
1000
0100
0000
1000
0000
0010
0100
0001
0010
,
0001
0000
0000
0001
0010
0100
1000
0010
1000
0100
0000
0000
,
1100
0000
1000
0010
1000
0100
1000
0010
,
1000
0100
1000
0001
0010
0001
0100
0001
,
0010
0001
0100
0001
0010
0100
1000
0010
,
0100
0000
0001
0000
0020
0000
0030
0000
0200
0000
0300
1000
0100
0000
0010
0000
,
0100
1000
0001
1000
0100
0010
0110
0000
,
0220
0000
0000
0000
0330
0000
0001
0010
,
0100
1000
0100
0010
0001
0000
0100
0000
0001
0000
0201
0000
0001
0000
0001
0000
,
0010
0000
0010
0000
0001
0000
0001
0000
0310
0000
0010
0100
0001
0000
0010
0000
,
0100
1000
0010
0100
0001
0010
0110
0000
,
0220
0000
0000
0000
0330
0000
0100
1000
,
0100
0010
0100
1000
0001
0000
0100
0000
0010
0000
1010
0000
0000
0000
0100
0000
,
0001
0010
0001
0000
0100
0000
0010
1000
0100
1000
0100
0000
0010
0000
0001
0000
,
0010
0001
0000
0010
0001
0000
0200
0000
0310
1000
0010
0100
0001
0000
1000
0000
,
0010
1000
0000
0010
1000
0000
0000
0010
0100
0010
1000
0100
1000
0000
0001
0000
,
0100
0010
0000
0100
0010
0000
2000
0000
3010
0100
0001
0010
0002
0000
0003
0000
,
1001
0000
1000
0010
0100
1001
0000
0100
,
0010
0010
0110
1000
0100
0110
0000
0011
,
0110
1100
1001
0010
0100
1001
0000
1010
,
0110
0101
1001
0100
0010
1001
0000
0001
,
0020
0000
0030
0100
1000
0000
0100
0000
0001
0000
0100
0000
1000
0000
0100
0000
,
0001
0100
2000
0000
0002
0000
0000
0000
,
3003
0000
0001
0100
1000
0100
0001
0100
,
1000
0100
0001
0010
1000
0010
0001
0010
,
1000
0000
0010
0000
0001
0000
0010
0000
0001
0010
0001
0010
0001
0000
0100
0000
,
0010
1000
0010
1000
0010
0000
0100
0000
0001
0010
0001
0010
0002
0000
0000
0000
,
0000
0003
0000
0010
0100
0000
1000
0000
0100
1000
0100
1000
0100
0000
1000
0000
,
0001
0100
0001
0100
0001
0000
0010
0000
0100
1000
0100
1000
0200
0000
0000
0000
,
0000
0300
0000
1000
0010
0000
0100
0000
0001
0100
0010
1000
0100
0000
1000
0000
,
0010
0000
0000
0100
0000
0000
0001
0000
0000
0010
0000
0000
0001
0000
0000
0000
0000
0000
0000
0000
0000
0000
0000
0000
1000
0000
0000
0000
0100
0000
0000
0000
0001
0000
0000
0000
0010
0000
0000
0000
1000
0000
0000
0000
0001
0000
0000
0000
,
1000
2002
3003
0000
;

//---------------dance-single - ----------------
#NOTES:
     dance-single:
     :
     Medium:
     7:
     0.376,0.368,0.178,0.089,0.015,319.000,24.000,12.000,0.000,0.000:
0000
0000
0000
0000
,
0000
0000
0000
0000
,
0000
0000
0000
0000
,
1002
0000
1003
0000
0001
0010
0100
1000
,
0100
0010
0001
1000
0001
0000
0002
0000
,
0000
0003
1000
0010
,
0100
0001
0100
0000
0001
0010
0001
0100
,
0001
0010
0001
0000
0001
0010
0100
1000
,
0100
0010
0001
1000
0002
0000
2000
0000
,
0000
3003
1000
0001
,
0010
0100
1000
0000
0000
0000
0100
0000
,
1000
0100
0010
0001
0010
0001
0100
0001
,
0100
0000
1010
0000
1000
0100
1000
0100
,
1000
0000
0011
0000
0001
0010
0100
1000
,
0100
0010
2001
3001
,
0010
0100
1000
0100
0000
0010
0001
0001
,
0100
0010
0100
0001
0000
0100
0010
0010
,
1000
0010
0100
0010
0000
1000
0100
0100
,
0010
0001
0010
0100
0000
1000
0001
0001
,
1000
0000
0001
0001
0000
0010
0100
0100
,
1000
0000
1000
0100
0000
0010
0001
0001
,
0100
0000
0010
1000
0000
0100
1000
1000
,
0100
0000
0010
0001
0000
0100
0001
0010
,
0100
1000
0100
1000
0100
0000
1100
0000
,
0100
0010
0001
0010
0001
0000
0011
0000
,
0001
0100
0010
1000
0010
0000
1010
0000
,
1000
0010
0100
0001
0100
0000
0101
0000
,
0001
0010
0100
1000
0100
0000
1001
0000
,
1001
0000
0000
0001
0000
1000
0010
0000
1000
0100
0000
0000
,
1002
0000
1003
0100
1000
0100
1000
0100
,
1000
0100
1000
0001
1000
0001
1000
0001
,
1000
0001
1000
0010
1000
0010
1000
0010
,
1000
0010
2000
0000
3001
0000
0010
0100
,
1000
0100
0010
0001
0010
0100
1000
0000
,
2000
0000
3000
0001
,
0100
0000
0001
0100
0001
0000
1000
0010
,
0100
0001
1000
0010
0100
0001
1000
0000
,
0001
0010
0100
1000
0100
0010
0001
0000
,
0002
0000
0003
0010
,
0100
0000
1000
0100
1000
0000
0010
0000
,
0100
0000
0001
0010
0001
0010
0001
0000
,
1001
0100
1001
0010
,
1001
0100
1001
1001
,
0001
0010
0100
1002
,
1003
0000
0010
0100
0001
1000
0000
0001
,
1000
1000
0001
0000
0100
0001
0000
0100
,
0010
0010
1000
0000
0010
1000
0000
0010
,
0100
0100
0001
0000
0100
0001
0000
0100
,
0001
0001
1000
0000
0001
1000
0000
0001
,
0010
0010
0001
0000
0010
0001
0000
0010
,
0100
0100
1000
0000
0010
1000
0000
0001
,
0100
0100
0010
0000
0100
0001
0000
0010
,
0001
1000
0100
1000
0010
1000
0001
0000
,
1001
0000
1000
0001
0100
0001
0010
0000
,
0011
0000
0100
1000
0010
1000
0001
0000
,
1001
0010
0100
0010
,
1001
0000
0001
0100
0001
0000
1000
0000
,
1100
0000
0000
1001
0000
0000
0010
0000
0100
0001
0000
0100
,
0010
0220
0330
0000
;

//---------------dance-single - Copied from----------------
#NOTES:
     dance-single:
     Copied from:
     Easy:
     5:
     0.307,0.347,0.504,0.089,0.000,210.000,68.000,12.000,0.000,0.000:
0000
0000
0000
0000
,
0000
0000
0000
0000
,
0000
0000
0000
0000
,
1001
1000
0001
0010
,
0100
0010
0001
0002
,
0000
0003
1000
0010
,
0100
0001
0100
0000
0010
0000
1001
0000
,
0100
1001
0001
0010
,
0100
1000
0002
2000
,
0000
3003
1000
0001
,
0010
0100
1000
0000
0000
0000
0100
0000
,
1000
0100
0010
0000
0001
0000
0101
0000
,
0101
1010
1000
1100
,
1100
0011
0001
0110
,
0110
0010
1001
0002
,
0013
0000
0100
1000
0000
0000
0011
0000
,
0101
0000
0100
0001
0000
0000
0110
0000
,
1100
0000
0100
1000
0000
0000
1100
0000
,
0110
0000
0010
0001
0000
0000
1001
0000
,
1000
0001
0010
0100
,
0010
0020
0000
0030
,
0100
0010
0001
1001
,
0100
0010
1000
1001
,
0010
1100
1100
1100
,
0100
0011
0011
0011
,
0001
1010
1010
1010
,
1000
0101
0101
0101
,
0001
0110
1100
1001
,
1001
0000
0000
0000
,
1001
0100
0100
0100
,
0100
1000
1000
1000
,
1000
0010
0010
0010
,
0010
2000
3001
0010
,
0100
1000
0100
1000
,
2000
0000
3000
0001
,
0100
0000
0001
0100
0001
0000
1001
0000
,
0110
1001
0110
1001
,
0010
0100
0010
0001
,
0002
0000
0003
0010
,
0100
0000
1000
0100
1000
0000
0010
0000
,
0100
0000
0001
0010
0001
0010
0001
0000
,
1001
0100
1001
0010
,
1001
0100
1001
1001
,
0001
0010
0100
1001
,
2000
0000
3010
0000
0100
0001
0000
0000
,
1001
0000
0001
0000
0100
0010
0000
0000
,
0110
0000
1000
0000
0010
1000
0000
0000
,
1010
0000
1000
0000
0100
0010
0000
0000
,
0110
0001
0010
1000
,
0010
0001
0002
0000
,
0003
0010
0001
0100
,
0101
0001
1000
0010
,
1010
1000
1001
1001
,
1001
0001
0011
0011
,
0011
0100
0110
0110
,
0110
0010
0100
1000
,
0001
1001
0001
0101
,
1000
1100
0000
0000
,
0000
2002
3003
0000
;
