#TITLE:Outside World;
#SUBTITLE:(Club Mix);
#ARTIST:Megara Vs. Dj Lee;
#TITLETRANSLIT:;
#SUBTITLETRANSLIT:;
#ARTISTTRANSLIT:;
#CREDIT:LEOJ for the cut;
#BANNER:outsideBAN.png;
#BACKGROUND:outsideBG.png;
#LYRICSPATH:;
#CDTITLE:;
#MUSIC:Megara vs Dj Lee - Outside World (Club Mix).ogg;
#OFFSET:-0.020;
#SAMPLESTART:39.270;
#SAMPLELENGTH:12.000;
#SELECTABLE:YES;
#DISPLAYBPM:140.000;
#BPMS:0.000=139.680,66.500=69.840,67.000=139.680,74.000=69.840,74.500=139.680,81.500=69.840,82.000=139.680,94.000=558.720,96.000=139.680,96.500=69.840,96.750=139.680,97.250=69.840,97.500=139.680,98.000=69.840,98.250=139.680,98.750=69.840,99.000=139.680,103.000=69.840,103.250=139.680,103.750=69.840,104.000=139.680,104.500=69.840,104.750=139.680,105.250=69.840,105.500=139.680,110.000=69.840,110.250=139.680,110.750=69.840,111.000=139.680,111.500=69.840,111.750=139.680,112.250=69.840,112.500=139.680,113.000=69.840,113.250=139.680,113.750=69.840,114.000=139.680,114.500=69.840,114.750=139.680,115.250=69.840,115.500=139.680,116.000=69.840,116.250=139.680,116.750=69.840,117.000=139.680,117.500=69.840,117.750=139.680,118.250=69.840,118.500=139.680,119.000=69.840,119.250=139.680,119.750=69.840,120.000=139.680,150.500=558.720,154.000=139.680,218.000=69.840,220.000=139.680;
#STOPS:150.500=0.080
,150.750=0.160
,151.250=0.080
,151.500=0.160
,152.000=0.080
,152.250=0.160
,152.750=0.080
,153.000=0.160
,153.500=0.400
;
#BGCHANGES:;
// cache tags:
#FIRSTBEAT:4.000;
#LASTBEAT:220.000;
#SONGFILENAME:Songs/Rodd's Revival/Outside World (Club Mix)(Rodd Steps)/Outside World (Rodd Steps).sm;
#HASMUSIC:1;
#HASBANNER:1;
#MUSICLENGTH:99.240;
// end cache tags

//---------------dance-single - R. Farias----------------
#NOTES:
     dance-single:
     R. Farias:
     Challenge:
     9:
     0.795,1.000,0.474,0.937,0.479,412.000,47.000,93.000,29.000,0.000:

0000
0000
0000
0000
,
000M
0000
M000
0000
0000
0M00
0000
0000
M000
0000
000M
0000
0000
0M00
0000
0000
,
000M
0000
0000
0M00
0000
0000
00M0
0000
M000
0000
0000
0M00
0000
0000
00M0
0000
,
000M
0000
0000
0M00
0000
0000
00M0
0000
M000
0000
000M
0000
0M00
0000
00M0
0000
,
2000
0000
0000
3200
0000
0000
0302
0000
0203
0000
0000
0320
0000
0000
0032
0000
,
0203
0000
0000
0320
0000
0000
2030
0000
3200
0000
0000
0320
0000
0032
0203
0000
,
0320
0000
0000
0230
0000
0000
0302
0000
2003
0000
0000
3200
0000
0000
0320
0000
,
0230
0000
0000
2300
0000
0000
3002
0000
0203
0320
0230
0300
0002
0000
2003
0000
,
3100
0000
0010
0001
0000
1000
0100
0000
0010
0000
0100
1000
0000
0001
0100
0000
,
0010
0000
0100
0001
0000
1000
0100
0000
0010
0000
0100
1000
0000
0001
0100
0000
,
0010
0000
1000
0100
0000
1000
0100
0000
0010
0000
0100
0010
0000
0010
0001
0000
,
0100
0000
0010
1000
0000
1000
0100
0000
0010
0100
0010
0000
0001
0000
0001
0000
,
0101
0000
0100
0020
0000
0000
1030
0000
1100
0000
0100
0020
0000
0000
0031
0000
,
1001
0000
1000
0200
0000
0000
0310
0000
0011
0000
0001
1000
0000
1000
0100
0000
,
0110
0000
0010
0002
0000
0000
0103
0000
0101
0000
0100
0020
0000
0000
1030
0000
,
1100
0000
1000
0002
0000
0000
0103
0000
0010
1000
0100
0000
0010
0000
0001
0000
,
0100
0000
0010
1000
0000
1000
0100
000M
0010
0000
M002
0000
0103
0000
M010
000M
,
0100
0001
0000
1000
0100
0000
0010
0000
0001
0100
0000
0010
1000
0000
0100
0000
,
0010
0100
0000
1000
0001
0000
0100
0000
0020
0000
1030
0000
0100
0000
0010
0001
,
0000
0001
0100
0000
0010
0100
0010
0000
1000
0000
1000
0000
0100
0000
0010
0001
,
0000
1000
0100
0000
0010
0000
0200
0000
1300
0000
0001
0000
0100
0010
0000
1000
,
0100
0000
0010
0000
0001
0100
0000
0010
1000
0000
0100
0000
0010
0100
0000
0010
,
0100
0020
0032
0000
0103
0010
1000
0100
,
0010
0001
0200
0000
0320
0000
0000
0000
,
2030
0000
3200
0320
0000
0032
0203
0000
0320
2030
0000
3200
0320
0000
0000
0000
,
0032
0000
0000
0000
0203
0000
0000
0000
0310
0000
1000
0000
0200
0320
0000
0032
,
0203
0000
0320
0230
0000
0302
2003
0000
3200
0000
0000
0000
0320
0000
0000
0000
,
0032
0000
0000
0000
1003
0000
0001
0000
0200
0320
0000
0230
0302
0000
2003
3200
,
0000
0320
0032
0000
0203
0320
0000
2030
3200
0000
2300
3002
0000
0203
0320
0000
,
2030
3200
0000
0320
0032
0000
0023
0230
0000
2300
3002
0000
0203
0320
0000
2030
,
3001
0100
0010
1000
0001
0101
0100
0110
,
0010
1010
1000
1100
1000
1001
0001
0101
,
0100
0110
0010
1000
0100
0110
0010
0011
,
0001
0101
0100
0110
0100
0101
0001
1001
,
1000
1100
0100
0010
0001
0100
0010
0100
,
0001
1000
0100
0010
0100
1000
0100
1000
,
0010
0000
0100
0000
0001
0000
0010
0000
0001
0000
0100
0010
1000
0100
1000
0010
,
0100
0001
0010
0001
0100
0010
0100
0001
1000
0100
0010
0001
0000
0100
0010
0000
,
1000
0100
0000
0010
0001
0000
0100
0000
0010
0000
1000
0000
0100
0000
0010
0000
,
0001
0010
0100
1000
0001
0100
0010
1000
,
0100
0010
0100
1000
0001
0100
1000
0100
,
0010
1000
0100
0001
0100
0010
0001
0100
,
0020
0000
1030
0001
0100
0010
0100
0001
,
1000
0100
1000
0010
0100
0001
0010
0001
,
0200
0000
0310
0100
0001
1000
0100
0010
,
0001
0010
0100
1000
0010
0100
0001
0010
,
0001
0100
0010
1000
0100
0010
0011
0001
,
0100
0010
0110
0010
1000
0100
1100
1000
,
0001
0100
0110
0010
1000
0100
0110
0010
,
0001
0100
0101
0100
0010
1000
1100
1000
,
1001
0000
0101
0100
0110
0000
1010
0000
,
1100
0101
0011
1010
,
1100
0000
1001
0001
0101
0000
0110
0000
,
1010
1100
0110
0011
,
0101
0000
0000
0000
1010
0000
0000
0000
2002
0M00
00M0
0000
0M00
00M0
0000
0000
,
3MM3
0000
0000
0000
;
