#TITLE:摩李夫舞鷺須;
#SUBTITLE:(pop☆candy short ver);
#ARTIST:Saka-ROW組;
#TITLETRANSLIT:MARIO BROS;
#SUBTITLETRANSLIT:(pop*candy short ver);
#ARTISTTRANSLIT:Team Saka-ROW;
#CREDIT:;
#BANNER:mario_banner.jpg;
#BACKGROUND:marios_bg.jpg;
#LYRICSPATH:;
#CDTITLE:cdtitle.png;
#MUSIC:mariobros.ogg;
#OFFSET:0.000;
#SAMPLESTART:20.733;
#SAMPLELENGTH:12.000;
#SELECTABLE:YES;
#DISPLAYBPM:220.000;
#BPMS:0.000=220.000,302.000=110.000,304.000=220.000,308.000=110.000,310.000=220.000,314.000=110.000,316.000=220.000,320.000=110.000,322.000=220.000,326.000=110.000,328.000=220.000,332.000=110.000,334.000=220.000,338.000=110.000,340.000=220.000,344.000=110.000,346.000=220.000,350.000=440.000,394.000=220.000;
#STOPS:;
#BGCHANGES:;
// cache tags:
#FIRSTBEAT:8.000;
#LASTBEAT:394.000;
#SONGFILENAME:Songs/Japanese Collaboration Mix/mariobros/mariobros.sm;
#HASMUSIC:1;
#HASBANNER:1;
#MUSICLENGTH:107.727;
// end cache tags

//---------------dance-single - ----------------
#NOTES:
     dance-single:
     :
     Challenge:
     12:
     0.870,0.914,0.464,0.214,0.056,583.000,50.000,23.000,201.000,0.000:
0000
0000
0000
0000
,
0000
0000
0000
0000
,
0220
0000
0000
0330
,
1001
0100
0010
0001
1000
0100
0010
0001
,
1000
0100
0010
0001
1000
0100
0010
0001
,
0010
1000
0100
0010
0001
1000
0100
0010
,
0001
1000
0100
0010
0001
1000
0100
0010
,
1001
0100
0010
0001
1000
0100
0010
0001
,
1000
0100
0010
0001
1000
0100
0010
0100
,
1001
0010
0100
0010
0100
0010
0100
0000
,
1001
1001
1001
1001
,
0010
0001
0100
0000
0001
0020
1030
0000
,
0010
0002
0103
0000
0001
0020
1030
0000
,
0010
0002
0103
0000
0010
0200
1300
0000
,
0001
0020
0130
0000
0010
0200
1300
0001
,
0010
0000
0100
0020
0031
0000
1000
0200
,
0310
0000
0100
0020
0031
0000
1000
0200
,
0310
0000
0100
0020
0031
0000
1000
0200
,
0310
0000
0100
0010
0001
0010
1000
0000
,
0010
1000
0010
1000
0010
1000
0010
0000
,
0010
1000
0010
1000
0010
1000
0001
0000
,
0010
1000
0010
1000
0010
1000
0010
0000
,
1000
0100
1000
0100
1000
0100
0010
0000
,
0010
0100
0010
0100
0010
0001
0010
0000
,
0010
1000
0010
0001
0010
1000
0010
0000
,
0100
0001
0100
0001
0100
0001
0100
0000
,
0010
1000
0010
0001
0010
1000
0010
0000
,
1010
1010
1010
1010
,
0101
0101
0101
0101
,
1010
1010
0101
0101
,
1010
0000
0000
0000
0101
0000
0000
0000
1000
0001
1000
0001
1000
0001
1000
0001
,
0000
0010
0100
1000
0010
0001
0100
0010
,
0001
0000
0010
0000
0001
0100
1000
0000
,
0010
0100
0010
1000
0010
0100
0010
0100
,
0001
0000
1000
0000
0001
1000
0010
0000
,
0100
0010
0100
0001
0100
0010
0100
0001
,
0100
0000
1000
0000
0100
0010
1000
0001
,
0010
0100
0010
0001
0010
1000
0010
0000
,
0100
0010
1000
0001
0100
0010
1001
0000
,
0100
0010
0100
0010
0100
0010
0100
0010
,
0100
0010
1000
0001
0100
0010
1000
0001
,
0100
0010
0100
0010
0100
0010
0100
0010
,
0001
0100
0001
1000
0010
0100
0001
1000
,
0100
0010
0100
0010
0100
0010
1000
0010
,
0001
0100
1000
0010
0100
0001
1000
0010
,
0100
0010
0100
0010
0100
0010
1000
0010
,
0100
0000
0010
0000
1000
0000
0101
0000
0000
0000
1000
0000
0010
0100
0010
0100
,
0010
0100
0010
0100
0010
0000
0000
0000
1000
0000
0001
0000
0100
0000
0001
0000
,
1000
0100
0110
1001
,
0001
0010
1000
0000
0001
1000
0010
1000
,
0001
0010
0110
1001
,
1000
0100
0001
0000
1000
0001
0100
0001
,
1000
0100
0110
1001
,
0001
0010
1000
0000
0001
1000
0010
1000
,
0001
0010
0110
1001
,
1000
0100
0001
0000
1010
0000
1010
0000
,
1010
1010
0101
0101
,
0101
0101
1010
1010
,
0101
0101
1001
0110
,
0001
1000
0001
1000
0001
1000
0001
1000
0001
0000
0000
0000
0100
0000
1000
0000
,
0010
1000
0100
0000
0001
1000
0010
1000
,
0001
0100
1000
0000
0010
0001
0100
0001
,
0010
1000
0100
0010
0001
0100
1000
0010
,
0001
1000
0010
0000
0100
0001
0010
1000
,
0100
0001
0010
0000
0100
0000
1000
0000
,
0100
0010
1000
0001
0100
1000
0010
0001
,
0100
1000
0010
0001
0100
0010
1000
0001
,
0100
0010
1001
0000
0100
0010
0001
0100
,
0010
0001
1000
0010
0100
0010
1000
0001
,
0100
0010
1000
0001
0100
0010
0001
0100
,
0000
0001
1000
0010
0001
0100
0001
1000
,
0010
0100
0001
1000
0100
0010
0001
0100
,
0000
0001
1000
0010
0001
0100
1000
0010
,
0100
0001
1000
0010
0010
0010
0110
0010
,
0010
0110
0010
0010
0100
0010
1000
0100
,
0010
0001
0100
0000
MM2M
M10M
M10M
M13M
,
1000
0100
1000
0100
0010
0001
0010
0000
,
2MMM
0MM1
0MM1
3MM1
0100
0001
0100
0001
,
1000
0010
1000
0000
M2MM
M01M
M01M
M31M
,
0001
0010
0001
0010
0100
1000
0100
0000
,
MMM2
1MM0
1MM0
1MM3
0010
1000
0010
1000
,
0001
0100
0001
0000
MM2M
M10M
M10M
M13M
,
100M
01MM
10MM
01MM
MM10
MM01
MM10
0000
,
2MMM
0MM1
0MM1
3MM1
01M0
M0M1
M1M0
00M1
,
1M00
0M1M
1M0M
0000
M2MM
M01M
M01M
M31M
,
M001
MM10
MM01
M010
010M
10MM
01MM
M000
,
MMM2
1MM0
1MM0
1M03
0M10
1M0M
0M1M
1M00
,
00M1
M1M0
M0M1
MMMM
1001
0000
0000
0000
,
MMMM
000M
00M0
0M00
,
00M0
000M
MMMM
0000
,
MMM0
0M0M
0M0M
0M0M
,
MMM0
0000
MMMM
0M0M
,
0M0M
0M0M
M0M0
0000
,
M00M
MMMM
M00M
0000
,
0MM0
M00M
M00M
M00M
,
0MM0
0000
M00M
MMMM
,
M00M
0000
000M
MMMM
,
000M
0000
0MM0
M00M
,
M00M
M00M
MM01
0000
;
