#TITLE:Snow Storm;
#SUBTITLE:;
#ARTIST:dj TAKA;
#TITLETRANSLIT:;
#SUBTITLETRANSLIT:;
#ARTISTTRANSLIT:;
#CREDIT:;
#BANNER:snowstorm-bn.png;
#BACKGROUND:snowstorm-bg.png;
#LYRICSPATH:;
#CDTITLE:;
#MUSIC:snow storm.ogg;
#OFFSET:-2.200;
#SAMPLESTART:103.174;
#SAMPLELENGTH:13.020;
#SELECTABLE:YES;
#BPMS:0.000=145.000,128.000=72.500,152.000=145.000;
#STOPS:;
#BGCHANGES:;
// cache tags:
#FIRSTBEAT:16.000;
#LASTBEAT:287.000;
#SONGFILENAME:Songs/juju step2/snow storm/snow storm.sm;
#HASMUSIC:1;
#HASBANNER:1;
#MUSICLENGTH:134.191;
// end cache tags

//---------------dance-single - ----------------
#NOTES:
     dance-single:
     :
     Hard:
     8:
     0.413,0.481,0.127,0.186,0.071,346.000,17.000,25.000,0.000,0.000:
0000
0000
0000
0000
,
0000
0000
0000
0000
,
0000
0000
0000
0000
,
0000
0000
0000
0000
,
0020
0000
0130
0000
,
0002
0000
0003
0000
,
0200
0000
0310
0000
,
2000
0000
0002
3003
,
0020
0000
0031
0100
,
0002
0000
1003
0100
,
2000
0000
0010
0000
3100
1000
0001
0000
,
0010
0001
0100
0000
0010
0000
1001
0000
,
0200
0000
1300
0010
,
2000
0000
0010
0000
3100
1000
0001
0000
,
0020
0001
0000
0000
0130
0010
0001
0000
,
1000
1010
0100
0010
,
0100
0000
0000
0001
0000
0000
0010
0000
0001
0000
0000
0100
0000
0000
0010
0000
,
2000
0000
3001
0000
,
0010
0000
0000
0001
0000
0000
0100
0000
0010
0000
0000
1000
0000
0000
0010
0000
,
0200
0000
0310
0000
,
1000
0000
0000
0010
0000
0000
1000
0000
0001
0000
0000
0100
0000
0000
0001
0000
,
0020
0000
0000
0000
0130
0010
0001
0000
,
0100
0010
1000
0000
0001
1000
0100
0000
,
1000
0001
0100
0000
0010
0000
0100
0000
,
1002
0000
0010
0000
0103
0001
1000
0010
,
0100
0000
0000
0010
0000
0000
1000
0000
0001
0000
0010
0000
0100
0000
0000
0000
,
2001
0000
0010
0000
3100
1000
0001
0000
,
0010
0000
0000
0001
0000
0000
1000
0000
0001
0000
0100
0000
0010
0000
0000
0000
,
0210
0000
1000
0000
0310
0100
0001
0000
,
1000
0010
0100
0000
0001
0100
0010
0000
,
1000
0100
0010
0000
0001
0100
0010
0000
,
1000
0000
0001
0000
0110
0000
1001
0010
,
0200
0000
0000
0300
,
0010
0000
0100
0000
,
1000
0000
0001
0000
0200
0000
0310
0100
,
0001
0000
1000
0000
0100
1000
0010
0100
,
0001
0010
0010
0100
1000
0010
0010
0100
,
0001
1000
1000
0100
0010
0001
0001
0100
,
0010
1001
0000
1100
,
0010
0001
0100
0000
0010
1000
0010
0000
,
0100
0001
0100
0001
0010
0000
0100
0000
,
2000
0000
3001
0010
,
0100
0000
1001
0000
0010
0001
0100
0000
,
0010
1000
0100
0000
1000
0010
1000
0000
,
0001
0100
0010
1000
0001
0010
0100
1000
,
0010
0100
0001
0000
0010
0000
1100
0000
,
0010
0000
0001
0000
0100
0001
1000
0100
,
0010
0000
0001
0000
0100
0010
1000
0000
,
0001
0101
1000
1100
,
0010
0001
0010
0001
0100
0010
0100
0000
,
0001
0101
1000
1100
,
0010
0000
0000
0001
0000
0000
1000
0000
0100
0000
0010
0000
0100
0000
1000
0000
,
0010
0000
0000
0100
0000
0000
0001
0000
0100
0000
0010
0000
0100
0000
0001
0000
,
1000
0010
0100
0001
,
0200
0000
0000
0310
,
1000
0000
0000
0010
0000
0000
1000
0000
0001
0000
0000
0010
0000
0000
0001
0000
,
0100
0000
0000
0001
1000
0000
1000
0000
0010
0000
0000
0100
0000
0000
0010
0000
,
1000
0000
0100
0001
0000
0001
0100
0000
0010
0000
0001
1000
0000
1000
0001
0000
,
0010
0100
1000
0010
0100
0001
1000
0010
,
0100
0010
0100
0001
0010
0100
0010
1000
,
0010
0001
0100
1000
0100
0010
1000
0001
,
1000
0100
0010
0100
1000
0001
0100
0000
,
0001
0100
0010
0100
0001
1000
0100
0000
,
0020
0000
0001
0000
0130
0010
0001
0000
,
0100
0000
0000
0010
0000
0000
1000
0000
0010
0000
1000
0000
0001
0000
0000
0000
,
1000
1100
0001
0101
,
0100
1000
0100
1000
0010
0100
0001
0000
,
2000
0000
0010
0000
3100
1000
0001
0000
,
0002
0000
0010
0000
0103
0001
1000
0000
,
0010
0100
0001
0000
0010
0100
1000
0000
,
0001
1000
0100
0000
1000
0001
0100
0000
,
0020
0000
0000
0030
;

//---------------dance-single - ----------------
#NOTES:
     dance-single:
     :
     Medium:
     5:
     0.315,0.348,0.119,0.238,0.000,248.000,16.000,32.000,0.000,0.000:
0000
0000
0000
0000
,
0000
0000
0000
0000
,
0000
0000
0000
0000
,
0000
0000
0000
0000
,
0010
0000
0100
0000
,
0002
0000
0003
0000
,
0100
0000
0010
0000
,
2000
0000
3001
0010
,
0100
0000
0100
0000
,
1000
0001
0100
0000
,
0010
0000
0010
0000
,
0100
0001
1000
0100
,
1000
0000
1000
0000
,
0002
0010
0103
0000
,
0001
0000
0001
0000
,
2000
0100
3010
0100
,
0010
0101
0001
1000
,
0200
0000
0310
0000
,
0100
1010
1000
0001
,
0020
0000
0130
0000
,
2000
0000
3001
0100
,
0002
0000
1003
0010
,
0100
0001
1000
1100
,
2000
0010
3100
0010
,
0002
0000
1003
0100
,
2000
0000
3001
0010
,
0200
1000
0310
0100
,
0020
0001
0130
0010
,
0001
0100
0010
1001
,
0020
0000
0130
0000
,
0001
0100
0001
0000
,
1000
0100
1000
0000
,
0020
0000
0000
0030
,
0000
0000
0000
0000
,
2000
0000
3002
0000
,
0103
0000
0010
0000
0100
0001
0010
0000
,
0002
0000
2003
0000
,
3010
0000
0100
0000
0010
1000
0100
0010
,
0001
0101
0000
0010
,
1000
0001
1000
0000
0001
1000
0001
0000
,
0010
0100
1000
1001
,
0020
0000
0130
0000
,
1000
0000
0001
0000
1000
0001
0100
0000
,
0001
0000
1000
0000
0001
1000
0100
0000
,
0010
0000
0001
0000
0010
0001
0100
0000
,
0010
0000
1000
0000
0010
1000
0100
0000
,
0010
0001
0101
0010
,
2000
3001
0020
0130
,
1000
1001
0001
1001
,
0010
0100
0001
0000
0010
0100
1000
0000
,
0001
0000
1100
0000
0001
1000
0100
0000
,
1000
0000
0101
0000
1000
0001
0100
0000
,
0010
0100
0001
0000
0010
0100
1000
0000
,
0001
1000
0010
0100
,
0020
0000
0000
0130
,
0001
0000
1000
0000
0100
1000
0001
0000
,
0100
0000
0010
0000
0100
0001
0010
0000
,
0200
1300
0002
0103
,
0020
1000
0130
1001
,
0001
0000
1000
0000
0010
1000
0001
0000
,
0100
0000
0010
0000
1000
0100
0010
0000
,
0002
1003
0020
0130
,
0002
1000
0100
0013
,
0011
0001
1000
0100
,
1000
0010
0100
1001
,
1000
0100
0011
0101
,
0001
0100
0001
0000
1000
0100
1000
0000
,
0010
0000
0100
0000
0010
0100
0001
0000
,
0010
0000
0100
0000
0010
0100
1000
0000
,
0002
0000
1003
0000
0010
0100
0001
0000
,
2000
0000
3001
0000
0010
0100
1000
0000
,
0020
0000
0000
0030
;

//---------------dance-single - ----------------
#NOTES:
     dance-single:
     :
     Easy:
     3:
     0.211,0.294,0.037,0.156,0.000,172.000,5.000,21.000,0.000,0.000:
0000
0000
0000
0000
,
0000
0000
0000
0000
,
0000
0000
0000
0000
,
0000
0000
0000
0000
,
0001
0000
0000
0000
,
1000
0000
0000
0000
,
0100
0000
0000
0000
,
0010
0000
0100
0000
,
1000
0000
0000
0000
,
0001
0000
0000
0000
,
0100
0000
0010
0000
,
2000
0000
3000
0000
,
0010
0000
0100
0000
,
0001
0000
1000
0000
,
0100
0000
0010
0000
,
0002
0000
1003
0000
,
0100
0000
0100
0000
,
1000
0100
0010
0000
,
0010
0000
0010
0000
,
0001
0010
0100
0000
,
1000
0000
1000
0000
,
0002
0010
0103
0000
,
0001
0000
0001
0000
,
2000
0100
3010
0100
,
0010
0001
0100
0000
,
2020
0030
3100
0000
,
0010
0100
1000
0000
,
0202
0300
0013
0100
,
0010
1000
0100
0000
,
0010
0001
0100
0000
,
0001
0000
0001
0000
,
1000
0000
1000
0000
,
0200
0000
0000
0300
,
0000
0000
0000
0000
,
0010
0000
0100
0000
,
1000
0000
0001
0000
,
1000
1000
0001
0001
,
0100
0000
0010
0100
,
0001
0100
0010
1000
,
0100
0000
0100
0000
,
1000
0000
0001
0000
,
2000
0000
3001
0000
,
1000
0010
0100
0001
,
1000
0000
1000
0000
,
0002
0000
1003
0000
,
0020
0000
0130
0000
,
0001
0000
0001
0000
,
1000
0000
1000
0000
,
0100
0100
0100
0100
,
0010
0010
0010
0010
,
0100
0000
0100
0000
,
0010
0000
0010
0000
,
0001
1000
0010
0100
,
0001
1000
0100
0010
,
1001
0000
0000
0000
,
0010
0100
1000
1001
,
0010
0001
0100
0110
,
0002
0100
0013
0100
,
2000
0010
3100
0010
,
0100
0001
1000
0100
,
0010
0001
1000
0010
,
0100
0001
0100
0001
,
1000
0100
1000
0100
,
0010
0000
0001
0000
,
1000
0000
0001
0000
,
0100
0100
0100
0100
,
0010
0010
0010
0010
,
1000
0100
2000
3000
,
0001
0100
0002
0003
,
2000
0000
3002
0000
,
0203
0000
0320
0000
,
0230
0000
0000
0300
;
