#TITLE:Dumpstream;
#SUBTITLE:;
#ARTIST:Kommisar;
#TITLETRANSLIT:;
#SUBTITLETRANSLIT:;
#ARTISTTRANSLIT:;
#CREDIT:Mad Matt;
#BANNER:../Tachyon Spectrum-bn.png;
#BACKGROUND:../Tachyon Spectrum-bg.png;
#LYRICSPATH:;
#CDTITLE:;
#MUSIC:Dumpstream.OGG;
#OFFSET:-0.050;
#SAMPLESTART:92.080;
#SAMPLELENGTH:13.680;
#SELECTABLE:YES;
#DISPLAYBPM:270.000;
#BPMS:0.000=201.001,255.500=228.000,256.000=245.001,383.500=281.000,384.000=270.000;
#STOPS:;
#BGCHANGES:;
// cache tags:
#FIRSTBEAT:16.000;
#LASTBEAT:531.250;
#SONGFILENAME:Songs/Tachyon Spectrum/Dumpstream - [Mad Matt]/Dumpstream.SM;
#HASMUSIC:1;
#HASBANNER:1;
#MUSICLENGTH:140.747;
// end cache tags

//---------------dance-single - Mad Matt----------------
#NOTES:
     dance-single:
     Mad Matt:
     Medium:
     17:
     1.000,1.000,0.121,1.000,1.000,1369.000,17.000,159.000,0.000,1.000:


0000
0000
0000
0000
,
0000
0000
0000
0000
,
0000
0000
0000
0000
,
0000
0000
0000
0000
,
1000
0100
0010
0001
1000
0100
0010
0001
1000
0010
0100
0001
1000
0010
0100
0001
,
1000
0100
1000
0001
1000
0010
1000
0001
0100
0001
1000
0001
0010
0001
1000
0001
,
0100
0010
1000
0001
1000
0010
1000
0001
0100
0010
1000
0100
1000
0001
0100
0001
,
1000
0001
0010
0100
1000
0001
0010
0100
1000
0001
0100
0001
1000
0001
0010
0001
,
1000
0010
0100
0001
1000
0010
0100
0001
1000
0100
0010
0001
1000
0100
0010
0001
,
1000
0010
1000
0001
1000
0100
1000
0001
0010
0001
1000
0001
0100
0001
1000
0001
,
0010
0100
1000
0001
1000
0100
1000
0001
0010
0100
1000
0010
1000
0001
0010
0001
,
1000
0001
0100
0010
1000
0001
0100
0010
1000
0001
0010
0001
1000
0001
0100
0001
,
1000
0100
0010
0001
1000
0100
0010
0001
1000
0010
0100
0001
1000
0010
0100
0001
,
1000
0100
1000
0001
0100
0010
1000
0100
1000
0010
0100
0010
1000
0001
0100
0001
,
1000
0010
0100
0001
1000
0100
0010
0100
1000
0001
0100
0010
1000
0001
0100
0010
,
1000
0100
1000
0010
0100
0010
1000
0100
1000
0001
0010
0001
0100
0010
0100
0001
,
1000
0010
0100
0001
1000
0010
0100
0001
1000
0100
0010
0001
1000
0100
0010
0001
,
1000
0010
1000
0001
0010
0100
1000
0010
1000
0100
0010
0100
1000
0001
0010
0001
,
1000
0100
0010
0001
1000
0010
0100
0010
1000
0001
0010
0100
1000
0001
0010
0100
,
1000
0010
1000
0100
0010
0100
1000
0010
1000
0001
0100
0001
0010
0100
0010
0001
,
1000
0100
1000
0000
0001
0100
0001
0000
1000
0010
1000
0000
0001
0010
0001
0000
,
1000
0000
0020
0030
1000
0000
0020
0030
1000
0000
0020
0030
1000
0000
0020
0030
,
0100
0000
0002
0003
1000
0000
0002
0003
0100
0000
0002
0003
1000
0000
0002
0003
,
0010
0000
0200
0300
0010
0000
0200
0300
0010
0000
0200
0300
0010
0000
0200
0300
,
1000
0001
1000
0000
0100
0010
0100
0000
1000
0001
1000
0000
0010
0100
0010
0000
,
0100
0000
0002
0003
0100
0000
0002
0003
0100
0000
0002
0003
0100
0000
0002
0003
,
0010
0000
0002
0003
1000
0000
0002
0003
0010
0000
0002
0003
0100
0000
0002
0003
,
1000
0000
0020
0030
1000
0000
0020
0030
1000
0000
0020
0030
1000
0000
0020
0030
,
1000
0100
0010
0001
1000
0100
0010
0001
1000
0010
0100
0010
1000
0001
0100
0010
,
1000
0001
0010
0100
1000
0001
0010
0100
1000
0001
0100
0010
1000
0001
0100
0001
,
1000
0100
1000
0001
0100
0010
1000
0001
1000
0100
0010
0001
0010
0100
1000
0001
,
0100
0010
1000
0001
0100
0000
0000
0000
0001
1000
0010
0000
1000
0001
0010
0000
,
0001
0100
0010
1000
0001
0100
0010
1000
0001
0010
0100
0010
0001
1000
0100
0010
,
0001
1000
0010
0100
0001
1000
0010
0100
0001
1000
0100
0010
0001
1000
0100
1000
,
0001
0100
0001
1000
0100
0010
0001
1000
0001
0100
0010
1000
0010
0100
0001
1000
,
0100
0010
0001
1000
0100
0000
0000
0000
1000
0001
0010
0000
0001
1000
0010
0000
,
4000
0004
0000
0000
0000
0000
0000
0000
0000
0000
0000
0000
0000
0000
0000
0000
,
0000
0000
0000
0000
,
0000
0000
0000
0000
,
0000
0000
0000
0000
0000
0000
0003
3000
,
0020
0000
0000
0030
0010
0000
1000
0000
0200
0000
0000
0300
0100
0000
0010
0000
,
0001
0000
0200
0300
0010
0000
0200
0300
0001
0000
0200
0300
0010
0000
0200
0300
,
0001
0000
2000
3000
0100
0000
2000
3000
0001
0000
2000
3000
0010
0000
2000
3000
,
0100
0000
0020
0030
0001
0000
0020
0030
0100
0000
0020
0030
0001
0000
0020
0030
,
0200
0000
0000
0300
0100
0000
1000
0000
0020
0000
0000
0030
0010
0000
1000
0000
,
0100
0000
0020
0030
0001
0000
0020
0030
0100
0000
0020
0030
0001
0000
0020
0030
,
0100
0000
2000
3000
0001
0000
2000
3000
0010
0000
2000
3000
0100
0000
2000
3000
,
0010
0000
0200
0300
0001
0000
0200
0300
0010
0000
0200
0300
0001
0000
0200
0300
,
0011
0000
1100
0001
0100
0010
1000
0010
,
1100
0000
0011
1000
0010
1000
0001
0100
,
0011
0000
1100
0001
0010
0100
0010
0001
,
1010
0000
0101
1000
0100
0010
0001
1000
,
0101
0000
1010
0001
0100
0010
1000
0010
,
1100
0000
0011
1000
0100
0010
0001
1000
,
0101
0000
1010
0001
0010
0100
1000
0001
,
1010
0000
0101
1000
0010
0100
0001
1000
,
0001
0010
0100
1000
0001
0010
0100
1000
0001
0100
0010
0100
0001
1000
0010
0100
,
0001
1000
0100
0010
0001
1000
0100
0010
0001
1000
0010
0100
0001
1000
0010
1000
,
0001
0010
0001
1000
0010
0100
0001
1000
0001
0010
0100
1000
0100
0010
0001
1000
,
0010
0100
0001
1000
0010
0000
0000
0000
1000
0001
0100
0000
0001
1000
0100
0000
,
1000
0010
0100
0001
1000
0010
0100
0001
1000
0100
0010
0100
1000
0001
0010
0100
,
1000
0001
0100
0010
1000
0001
0100
0010
1000
0001
0010
0100
1000
0001
0010
0001
,
1000
0010
1000
0001
0010
0100
1000
0001
1000
0010
0100
0001
0100
0010
1000
0001
,
0010
0100
1000
0001
0010
0000
0000
0000
0001
1000
0010
0000
1000
0001
0100
0000
,
0001
0010
0100
1000
0001
0010
0100
1000
0001
0100
0010
1000
0001
0100
0010
1000
,
0001
1000
0100
1000
0001
0100
0010
0100
0001
1000
0100
1000
0001
0100
0010
0100
,
0001
1000
0100
0010
0001
1000
0001
0100
0001
1000
0100
1000
0001
1000
0010
0100
,
0001
1000
0100
0010
0100
1000
0001
0100
0010
1000
0001
1000
0100
0010
0100
1000
,
0001
0100
0010
1000
0001
0100
0010
1000
0001
0010
0100
1000
0001
0010
0100
1000
,
0001
1000
0010
1000
0001
0010
0100
0010
0001
1000
0010
1000
0001
0010
0100
0010
,
0001
1000
0010
0100
0001
1000
0001
0010
0001
1000
0010
1000
0001
1000
0100
0010
,
0001
1000
0010
0100
0010
1000
0001
0010
0100
1000
0001
1000
0010
0100
0010
1000
,
0001
0010
0001
0000
1000
0100
1000
0000
0001
0100
0001
0000
1000
0010
1000
0000
,
0001
0000
0200
0300
0001
0000
0200
0300
0001
0000
0200
0300
0001
0000
0200
0300
,
0010
0000
2000
3000
0100
0000
2000
3000
0001
0000
2000
3000
0010
0000
2000
3000
,
0001
0000
0020
0030
0001
0000
0020
0030
0001
0000
0020
0030
0001
0000
0020
0030
,
0001
1000
0001
0000
0100
0010
0100
0000
0001
1000
0001
0000
0010
0100
0010
0000
,
0100
0000
0020
0030
0100
0000
0020
0030
0100
0000
0020
0030
0100
0000
0020
0030
,
0001
0000
0200
0300
0010
0000
0200
0300
0001
0000
0200
0300
0010
0000
0200
0300
,
0001
0000
2000
3000
0010
0000
2000
3000
0010
0000
2000
3000
0010
0000
2000
3000
,
0001
0100
0010
1000
0001
0100
0010
1000
0001
0010
0100
0010
0001
1000
0100
0010
,
0001
1000
0010
0100
0001
1000
0010
0100
0001
1000
0100
0010
0001
1000
0100
1000
,
0001
0100
0001
1000
0100
0010
0001
1000
0001
0100
0010
1000
0010
0100
0001
1000
,
0100
0010
0001
1000
0100
0000
0000
0000
1000
0001
0010
0000
0001
1000
0010
0000
,
1000
0100
0010
0001
1000
0100
0010
0001
1000
0010
0100
0010
1000
0001
0100
0010
,
1000
0001
0010
0100
1000
0001
0010
0100
1000
0001
0100
0010
1000
0001
0100
0001
,
1000
0100
1000
0001
0100
0010
1000
0001
1000
0100
0010
0001
0010
0100
1000
0001
,
0100
0010
1000
0001
0100
0000
0000
0000
0001
1000
0010
0000
1000
0001
0100
0000
,
0020
0000
0000
0030
0010
0000
1000
0000
0200
0000
0000
0300
0100
0000
0010
0000
,
0001
0000
0020
0030
0100
0000
0020
0030
0001
0000
0020
0030
0100
0000
0020
0030
,
0001
0000
2000
3000
0100
0000
2000
3000
0010
0000
2000
3000
0001
0000
2000
3000
,
0010
0000
0200
0300
0001
0000
0200
0300
0010
0000
0200
0300
0001
0000
0200
0300
,
0020
0000
0000
0030
0010
0000
1000
0000
0200
0000
0000
0300
0100
0000
1000
0000
,
0001
0000
0200
0300
0010
0000
0200
0300
0001
0000
0200
0300
0010
0000
0200
0300
,
0001
0000
0020
0030
0100
0000
0020
0030
0001
0000
0020
0030
0100
0000
0020
0030
,
0001
0000
2000
3000
0100
0000
2000
3000
0010
0000
2000
3000
0100
0000
2000
3000
,
0001
0100
0010
1000
0001
0100
0010
1000
0001
0010
0100
1000
0001
0010
0100
4000
,
0004
0000
0000
0000
0000
0000
0000
0000
0000
0000
0000
0000
0000
0000
3000
0003
,
0100
0010
1000
0001
1000
0010
1000
0001
0100
0010
1000
0001
1000
0100
0010
0004
,
4000
0000
0000
0000
0000
0000
0000
0000
0000
0000
0000
0000
0000
0000
0003
3000
,
0001
0010
0100
1000
0001
0010
0100
1000
0001
0100
0010
1000
0001
0100
0010
4000
,
0004
0000
0000
0000
0000
0000
0000
0000
0000
0000
0000
0000
0000
0000
3000
0003
,
0010
0100
1000
0001
1000
0100
1000
0001
0010
0100
1000
0001
1000
0010
0100
0004
,
4000
0000
0000
0000
0000
0000
0000
0000
0000
0000
0000
0000
0000
0000
0003
3000
,
0001
0010
0001
0000
1000
0100
1000
0000
0001
0100
0001
0000
1000
0010
1000
0000
,
0100
0000
0020
0030
0100
0000
0020
0030
0100
0000
0020
0030
0100
0000
0020
0030
,
0001
0000
0200
0300
0010
0000
0200
0300
0001
0000
0200
0300
0010
0000
0200
0300
,
0001
0000
2000
3000
0010
0000
2000
3000
0010
0000
2000
3000
0010
0000
2000
3000
,
0001
1000
0001
0000
0100
0010
0100
0000
0001
1000
0001
0000
0010
0100
0010
0000
,
0001
0000
0020
0030
0001
0000
0020
0030
0001
0000
0020
0030
0001
0000
0020
0030
,
0100
0000
2000
3000
0001
0000
2000
3000
0010
0000
2000
3000
0100
0000
2000
3000
,
0001
0000
0200
0300
0001
0000
0200
0300
0001
0000
0200
0300
0001
0000
0200
0300
,
0001
0010
0100
1000
0001
0010
0100
1000
0001
1000
0010
0100
0001
1000
0010
0100
,
0001
1000
0001
0010
0100
1000
0001
0010
0100
1000
0001
1000
0010
0100
0001
1000
,
0001
0010
0100
0010
0001
1000
0100
0010
0100
1000
0001
1000
0010
0100
0001
1000
,
0010
0100
0001
1000
0010
0000
0000
0000
1000
0100
1000
0000
0001
0100
0001
0000
,
1000
0010
0100
0001
1000
0010
0100
0001
1000
0001
0010
0100
0010
0001
1000
0001
,
0100
0010
1000
0001
0100
0010
1000
0001
1000
0100
0010
0100
1000
0001
0010
0100
,
0010
0001
1000
0001
0100
0010
1000
0001
0100
0001
1000
0001
0010
0100
1000
0001
,
0010
0100
1000
0001
0100
0000
0000
0000
0001
0100
0001
0000
1000
0100
1000
0000
,
0200
0000
0000
0300
0100
0000
1000
0000
0020
0000
0000
0030
0010
0000
0100
0000
,
0001
0000
2000
3000
0010
0000
2000
3000
0001
0000
2000
3000
0100
0000
2000
3000
,
0001
0000
0200
0300
0010
0000
0200
0300
0001
0000
0200
0300
0010
0000
0200
0300
,
0001
0000
2000
3000
0010
0000
2000
3000
0001
0000
2000
3000
0010
0000
2000
3000
,
0200
0000
0000
0300
0100
0000
1000
0000
0020
0000
0000
0030
0010
0000
1000
0000
,
0001
0000
0020
0030
0100
0000
0020
0030
0001
0000
0020
0030
0100
0000
0020
0030
,
0001
0000
2000
3000
0100
0000
2000
3000
0001
0000
2000
3000
0010
0000
2000
3000
,
0001
0000
0200
0300
0010
0000
0200
0300
0001
0000
0200
0300
0010
0000
0200
0300
,
2022
0000
0000
0000
,
0000
0000
0000
0000
,
0000
0000
0000
0000
,
0000
0000
0000
0000
,
0000
0000
0000
0000
0000
0000
0000
0000
0000
0000
0000
0000
0000
3033
0000
0000
;

//---------------dance-single - Tachyon Beta----------------
#NOTES:
     dance-single:
     Tachyon Beta:
     Easy:
     17:
     1.000,1.000,0.128,1.000,1.000,1345.000,18.000,160.000,0.000,1.000:

0000
0000
0000
0000
,
0000
0000
0000
0000
,
0000
0000
0000
0000
,
0000
0000
0000
0000
,
1000
0100
0010
0001
1000
0100
0010
0001
1000
0010
0100
0001
1000
0010
0100
0001
,
1000
0100
1000
0001
1000
0010
1000
0100
0010
0001
1000
0001
0100
0001
1000
0001
,
0010
0100
1000
0001
0100
0010
1000
0010
0100
0001
1000
0100
0010
0001
0010
0100
,
1000
0001
0100
0010
1000
0001
0100
0010
1000
0001
0100
0001
1000
0001
0010
0001
,
1000
0010
0100
0001
1000
0010
0100
0001
1000
0100
0010
0001
1000
0100
0010
0001
,
1000
0010
1000
0001
1000
0100
1000
0010
0100
0001
1000
0001
0010
0001
1000
0001
,
0100
0010
1000
0001
0010
0100
1000
0100
0010
0001
1000
0010
0100
0001
0100
0010
,
1000
0001
0010
0100
1000
0001
0010
0100
1000
0001
0010
0001
1000
0001
0100
0001
,
1000
0100
0010
0001
1000
0001
0010
0100
1000
0001
0100
0010
1000
0001
1000
0010
,
0100
0001
0010
0001
0100
0010
1000
0100
1000
0010
0100
0001
0010
0100
1000
0010
,
0100
0001
1000
0100
0010
0001
0010
0100
1000
0001
0100
0010
1000
0001
0100
0010
,
1000
0100
0010
0001
0100
0010
1000
0100
1000
0010
0100
0001
0010
0001
0100
0010
,
1000
0100
0010
0100
1000
0001
0010
0100
0010
0001
1000
0010
0100
0010
1000
0001
,
0010
0100
1000
0010
1000
0100
0010
0001
0100
0001
0010
0100
1000
0010
0100
0001
,
0010
0100
1000
0001
0100
0010
1000
0010
0100
0001
1000
0100
0010
0100
1000
0001
,
0100
0001
0010
0100
1000
0010
1000
0100
0010
0001
0100
0010
1000
0100
0010
0001
,
1000
0100
1000
0000
0001
0100
0001
0000
1000
0010
1000
0000
0001
0010
0001
0000
,
1000
0000
0020
0030
1000
0000
0020
0030
1000
0000
0020
0030
1000
0000
0020
0030
,
0100
0000
0002
0003
1000
0000
0002
0003
0100
0000
0002
0003
1000
0000
0002
0003
,
0010
0000
0200
0300
0010
0000
0200
0300
0010
0000
0200
0300
0010
0000
0200
0300
,
1000
0001
1000
0000
0100
0010
0100
0000
1000
0001
1000
0000
0010
0100
0010
0000
,
0100
0000
0002
0003
0100
0000
0002
0003
0100
0000
0002
0003
0100
0000
0002
0003
,
0010
0000
0002
0003
1000
0000
0002
0003
0010
0000
0002
0003
0100
0000
0002
0003
,
1000
0000
0020
0030
1000
0000
0020
0030
1000
0000
0020
0030
1000
0000
0020
0030
,
1000
0100
0010
0001
0010
0100
1000
0001
0100
0001
0100
0010
1000
0010
1000
0000
,
0001
0100
0010
1000
0010
0100
0001
1000
0100
1000
0100
0010
0001
0010
0001
0000
,
1000
0001
1000
0001
0100
0010
1000
0001
1000
0100
0010
0001
1000
0001
1000
0000
,
0001
0010
0001
1000
0010
0000
0000
0000
0100
0001
0010
0000
0100
1000
0010
0000
,
0100
0001
0010
0100
1000
0100
0010
0001
1000
0010
0100
0001
0100
0010
1000
0000
,
0010
0100
0001
0100
0010
1000
0001
1000
0100
0010
0001
1000
0100
0010
0001
0000
,
0010
0100
0010
0100
1000
0001
1000
0001
0100
0010
0100
0010
1000
0001
1000
0000
,
0010
0100
0001
0010
0100
0000
0000
0000
1000
0010
0100
0000
0001
0010
0100
0000
,
4000
0004
0000
0000
0000
0000
0000
0000
0000
0000
0000
0000
0000
0000
0000
0000
,
0000
0000
0000
0000
,
0000
0000
0000
0000
,
0000
0000
0000
0000
0000
0000
0000
0000
0000
0000
0000
0000
0000
0000
0003
3000
,
0020
0000
0000
0030
0010
0000
1000
0000
0200
0000
0000
0300
0100
0000
0010
0000
,
0001
0000
0200
0300
0010
0000
0200
0300
0001
0000
0200
0300
0010
0000
0200
0300
,
0001
0000
2000
3000
0100
0000
2000
3000
0001
0000
2000
3000
0010
0000
2000
3000
,
0100
0000
0020
0030
0001
0000
0020
0030
0100
0000
0020
0030
0001
0000
0020
0030
,
0200
0000
0000
0300
0100
0000
1000
0000
0020
0000
0000
0030
0010
0000
1000
0000
,
0100
0000
0020
0030
0001
0000
0020
0030
0100
0000
0020
0030
0001
0000
0020
0030
,
0100
0000
2000
3000
0001
0000
2000
3000
0010
0000
2000
3000
0100
0000
2000
3000
,
0010
0000
0200
0300
0001
0000
0200
0300
0010
0000
0200
0300
0001
0000
0200
0300
,
1001
0000
1001
1000
0100
1000
0001
0100
,
1001
0000
1001
0001
0100
0010
1000
0100
,
1001
0000
0110
0001
1000
0100
0010
0001
,
0110
0000
0110
1000
0010
0100
0001
1000
,
0110
0000
1100
0001
0100
0010
1000
0001
,
1100
0000
0011
1000
0010
0100
0001
1000
,
0011
0000
0101
1000
0100
0010
0001
1000
,
0101
0000
1010
0001
0010
0100
1000
0001
,
1000
0010
0100
0001
0100
0010
1000
0001
0010
0001
0010
0100
1000
0100
1000
0000
,
0001
0010
0100
1000
0100
0010
0001
1000
0010
1000
0010
0100
0001
0100
0001
0000
,
1000
0001
1000
0001
0010
0100
1000
0001
1000
0010
0100
0001
1000
0001
1000
0000
,
0001
0100
0001
1000
0100
0000
0000
0000
0010
0001
0100
0000
0010
1000
0100
0000
,
0010
0001
0100
0010
1000
0010
0100
0001
1000
0100
0010
0001
0010
0100
1000
0000
,
0100
0010
0001
0010
0100
1000
0001
1000
0010
0100
0001
1000
0010
0100
0001
0000
,
0100
0010
0100
0010
1000
0001
1000
0001
0010
0100
0010
0100
1000
0001
1000
0000
,
0001
0100
0010
1000
0100
0000
0000
0000
0010
0001
1000
0000
0010
0100
0001
0000
,
1000
0010
0100
0001
0100
0010
1000
0001
0100
0010
1000
0010
0100
0001
1000
0001
,
1000
0100
0010
0001
0010
0100
1000
0001
1000
0001
0010
0100
1000
0100
0010
0001
,
1000
0010
1000
0001
0100
0010
1000
0010
0100
0001
1000
0010
1000
0001
0100
0010
,
1000
0001
0010
0100
1000
0001
0010
0001
1000
0100
0010
0001
0010
0100
1000
0001
,
1000
0010
1000
0010
0100
0001
0100
0001
1000
0010
0100
0001
0100
0010
1000
0001
,
1000
0100
1000
0100
0010
0001
0010
0001
1000
0100
0010
0001
0010
0100
1000
0001
,
1000
0010
0100
0001
1000
0100
1000
0001
1000
0100
1000
0001
0100
0001
1000
0001
,
0010
0001
1000
0100
0010
0001
0010
0100
1000
0001
0100
0010
1000
0010
0100
0001
,
1000
0010
1000
0000
0001
0100
0001
0000
1000
0100
1000
0000
0001
0010
0001
0000
,
1000
0000
0200
0300
1000
0000
0200
0300
1000
0000
0200
0300
1000
0000
0200
0300
,
0010
0000
0002
0003
0100
0000
0002
0003
1000
0000
0002
0003
0010
0000
0002
0003
,
1000
0000
0020
0030
1000
0000
0020
0030
1000
0000
0020
0030
1000
0000
0020
0030
,
1000
0001
1000
0000
0100
0010
0100
0000
1000
0001
1000
0000
0010
0100
0010
0000
,
0100
0000
0020
0030
0100
0000
0020
0030
0100
0000
0020
0030
0100
0000
0020
0030
,
1000
0000
0200
0300
0010
0000
0200
0300
1000
0000
0200
0300
0010
0000
0200
0300
,
1000
0000
0002
0003
0010
0000
0002
0003
0010
0000
0002
0003
0010
0000
0002
0003
,
1000
0010
0100
0001
0100
0010
1000
0001
0100
0010
1000
0010
0100
0001
1000
0000
,
0001
0010
0001
1000
0100
0010
0001
1000
0100
1000
0001
0010
0100
1000
0001
0000
,
1000
0010
1000
0010
0100
0001
0100
0001
1000
0010
0100
0001
0100
0010
1000
0000
,
0001
0010
0001
1000
0001
0000
0000
0000
1000
0010
0100
0000
0001
1000
0010
0000
,
1000
0100
0010
0001
0010
0100
1000
0001
0010
0100
1000
0100
0010
0001
1000
0000
,
0001
0100
0001
1000
0010
0100
0001
1000
0010
1000
0001
0100
0010
1000
0001
0000
,
1000
0100
1000
0100
0010
0001
0010
0001
1000
0100
0010
0001
0010
0100
1000
0000
,
0001
0100
0001
1000
0001
0000
0000
0000
1000
0010
0100
0000
0010
1000
0001
0000
,
0020
0000
0000
0030
0010
0000
0001
0000
0200
0000
0000
0300
0100
0000
0010
0000
,
1000
0000
0020
0030
0100
0000
0020
0030
1000
0000
0020
0030
0100
0000
0020
0030
,
1000
0000
0002
0003
0100
0000
0002
0003
0010
0000
0002
0003
1000
0000
0002
0003
,
0010
0000
0200
0300
1000
0000
0200
0300
0010
0000
0200
0300
1000
0000
0200
0300
,
0020
0000
0000
0030
0010
0000
0001
0000
0200
0000
0000
0300
0100
0000
0001
0000
,
1000
0000
0200
0300
0010
0000
0200
0300
1000
0000
0200
0300
0010
0000
0200
0300
,
1000
0000
0020
0030
0100
0000
0020
0030
1000
0000
0020
0030
0100
0000
0020
0030
,
1000
0000
0002
0003
0100
0000
0002
0003
0010
0000
0002
0003
0100
0000
0002
0003
,
1000
0100
0010
0001
1000
0100
1000
0001
0010
0001
1000
0100
0010
0001
1000
0004
,
4000
0000
0000
0000
0000
0000
0000
3000
,
1003
0010
0100
0001
0100
0010
1000
0001
0100
0010
1000
0010
0100
0001
1000
0004
,
4000
0000
0000
0000
0000
0000
0000
0000
0000
0000
0000
0000
0000
0000
0003
3000
,
0001
0010
0100
1000
0001
0010
0100
1000
0100
0010
0001
1000
0100
0010
0001
4000
,
0004
0000
0000
0000
0000
0000
0000
0000
0000
0000
0000
0000
0000
0000
0003
3000
,
0001
0100
0010
1000
0001
0100
0001
1000
0010
1000
0001
0100
0010
1000
0001
4000
,
0004
0000
0000
0000
0000
0000
0000
0000
0000
0000
0000
0000
0000
0000
3000
0003
,
1000
0010
1000
0000
0001
0100
0001
0000
1000
0100
1000
0000
0001
0010
0001
0000
,
0100
0000
0020
0030
0100
0000
0020
0030
0100
0000
0020
0030
0100
0000
0020
0030
,
1000
0000
0200
0300
0010
0000
0200
0300
1000
0000
0200
0300
0010
0000
0200
0300
,
1000
0000
0002
0003
0010
0000
0002
0003
0010
0000
0002
0003
0010
0000
0002
0003
,
1000
0001
1000
0000
0100
0010
0100
0000
1000
0001
1000
0000
0010
0100
0010
0000
,
1000
0000
0020
0030
1000
0000
0020
0030
1000
0000
0020
0030
1000
0000
0020
0030
,
0100
0000
0002
0003
1000
0000
0002
0003
0010
0000
0002
0003
0100
0000
0002
0003
,
1000
0000
0200
0300
1000
0000
0200
0300
1000
0000
0200
0300
1000
0000
0200
0300
,
1000
0010
0100
0001
0100
0010
1000
0001
0100
0010
1000
0010
0100
0001
1000
0000
,
0001
0010
0100
1000
0001
0010
0001
1000
0100
1000
0001
0010
0100
1000
0001
0000
,
1000
0100
0010
0001
0010
0100
1000
0001
1000
0010
0100
0001
0100
0010
1000
0000
,
0001
0010
0001
0010
0001
0000
0000
0000
1000
0010
1000
0000
0001
0100
0001
0000
,
1000
0100
0010
0001
0010
0100
1000
0001
0010
0100
1000
0100
0010
0001
1000
0000
,
0001
0100
0010
1000
0001
0100
0001
1000
0010
1000
0001
0100
0010
1000
0001
0000
,
1000
0010
0100
0001
0100
0010
1000
0001
1000
0100
0010
0001
0010
0100
1000
0000
,
0001
0100
0001
0100
0001
0000
0000
0000
1000
0100
1000
0000
0001
0010
0001
0000
,
0200
0000
0000
0300
0100
0000
0001
0000
0020
0000
0000
0030
0010
0000
0100
0000
,
1000
0000
0002
0003
0010
0000
0002
0003
1000
0000
0002
0003
0100
0000
0002
0003
,
1000
0000
0200
0300
0010
0000
0200
0300
1000
0000
0200
0300
0010
0000
0200
0300
,
1000
0000
0002
0003
0010
0000
0002
0003
1000
0000
0002
0003
0010
0000
0002
0003
,
0200
0000
0000
0300
0100
0000
0001
0000
0020
0000
0000
0030
0010
0000
0001
0000
,
1000
0000
0020
0030
0100
0000
0020
0030
1000
0000
0020
0030
0100
0000
0020
0030
,
1000
0000
0002
0003
0100
0000
0002
0003
1000
0000
0002
0003
0010
0000
0002
0003
,
1000
0000
0200
0300
0010
0000
0200
0300
1000
0000
0200
0300
0010
0000
0200
0300
,
2222
0000
0000
0000
,
0000
0000
0000
0000
,
0000
0000
0000
0000
,
0000
0000
0000
0000
,
0000
0000
0000
0000
0000
0000
0000
0000
0000
0000
0000
0000
0000
3333
0000
0000
;

//---------------dance-single - Mad Matt----------------
#NOTES:
     dance-single:
     Mad Matt:
     Hard:
     18:
     1.000,1.000,0.121,1.000,1.000,1437.000,17.000,159.000,0.000,1.000:

0000
0000
0000
0000
,
0000
0000
0000
0000
,
0000
0000
0000
0000
,
0000
0000
0000
0000
,
1000
0100
0010
0001
1000
0100
0010
0001
1000
0010
0100
0001
1000
0010
0100
0001
,
1000
0100
1000
0001
1000
0010
1000
0001
0100
0001
1000
0001
0010
0001
1000
0001
,
0100
0010
1000
0001
1000
0010
1000
0001
0100
0010
1000
0100
1000
0001
0100
0001
,
1000
0001
0010
0100
1000
0001
0010
0100
1000
0001
0100
0001
1000
0001
0010
0001
,
1000
0010
0100
0001
1000
0010
0100
0001
1000
0100
0010
0001
1000
0100
0010
0001
,
1000
0010
1000
0001
1000
0100
1000
0001
0010
0001
1000
0001
0100
0001
1000
0001
,
0010
0100
1000
0001
1000
0100
1000
0001
0010
0100
1000
0010
1000
0001
0010
0001
,
1000
0001
0100
0010
1000
0001
0100
0010
1000
0001
0010
0001
1000
0001
0100
0001
,
1000
0100
0010
0001
1000
0100
0010
0001
1000
0010
0100
0001
1000
0010
0100
0001
,
1000
0100
1000
0001
0100
0010
1000
0100
1000
0010
0100
0010
1000
0001
0100
0001
,
1000
0010
0100
0001
1000
0100
0010
0100
1000
0001
0100
0010
1000
0001
0100
0010
,
1000
0100
1000
0010
0100
0010
1000
0100
1000
0001
0010
0001
0100
0010
0100
0001
,
1000
0010
0100
0001
1000
0010
0100
0001
1000
0100
0010
0001
1000
0100
0010
0001
,
1000
0010
1000
0001
0010
0100
1000
0010
1000
0100
0010
0100
1000
0001
0010
0001
,
1000
0100
0010
0001
1000
0010
0100
0010
1000
0001
0010
0100
1000
0001
0010
0100
,
1000
0010
1000
0100
0010
0100
1000
0010
1000
0001
0100
0001
0010
0100
0010
0001
,
1000
0100
1000
0000
0001
0100
0001
0000
1000
0010
1000
0000
0001
0010
0001
0000
,
1000
0000
0020
0030
1000
0000
0020
0030
1000
0000
0020
0030
1000
0000
0020
0030
,
0100
0000
0002
0003
1000
0000
0002
0003
0100
0000
0002
0003
1000
0000
0002
0003
,
0010
0000
0200
0300
0010
0000
0200
0300
0010
0000
0200
0300
0010
0000
0200
0300
,
1000
0001
1000
0000
0100
0010
0100
0000
1000
0001
1000
0000
0010
0100
0010
0000
,
0100
0000
0002
0003
0100
0000
0002
0003
0100
0000
0002
0003
0100
0000
0002
0003
,
0010
0000
0002
0003
1000
0000
0002
0003
0010
0000
0002
0003
0100
0000
0002
0003
,
1000
0000
0020
0030
1000
0000
0020
0030
1000
0000
0020
0030
1000
0000
0020
0030
,
1000
0100
0010
0001
1000
0100
0010
0001
1000
0010
0100
0010
1000
0001
0100
0010
,
1000
0001
0010
0100
1000
0001
0010
0100
1000
0001
0100
0010
1000
0001
0100
0001
,
1000
0100
1000
0001
0100
0010
1000
0001
1000
0100
0010
0001
0010
0100
1000
0001
,
0100
0010
1000
0001
0100
0000
0000
0000
0001
1000
0010
0000
1000
0001
0010
0000
,
0001
0100
0010
1000
0001
0100
0010
1000
0001
0010
0100
0010
0001
1000
0100
0010
,
0001
1000
0010
0100
0001
1000
0010
0100
0001
1000
0100
0010
0001
1000
0100
1000
,
0001
0100
0001
1000
0100
0010
0001
1000
0001
0100
0010
1000
0010
0100
0001
1000
,
0100
0010
0001
1000
0100
0000
0000
0000
1000
0001
0010
0000
0001
1000
0010
0000
,
4000
0004
0000
0000
0000
0000
0000
0000
0000
0000
0000
0000
0000
0000
0000
0000
,
0000
0000
0000
0000
,
0000
0000
0000
0000
,
0000
0000
0000
0000
0000
0000
0003
3000
,
0020
0000
0000
0030
0010
0000
1000
0000
0200
0000
0000
0300
0100
0000
0010
0000
,
0001
0000
0200
0300
0010
0000
0200
0300
0001
0000
0200
0300
0010
0000
0200
0300
,
0001
0000
2000
3000
0100
0000
2000
3000
0001
0000
2000
3000
0010
0000
2000
3000
,
0100
0000
0020
0030
0001
0000
0020
0030
0100
0000
0020
0030
0001
0000
0020
0030
,
0200
0000
0000
0300
0100
0000
1000
0000
0020
0000
0000
0030
0010
0000
1000
0000
,
0100
0000
0020
0030
0001
0000
0020
0030
0100
0000
0020
0030
0001
0000
0020
0030
,
0100
0000
2000
3000
0001
0000
2000
3000
0010
0000
2000
3000
0100
0000
2000
3000
,
0010
0000
0200
0300
0001
0000
0200
0300
0010
0000
0200
0300
0001
0000
0200
0300
,
0011
0000
1100
0001
0100
0010
1000
0010
,
1100
0000
0011
1000
0010
1000
0001
0100
,
0011
0000
1100
0001
0010
0100
0010
0001
,
1010
0000
0101
1000
0100
0010
0001
1000
,
0101
0000
1010
0001
0100
0010
1000
0010
,
1100
0000
0011
1000
0100
0010
0001
1000
,
0101
0000
1010
0001
0010
0100
1000
0001
,
1010
0000
0101
1000
0010
0100
0001
1000
,
0001
0010
0100
1000
0001
0010
0100
1000
0001
0100
0010
0100
0001
1000
0010
0100
,
0001
1000
0100
0010
0001
1000
0100
0010
0001
1000
0010
0100
0001
1000
0010
1000
,
0001
0010
0001
1000
0010
0100
0001
1000
0001
0010
0100
1000
0100
0010
0001
1000
,
0010
0100
0001
1000
0010
0000
0000
0000
1000
0001
0100
0000
0001
1000
0100
0000
,
1000
0010
0100
0001
1000
0010
0100
0001
1000
0100
0010
0100
1000
0001
0010
0100
,
1000
0001
0100
0010
1000
0001
0100
0010
1000
0001
0010
0100
1000
0001
0010
0001
,
1000
0010
1000
0001
0010
0100
1000
0001
1000
0010
0100
0001
0100
0010
1000
0001
,
0010
0100
1000
0001
0010
0000
0000
0000
0001
1000
0010
0000
1000
0001
0100
0000
,
0001
0010
0100
1000
0001
0010
0100
1000
0001
0100
0010
1000
0001
0100
0010
1000
,
0001
1000
0100
1000
0001
0100
0010
0100
0001
1000
0010
1000
0001
0100
0010
0100
,
0001
1000
0100
0010
0001
1000
0001
0100
0001
1000
0100
1000
0001
1000
0010
0100
,
0001
1000
0100
0010
0100
1000
0001
0010
0100
1000
0001
1000
0010
0100
0010
1000
,
0001
0100
0010
1000
0001
0100
0010
1000
0001
0010
0100
1000
0001
0010
0100
1000
,
0001
1000
0010
1000
0001
0010
0100
0010
0001
1000
0100
1000
0001
0010
0100
0010
,
0001
1000
0010
0100
0001
1000
0001
0010
0001
1000
0010
1000
0001
1000
0100
0010
,
0001
1000
0010
0100
0010
1000
0001
0100
0010
1000
0001
1000
0100
0010
0100
1000
,
0001
0010
0001
0000
1000
0100
1000
0000
0001
0100
0001
0000
1000
0010
1000
0000
,
0001
0000
0200
0300
0001
0000
0200
0300
0001
0000
0200
0300
0001
0000
0200
0300
,
0010
0000
2000
3000
0100
0000
2000
3000
0001
0000
2000
3000
0010
0000
2000
3000
,
0001
0000
0020
0030
0001
0000
0020
0030
0001
0000
0020
0030
0001
0000
0020
0030
,
0001
1000
0001
0000
0100
0010
0100
0000
0001
1000
0001
0000
0010
0100
0010
0000
,
0100
0000
0020
0030
0100
0000
0020
0030
0100
0000
0020
0030
0100
0000
0020
0030
,
0001
0000
0200
0300
0010
0000
0200
0300
0001
0000
0200
0300
0010
0000
0200
0300
,
0001
0000
2000
3000
0010
0000
2000
3000
0010
0000
2000
3000
0010
0000
2000
3000
,
0001
0100
0010
1000
0001
0100
0010
1000
0001
1000
0100
0010
0001
1000
0001
0100
,
0001
1000
0010
0100
0001
1000
0010
0100
0001
1000
0100
1000
0001
0010
0100
1000
,
0001
0100
0001
1000
0100
0010
0001
1000
0001
0010
0100
1000
0001
0010
0100
1000
,
0001
1000
0010
0100
0001
0000
0000
0000
1000
0001
0010
0000
0001
1000
0010
0000
,
1000
0100
0010
0001
1000
0100
0010
0001
1000
0001
0100
0010
1000
0001
1000
0100
,
1000
0001
0010
0100
1000
0001
0010
0100
1000
0001
0100
0001
1000
0010
0100
0001
,
1000
0100
1000
0001
0100
0010
1000
0001
1000
0010
0100
0001
1000
0010
0100
0001
,
1000
0001
0010
0100
1000
0000
0000
0000
0001
1000
0010
0000
1000
0001
0100
0000
,
0020
0000
0000
0030
0010
0000
1000
0000
0200
0000
0000
0300
0100
0000
0010
0000
,
0001
0000
0020
0030
0100
0000
0020
0030
0001
0000
0020
0030
0100
0000
0020
0030
,
0001
0000
2000
3000
0100
0000
2000
3000
0010
0000
2000
3000
0001
0000
2000
3000
,
0010
0000
0200
0300
0001
0000
0200
0300
0010
0000
0200
0300
0001
0000
0200
0300
,
0020
0000
0000
0030
0010
0000
1000
0000
0200
0000
0000
0300
0100
0000
1000
0000
,
0001
0000
0200
0300
0010
0000
0200
0300
0001
0000
0200
0300
0010
0000
0200
0300
,
0001
0000
0020
0030
0100
0000
0020
0030
0001
0000
0020
0030
0100
0000
0020
0030
,
0001
0000
2000
3000
0100
0000
2000
3000
0010
0000
2000
3000
0100
0000
2000
3000
,
0001
0100
0010
1000
0001
0100
0001
1000
0010
0100
0010
1000
0001
1000
0100
1000
,
0001
0100
0010
0100
0001
1000
0010
1000
0001
1000
0100
0010
0001
1000
0100
0010
,
0100
1000
0001
0010
0100
1000
0001
1000
0010
0100
0010
1000
0001
0100
0010
1000
,
0001
1000
0100
1000
0001
0010
0100
1000
0001
0010
0100
1000
0001
1000
0010
1000
,
0001
0010
0100
1000
0001
0010
0001
1000
0100
0010
0100
1000
0001
0100
0001
1000
,
0001
0010
0100
0010
0001
1000
0100
1000
0001
1000
0010
0100
0001
1000
0010
0100
,
0010
1000
0001
0100
0010
1000
0001
1000
0100
0010
0100
1000
0001
0010
0100
1000
,
0001
1000
0010
1000
0001
0100
0010
1000
0001
0100
0010
1000
0001
1000
0100
1000
,
0001
0010
0001
0000
1000
0100
1000
0000
0001
0100
0001
0000
1000
0010
1000
0000
,
0100
0000
0020
0030
0100
0000
0020
0030
0100
0000
0020
0030
0100
0000
0020
0030
,
0001
0000
0200
0300
0010
0000
0200
0300
0001
0000
0200
0300
0010
0000
0200
0300
,
0001
0000
2000
3000
0010
0000
2000
3000
0010
0000
2000
3000
0010
0000
2000
3000
,
0001
1000
0001
0000
0100
0010
0100
0000
0001
1000
0001
0000
0010
0100
0010
0000
,
0001
0000
0020
0030
0001
0000
0020
0030
0001
0000
0020
0030
0001
0000
0020
0030
,
0100
0000
2000
3000
0001
0000
2000
3000
0010
0000
2000
3000
0100
0000
2000
3000
,
0001
0000
0200
0300
0001
0000
0200
0300
0001
0000
0200
0300
0001
0000
0200
0300
,
0001
0010
0100
1000
0001
0010
0100
1000
0001
0100
0001
1000
0001
0010
0100
1000
,
0001
1000
0100
0010
0001
1000
0100
0010
0001
1000
0001
0100
0010
0100
0001
1000
,
0100
1000
0001
0100
0010
1000
0001
0100
0010
1000
0001
0010
0001
1000
0001
0100
,
0010
1000
0001
1000
0100
0000
0000
0000
1000
0100
1000
0000
0001
0100
0001
0000
,
1000
0010
0100
0001
1000
0010
0100
0001
1000
0100
1000
0001
1000
0010
0100
0001
,
1000
0001
0100
0010
1000
0001
0100
0010
1000
0001
1000
0100
1000
0001
0100
0010
,
0100
0001
1000
0100
0010
0001
1000
0100
0010
0001
1000
0001
0100
0001
1000
0100
,
0010
0001
1000
0001
0100
0000
0000
0000
0001
0100
0001
0000
1000
0100
1000
0000
,
0200
0000
0000
0300
0100
0000
1000
0000
0020
0000
0000
0030
0010
0000
0100
0000
,
0001
0000
2000
3000
0010
0000
2000
3000
0001
0000
2000
3000
0100
0000
2000
3000
,
0001
0000
0200
0300
0010
0000
0200
0300
0001
0000
0200
0300
0010
0000
0200
0300
,
0001
0000
2000
3000
0010
0000
2000
3000
0001
0000
2000
3000
0010
0000
2000
3000
,
0200
0000
0000
0300
0100
0000
1000
0000
0020
0000
0000
0030
0010
0000
1000
0000
,
0001
0000
0020
0030
0100
0000
0020
0030
0001
0000
0020
0030
0100
0000
0020
0030
,
0001
0000
2000
3000
0100
0000
2000
3000
0001
0000
2000
3000
0010
0000
2000
3000
,
0001
0000
0200
0300
0010
0000
0200
0300
0001
0000
0200
0300
0010
0000
0200
0300
,
2022
0000
0000
0000
,
0000
0000
0000
0000
,
0000
0000
0000
0000
,
0000
0000
0000
0000
,
0000
0000
0000
0000
0000
0000
0000
0000
0000
0000
0000
0000
0000
3033
0000
0000
;

//---------------dance-single - Mad Matt----------------
#NOTES:
     dance-single:
     Mad Matt:
     Challenge:
     19:
     1.000,1.000,0.121,1.000,1.000,1437.000,17.000,159.000,0.000,1.000:



0000
0000
0000
0000
,
0000
0000
0000
0000
,
0000
0000
0000
0000
,
0000
0000
0000
0000
,
1000
0100
0010
0001
1000
0100
0010
0001
1000
0010
0100
0001
1000
0010
0100
0001
,
1000
0100
1000
0001
1000
0010
1000
0001
0100
0001
1000
0001
0010
0001
1000
0001
,
0100
0010
1000
0001
1000
0010
1000
0001
0100
0010
1000
0100
1000
0001
0100
0001
,
1000
0001
0010
0100
1000
0001
0010
0100
1000
0001
0100
0001
1000
0001
0010
0001
,
1000
0010
0100
0001
1000
0010
0100
0001
1000
0100
0010
0001
1000
0100
0010
0001
,
1000
0010
1000
0001
1000
0100
1000
0001
0010
0001
1000
0001
0100
0001
1000
0001
,
0010
0100
1000
0001
1000
0100
1000
0001
0010
0100
1000
0010
1000
0001
0010
0001
,
1000
0001
0100
0010
1000
0001
0100
0010
1000
0001
0010
0001
1000
0001
0100
0001
,
1000
0100
0010
0001
1000
0100
0010
0001
1000
0010
0100
0001
1000
0010
0100
0001
,
1000
0100
1000
0001
0100
0010
1000
0100
1000
0010
0100
0010
1000
0001
0100
0001
,
1000
0010
0100
0001
1000
0100
0010
0100
1000
0001
0100
0010
1000
0001
0100
0010
,
1000
0100
1000
0010
0100
0010
1000
0100
1000
0001
0010
0001
0100
0010
0100
0001
,
1000
0010
0100
0001
1000
0010
0100
0001
1000
0100
0010
0001
1000
0100
0010
0001
,
1000
0010
1000
0001
0010
0100
1000
0010
1000
0100
0010
0100
1000
0001
0010
0001
,
1000
0100
0010
0001
1000
0010
0100
0010
1000
0001
0010
0100
1000
0001
0010
0100
,
1000
0010
1000
0100
0010
0100
1000
0010
1000
0001
0100
0001
0010
0100
0010
0001
,
1000
0100
1000
0000
0001
0100
0001
0000
1000
0010
1000
0000
0001
0010
0001
0000
,
1000
0000
0020
0030
1000
0000
0020
0030
1000
0000
0020
0030
1000
0000
0020
0030
,
0100
0000
0002
0003
1000
0000
0002
0003
0100
0000
0002
0003
1000
0000
0002
0003
,
0010
0000
0200
0300
0010
0000
0200
0300
0010
0000
0200
0300
0010
0000
0200
0300
,
1000
0001
1000
0000
0100
0010
0100
0000
1000
0001
1000
0000
0010
0100
0010
0000
,
0100
0000
0002
0003
0100
0000
0002
0003
0100
0000
0002
0003
0100
0000
0002
0003
,
0010
0000
0002
0003
1000
0000
0002
0003
0010
0000
0002
0003
0100
0000
0002
0003
,
1000
0000
0020
0030
1000
0000
0020
0030
1000
0000
0020
0030
1000
0000
0020
0030
,
1000
0100
0010
0001
1000
0100
0010
0001
1000
0010
0100
0010
1000
0001
0100
0010
,
1000
0001
0010
0100
1000
0001
0010
0100
1000
0001
0100
0010
1000
0001
0100
0001
,
1000
0100
1000
0001
0100
0010
1000
0001
1000
0100
0010
0001
0010
0100
1000
0001
,
0100
0010
1000
0001
0100
0000
0000
0000
0001
1000
0010
0000
1000
0001
0010
0000
,
0001
0100
0010
1000
0001
0100
0010
1000
0001
0010
0100
0010
0001
1000
0100
0010
,
0001
1000
0010
0100
0001
1000
0010
0100
0001
1000
0100
0010
0001
1000
0100
1000
,
0001
0100
0001
1000
0100
0010
0001
1000
0001
0100
0010
1000
0010
0100
0001
1000
,
0100
0010
0001
1000
0100
0000
0000
0000
1000
0001
0010
0000
0001
1000
0010
0000
,
4000
0004
0000
0000
0000
0000
0000
0000
0000
0000
0000
0000
0000
0000
0000
0000
,
0000
0000
0000
0000
,
0000
0000
0000
0000
,
0000
0000
0000
0000
0000
0000
0003
3000
,
0020
0000
0000
0030
0010
0000
1000
0000
0200
0000
0000
0300
0100
0000
0010
0000
,
0001
0000
0200
0300
0010
0000
0200
0300
0001
0000
0200
0300
0010
0000
0200
0300
,
0001
0000
2000
3000
0100
0000
2000
3000
0001
0000
2000
3000
0010
0000
2000
3000
,
0100
0000
0020
0030
0001
0000
0020
0030
0100
0000
0020
0030
0001
0000
0020
0030
,
0200
0000
0000
0300
0100
0000
1000
0000
0020
0000
0000
0030
0010
0000
1000
0000
,
0100
0000
0020
0030
0001
0000
0020
0030
0100
0000
0020
0030
0001
0000
0020
0030
,
0100
0000
2000
3000
0001
0000
2000
3000
0010
0000
2000
3000
0100
0000
2000
3000
,
0010
0000
0200
0300
0001
0000
0200
0300
0010
0000
0200
0300
0001
0000
0200
0300
,
0011
0000
1100
0001
0100
0010
1000
0010
,
1100
0000
0011
1000
0010
1000
0001
0100
,
0011
0000
1100
0001
0010
0100
0010
0001
,
1010
0000
0101
1000
0100
0010
0001
1000
,
0101
0000
1010
0001
0100
0010
1000
0010
,
1100
0000
0011
1000
0100
0010
0001
1000
,
0101
0000
1010
0001
0010
0100
1000
0001
,
1010
0000
0101
1000
0010
0100
0001
1000
,
0001
0010
0100
1000
0001
0010
0100
1000
0001
0100
0010
0100
0001
1000
0010
0100
,
0001
1000
0100
0010
0001
1000
0100
0010
0001
1000
0010
0100
0001
1000
0010
1000
,
0001
0010
0001
1000
0010
0100
0001
1000
0001
0010
0100
1000
0100
0010
0001
1000
,
0010
0100
0001
1000
0010
0000
0000
0000
1000
0001
0100
0000
0001
1000
0100
0000
,
1000
0010
0100
0001
1000
0010
0100
0001
1000
0100
0010
0100
1000
0001
0010
0100
,
1000
0001
0100
0010
1000
0001
0100
0010
1000
0001
0010
0100
1000
0001
0010
0001
,
1000
0010
1000
0001
0010
0100
1000
0001
1000
0010
0100
0001
0100
0010
1000
0001
,
0010
0100
1000
0001
0010
0000
0000
0000
0001
1000
0010
0000
1000
0001
0100
0000
,
0001
0010
0100
1000
0001
0010
0100
1000
0001
0100
0010
1000
0001
0100
0010
1000
,
0001
1000
0100
1000
0001
0100
0010
0100
0001
1000
0100
1000
0001
0100
0010
0100
,
0001
1000
0100
0010
0001
1000
0001
0100
0001
1000
0100
1000
0001
1000
0010
0100
,
0001
1000
0100
0010
0100
1000
0001
0100
0010
1000
0001
1000
0100
0010
0100
1000
,
0001
0100
0010
1000
0001
0100
0010
1000
0001
0010
0100
1000
0001
0010
0100
1000
,
0001
1000
0010
1000
0001
0010
0100
0010
0001
1000
0010
1000
0001
0010
0100
0010
,
0001
1000
0010
0100
0001
1000
0001
0010
0001
1000
0010
1000
0001
1000
0100
0010
,
0001
1000
0010
0100
0010
1000
0001
0010
0100
1000
0001
1000
0010
0100
0010
1000
,
0001
0010
0001
0000
1000
0100
1000
0000
0001
0100
0001
0000
1000
0010
1000
0000
,
0001
0000
0200
0300
0001
0000
0200
0300
0001
0000
0200
0300
0001
0000
0200
0300
,
0010
0000
2000
3000
0100
0000
2000
3000
0001
0000
2000
3000
0010
0000
2000
3000
,
0001
0000
0020
0030
0001
0000
0020
0030
0001
0000
0020
0030
0001
0000
0020
0030
,
0001
1000
0001
0000
0100
0010
0100
0000
0001
1000
0001
0000
0010
0100
0010
0000
,
0100
0000
0020
0030
0100
0000
0020
0030
0100
0000
0020
0030
0100
0000
0020
0030
,
0001
0000
0200
0300
0010
0000
0200
0300
0001
0000
0200
0300
0010
0000
0200
0300
,
0001
0000
2000
3000
0010
0000
2000
3000
0010
0000
2000
3000
0010
0000
2000
3000
,
0001
0100
0010
1000
0001
0100
0010
1000
0001
0010
0100
0010
0001
1000
0100
0010
,
0001
1000
0010
0100
0001
1000
0010
0100
0001
1000
0100
0010
0001
1000
0100
1000
,
0001
0100
0001
1000
0100
0010
0001
1000
0001
0100
0010
1000
0010
0100
0001
1000
,
0100
0010
0001
1000
0100
0000
0000
0000
1000
0001
0010
0000
0001
1000
0010
0000
,
1000
0100
0010
0001
1000
0100
0010
0001
1000
0010
0100
0010
1000
0001
0100
0010
,
1000
0001
0010
0100
1000
0001
0010
0100
1000
0001
0100
0010
1000
0001
0100
0001
,
1000
0100
1000
0001
0100
0010
1000
0001
1000
0100
0010
0001
0010
0100
1000
0001
,
0100
0010
1000
0001
0100
0000
0000
0000
0001
1000
0010
0000
1000
0001
0100
0000
,
0020
0000
0000
0030
0010
0000
1000
0000
0200
0000
0000
0300
0100
0000
0010
0000
,
0001
0000
0020
0030
0100
0000
0020
0030
0001
0000
0020
0030
0100
0000
0020
0030
,
0001
0000
2000
3000
0100
0000
2000
3000
0010
0000
2000
3000
0001
0000
2000
3000
,
0010
0000
0200
0300
0001
0000
0200
0300
0010
0000
0200
0300
0001
0000
0200
0300
,
0020
0000
0000
0030
0010
0000
1000
0000
0200
0000
0000
0300
0100
0000
1000
0000
,
0001
0000
0200
0300
0010
0000
0200
0300
0001
0000
0200
0300
0010
0000
0200
0300
,
0001
0000
0020
0030
0100
0000
0020
0030
0001
0000
0020
0030
0100
0000
0020
0030
,
0001
0000
2000
3000
0100
0000
2000
3000
0010
0000
2000
3000
0100
0000
2000
3000
,
0001
0100
0010
1000
0001
0100
0010
1000
0001
0010
0100
1000
0001
0010
0100
1000
,
0001
1000
0010
1000
0001
0010
0100
0010
0001
1000
0010
1000
0001
0010
0100
0010
,
0001
1000
0010
0100
0001
1000
0001
0010
0001
1000
0010
1000
0001
1000
0100
0010
,
0001
1000
0010
0100
0010
1000
0001
0010
0100
1000
0001
1000
0010
0100
0010
1000
,
0001
0010
0100
1000
0001
0010
0100
1000
0001
0100
0010
1000
0001
0100
0010
1000
,
0001
1000
0100
1000
0001
0100
0010
0100
0001
1000
0100
1000
0001
0100
0010
0100
,
0001
1000
0100
0010
0001
1000
0001
0100
0001
1000
0100
1000
0001
1000
0010
0100
,
0001
1000
0100
0010
0100
1000
0001
0100
0010
1000
0001
1000
0100
0010
0100
1000
,
0001
0100
0001
0000
1000
0100
1000
0000
0001
0010
0001
0000
1000
0010
1000
0000
,
0100
0000
0020
0030
0100
0000
0020
0030
0100
0000
0020
0030
0100
0000
0020
0030
,
0001
0000
0200
0300
0010
0000
0200
0300
0001
0000
0200
0300
0010
0000
0200
0300
,
0001
0000
2000
3000
0010
0000
2000
3000
0010
0000
2000
3000
0010
0000
2000
3000
,
0001
1000
0001
0000
0100
0010
0100
0000
0001
1000
0001
0000
0010
0100
0010
0000
,
0001
0000
0020
0030
0001
0000
0020
0030
0001
0000
0020
0030
0001
0000
0020
0030
,
0100
0000
2000
3000
0001
0000
2000
3000
0010
0000
2000
3000
0100
0000
2000
3000
,
0001
0000
0200
0300
0001
0000
0200
0300
0001
0000
0200
0300
0001
0000
0200
0300
,
0001
0010
0100
1000
0001
0010
0100
1000
0001
0100
0010
0100
0001
1000
0010
0100
,
0001
1000
0100
0010
0001
1000
0100
0010
0001
1000
0010
0100
0010
1000
0001
0100
,
0001
1000
0100
0010
0001
1000
0100
0010
0100
1000
0001
1000
0010
0100
0001
1000
,
0010
0100
0001
1000
0100
0000
0000
0000
1000
0100
1000
0000
0001
0100
0001
0000
,
1000
0010
0100
0001
1000
0010
0100
0001
1000
0100
0010
0100
1000
0001
0010
0100
,
1000
0001
0100
0010
1000
0001
0100
0010
1000
0001
0010
0100
0010
0001
1000
0100
,
1000
0001
0100
0010
1000
0001
0100
0010
0100
0001
1000
0001
0010
0100
1000
0001
,
0010
0100
1000
0001
0100
0000
0000
0000
0001
0100
0001
0000
1000
0100
1000
0000
,
0200
0000
0000
0300
0100
0000
1000
0000
0020
0000
0000
0030
0010
0000
0100
0000
,
0001
0000
2000
3000
0010
0000
2000
3000
0001
0000
2000
3000
0100
0000
2000
3000
,
0001
0000
0200
0300
0010
0000
0200
0300
0001
0000
0200
0300
0010
0000
0200
0300
,
0001
0000
2000
3000
0010
0000
2000
3000
0001
0000
2000
3000
0010
0000
2000
3000
,
0200
0000
0000
0300
0100
0000
1000
0000
0020
0000
0000
0030
0010
0000
1000
0000
,
0001
0000
0020
0030
0100
0000
0020
0030
0001
0000
0020
0030
0100
0000
0020
0030
,
0001
0000
2000
3000
0100
0000
2000
3000
0001
0000
2000
3000
0010
0000
2000
3000
,
0001
0000
0200
0300
0010
0000
0200
0300
0001
0000
0200
0300
0010
0000
0200
0300
,
2022
0000
0000
0000
,
0000
0000
0000
0000
,
0000
0000
0000
0000
,
0000
0000
0000
0000
,
0000
0000
0000
0000
0000
0000
0000
0000
0000
0000
0000
0000
0000
3033
0000
0000
;
