#TITLE:Crank It Up!!;
#SUBTITLE:;
#ARTIST:Happy Hardcore;
#TITLETRANSLIT:;
#SUBTITLETRANSLIT:;
#ARTISTTRANSLIT:;
#CREDIT:;
#BANNER:Crank It Up!!.png;
#BACKGROUND:Crank It Up!!-bg.png;
#LYRICSPATH:;
#CDTITLE:cdtitle.PNG;
#MUSIC:Crank It Up!!.mp3;
#OFFSET:-0.200;
#SAMPLESTART:30.457;
#SAMPLELENGTH:12.000;
#SELECTABLE:YES;
#BPMS:0.000=195.200;
#STOPS:256.000=2.160
,285.000=0.960
;
#BGCHANGES:;
// cache tags:
#FIRSTBEAT:0.000;
#LASTBEAT:450.000;
#SONGFILENAME:Songs/new/Crank It Up!!/Crank It Up!!.sm;
#HASMUSIC:1;
#HASBANNER:1;
#MUSICLENGTH:143.916;
// end cache tags

//---------------dance-single - ----------------
#NOTES:
     dance-single:
     :
     Hard:
     9:
     0.808,0.782,0.104,0.500,0.045,727.000,15.000,72.000,0.000,0.000:
1000
1000
0001
0001
,
0100
0100
0010
0010
,
1000
1000
0001
0001
,
1000
0000
1000
0000
0010
0000
0010
0100
,
1000
0100
1000
0010
1000
0100
1000
0000
,
0001
0100
0001
0010
0001
0100
0001
0000
,
1000
0001
1000
0100
1000
0001
0010
0100
,
1000
0010
1000
0100
0000
0010
1000
0100
,
0010
1000
0010
0100
0010
1000
0010
0000
,
1000
0100
0010
1000
0100
0010
0100
0000
,
0010
1000
0010
0100
0010
1000
0010
0000
,
1000
0010
0100
0001
1000
0010
1000
0010
,
0100
1000
0010
0100
0001
1000
0010
0100
,
0001
1000
0010
0100
0001
1000
0010
0000
,
1000
0100
0010
0001
0010
0100
1000
0100
,
0010
0001
0010
0100
0000
1000
0100
0010
,
0001
0000
1000
0000
0001
1000
0001
0000
1000
0000
0001
0000
1000
0000
0010
0000
,
0100
0000
0010
0000
0100
0000
0010
0000
0100
0010
0100
0000
0100
0010
0100
0000
,
1000
0100
0010
0001
1000
0100
0010
0001
,
1000
0100
0010
0001
1000
0100
0010
0100
,
1000
0000
0100
0000
0010
0001
0010
0000
0100
0000
1000
0000
0010
0000
0100
0000
,
0010
0000
0001
0000
0010
0000
0001
0000
0010
0100
0010
0000
0010
0100
0010
0000
,
1000
0010
0100
0001
0100
0010
1000
0100
,
0010
0100
0010
1000
0000
1000
0010
0100
,
0010
0000
0100
0000
1000
0100
1000
0000
0100
0000
0010
0000
0001
0000
1000
0000
,
0100
0000
0010
0000
0001
0000
0010
0000
0100
0010
0100
0000
0100
0010
0100
0000
,
0001
0010
0100
1000
0001
0010
0100
1000
,
0010
0100
0001
1000
0010
0100
0001
1000
,
0010
0000
0100
0000
1000
0100
1000
0000
0010
0000
0100
0000
0001
0000
1000
0000
,
0010
0000
0100
0000
0010
0000
1000
0000
0100
0010
0100
0000
0100
0010
0100
0000
,
0001
0010
0100
0001
0100
0010
0100
0010
,
1000
0100
0010
0100
0000
1000
0010
0100
,
0020
0000
2030
3200
0000
0320
0000
2030
,
3200
0320
2030
0000
,
3200
0000
0302
0023
0000
0230
0000
0302
,
0023
0230
0302
0000
,
0023
0000
0230
0320
0000
2030
0000
3200
,
0320
2030
3002
0000
,
0023
0000
2030
3002
0000
0203
0000
2300
,
3002
0203
2300
3002
,
0203
0000
0320
2030
0000
3200
0000
0320
,
2030
3020
2030
0000
,
3200
0000
0302
2003
0000
3020
0000
0032
,
2003
3020
2030
0000
,
3200
0000
0302
0023
0000
2030
0000
3002
,
0023
2030
3002
0000
,
0023
0000
0230
0320
0000
2030
0000
3200
,
0320
2030
3002
2003
,
3001
0010
0100
1000
0001
0010
0100
1000
,
0001
0010
0100
1000
0001
0000
0110
0000
,
1000
0100
0010
0001
1000
0100
0010
0001
,
1000
0100
0010
0001
1000
0100
0010
0001
,
1000
0010
0100
0001
1000
0010
0100
0001
,
1000
0010
0100
0001
1000
0000
0110
0000
,
0001
0100
0010
1000
0001
0100
0010
1000
,
0001
0100
0010
1000
0000
0100
0001
1000
,
0100
1000
0100
0001
0100
1000
0100
0001
,
0100
1000
0100
0001
1000
0000
1001
0000
,
0001
0010
1000
0010
0001
0010
1000
0010
,
0001
0010
1000
0010
0001
0010
0100
1000
,
0001
0100
0010
1000
0010
0100
0001
0100
,
0010
1000
0010
0100
1000
0000
0110
0000
,
0001
0010
0001
1000
0100
1000
0001
0010
,
0001
1000
0100
1000
0000
0001
0100
0001
,
0020
0000
0030
0000
0000
0000
1000
0000
0000
0000
0000
0000
0010
0000
0000
0100
0000
0000
0000
0000
0000
1000
0000
0000
,
0000
0010
0100
0000
1000
0000
0001
0000
,
0110
0000
1000
0000
0010
1000
0000
0100
,
0000
0010
1000
0000
0100
0000
0001
0000
,
0110
0000
1000
0000
0001
0100
0000
1000
,
0000
0001
0100
0000
1000
0000
0100
0000
,
1010
0000
0100
0000
0010
1000
0000
0000
,
0000
0010
0200
0300
1000
0100
0010
0100
,
0010
0001
1000
0100
0010
0100
0010
0001
,
0101
0000
0101
0000
0001
0010
0100
0010
,
0100
1000
0001
0010
0100
0010
0100
1000
,
1010
0000
1010
0000
0100
0001
1000
0010
,
0100
0001
1000
0010
0100
0001
1000
0010
,
0101
0000
1010
0000
1000
0010
0010
0010
,
1000
0010
0010
0010
0100
0100
0100
0100
,
0100
0000
0100
0000
0100
0010
0100
0000
1000
0000
0010
0000
0100
0000
0001
0000
,
0100
0010
1000
0100
0010
0001
1000
0100
,
0010
0001
1000
0010
0100
0010
1000
0001
,
0010
0100
1000
0001
0010
0100
1000
0010
,
0100
0001
1000
0010
1000
0001
0100
0010
,
1000
0100
0010
0001
0010
0100
1000
0001
,
0100
0001
0100
0010
1000
0100
0010
0001
,
0100
0010
1000
0010
1000
0100
1000
0010
,
1000
0100
1000
0001
1000
0010
1000
0000
,
0001
0100
0001
0000
1000
0001
1000
0000
,
0100
0010
0100
0000
1000
0100
1000
0000
,
0001
0100
0001
0000
1000
0100
1000
0000
,
0001
0010
0001
0000
1000
0100
0010
0000
,
0001
0010
0100
0000
1000
0100
0001
0000
,
0001
0100
1000
0000
0001
0010
1000
0000
,
1000
0010
0001
0000
2002
0000
0000
0000
,
0000
0000
0000
3003
1000
0000
0010
1000
,
0000
0100
0000
0010
1000
0000
0100
0000
,
1000
0000
0001
0000
1000
0000
0001
1000
,
0000
0100
0000
0001
1000
0000
0001
0000
,
1000
0000
0100
0000
0001
0000
0100
0001
,
0000
0010
0000
0100
0001
0000
1000
0000
,
0001
0000
0010
0000
1000
0000
0100
0001
,
0000
0010
0000
0100
0001
0000
0010
0000
,
1000
0000
0100
0000
1000
0100
0010
0100
,
0010
0001
1000
0100
0010
0100
0010
0001
,
0010
0100
0010
1000
0001
0100
0010
1000
,
0001
0100
0010
1000
0010
1000
0010
0100
,
0001
0010
1000
0100
0010
0001
0100
0010
,
0001
0100
0010
1000
0010
0100
0001
0100
,
0010
1000
0010
0100
0001
0010
0100
1000
,
0010
0100
0001
0010
0100
1000
0100
0010
,
0100
0010
1000
0001
0220
0000
0000
0000
,
0000
0000
0330
0000
;
