#TITLE:Mashed;
#SUBTITLE:;
#ARTIST:odaxelagnia;
#TITLETRANSLIT:;
#SUBTITLETRANSLIT:;
#ARTISTTRANSLIT:;
#CREDIT:;
#BANNER:mashed bn.png;
#BACKGROUND:mashed bg.png;
#LYRICSPATH:;
#CDTITLE:;
#MUSIC:Mashed.ogg;
#OFFSET:0.007;
#SAMPLESTART:42.646;
#SAMPLELENGTH:12.000;
#SELECTABLE:YES;
#BPMS:0.000=225.000;
#STOPS:;
#BGCHANGES:;
// cache tags:
#FIRSTBEAT:32.000;
#LASTBEAT:487.500;
#SONGFILENAME:Songs/SPEEEDCOOOORE 3/Mashed - [Garrett & Aoreo]/Mashed.sm;
#HASMUSIC:1;
#HASBANNER:1;
#MUSICLENGTH:130.133;
// end cache tags

//---------------dance-single - G. Moese & J. Nero----------------
#NOTES:
     dance-single:
     G. Moese & J. Nero:
     Challenge:
     15:
     1.000,1.000,0.200,0.223,1.000,1041.000,26.000,29.000,26.000,0.000:
0000
0000
0000
0000
,
0000
0000
0000
0000
,
0000
0000
0000
0000
,
0000
0000
0000
0000
,
0000
0000
0000
0000
,
0000
0000
0000
0000
,
0000
0000
0000
0000
,
0000
0000
0000
0000
,
1000
0000
0001
0000
0100
0000
0010
1000
0001
0100
0001
0100
0010
1000
0001
0000
,
1000
0000
1000
0000
0100
0000
0010
0001
1000
0100
1000
0100
0010
0001
1000
0000
,
0001
0000
0001
0000
0100
0000
0010
1000
0010
0100
0010
1000
0001
0100
0001
0000
,
0100
0100
0100
0100
0001
0001
0001
0001
,
1000
0000
1000
0000
0010
0000
0100
0001
1000
0100
1000
0001
0010
0100
1000
0000
,
0001
0000
0001
0000
0010
0000
0100
1000
0001
1000
0010
0100
0001
1000
0010
1000
,
0100
0100
1000
0010
0100
0001
1000
0000
,
0001
0000
1000
0000
0010
0100
0010
0000
1000
0000
0100
0010
0100
0000
1000
0000
,
0010
0000
0010
0000
0100
0000
0001
0100
0010
0100
0001
0100
0010
1000
0001
0000
,
1000
0000
1000
0000
0010
0000
0100
0010
1000
0010
0100
0001
1000
0010
0100
0000
,
0001
0000
0001
0000
0010
0000
0100
1000
0001
0010
0001
1000
0100
0010
0001
0000
,
0100
0100
0010
1000
0M02
00M3
0M00
0000
,
1000
0000
1000
0000
0010
0000
0100
0010
1000
0001
0100
0010
0100
0001
1000
0000
,
0100
0000
0100
0000
0010
0000
0001
1000
0010
1000
0001
0010
0100
1000
0001
0000
,
0100
0000
0100
0000
0010
0000
1000
0010
0100
0010
1000
0001
0100
0010
0100
0000
,
0001
0001
1000
0100
0100
2000
30M0
00M0
,
0001
0100
0010
0100
0001
0000
1000
0010
0100
0001
0100
0010
1000
0000
0004
0000
,
0013
0100
0010
0100
1000
0000
0001
0000
0100
0000
0010
0000
1000
0000
0001
0000
,
0100
0000
0001
0100
0040
0030
1000
0000
0400
0300
1000
0000
0001
0000
0010
0000
,
0001
0100
0001
1000
0100
0010
0001
1000
0001
0000
0010
0000
0100
0000
1000
0001
,
0100
0000
0040
0000
1030
0000
0001
0000
1000
0100
1000
0001
1000
0000
0000
0000
,
0001
0000
1000
0100
0010
0001
1000
0000
0001
0000
0100
0010
1000
0100
1000
0010
,
0100
0001
0010
0001
1000
0010
0100
0001
,
1M00
00M0
0M00
00M0
0M00
00M0
1001
0000
,
0001
0000
0100
0000
0010
0000
0100
0000
0001
0000
0010
0000
0100
0000
1000
0001
,
1000
0000
0010
0000
0100
0000
0001
0000
0010
0000
0100
1000
0100
0000
1000
0001
,
1000
0000
0100
0000
1000
0000
0001
0010
0100
0000
0010
0000
0001
0000
1000
0000
,
0200
0000
0310
0001
2000
0000
3020
0000
0230
0000
0302
0000
2003
0000
3001
0000
,
0010
0000
0100
1000
0001
0000
0100
0000
0010
0000
1000
0000
0001
0010
0100
0010
,
0001
0000
0100
0000
0010
0000
0100
0000
0001
0000
1000
0000
0001
0010
0100
0000
,
1000
0100
0010
0100
1000
0001
0100
0010
,
1000
0010
1000
0010
0100
0001
0100
0001
1000
0001
1000
0001
0100
0010
0100
0010
,
1000
0000
2000
0000
3000
0000
0001
0000
0100
0000
0200
0000
0300
0000
0001
0010
,
0100
1000
0001
0100
0010
0100
0001
1000
,
0100
0000
0200
0000
0300
0000
1000
0001
0100
0000
0200
0000
0300
0000
0001
0000
,
0010
0000
0100
1000
0001
0000
0200
0000
0000
0300
0100
0000
0001
0000
2000
0000
,
3100
0000
0200
0000
0300
0000
0010
0000
0001
0000
0002
0000
0003
0000
0100
0001
,
1000
0000
0001
0000
0100
0000
0010
0000
0100
0000
0001
0000
1000
0100
0010
0000
,
0100
0100
0010
0001
1000
1000
0010
1000
,
00M1
0M00
00M0
0M00
,
1000
0100
0010
0100
0100
1000
0001
0200
,
0300
0100
0010
1000
1000
0001
0010
0200
,
0300
0100
1000
0001
0001
0100
0001
0020
,
0030
0000
0010
0000
0100
0000
1000
0000
0004
0003
0400
0300
0040
0030
4000
3000
,
0001
0000
0100
0000
0010
0000
1000
0100
1000
0001
0010
0100
1000
0000
0001
0100
,
0001
0000
1000
0000
0010
0000
1000
0010
1000
0001
0010
0100
1000
0000
0001
0010
,
0001
0000
0100
0000
0010
0000
1000
0001
0100
0010
1000
0001
1000
0000
0001
0010
,
0100
0000
1000
0000
0010
0000
1000
0010
1000
0001
0100
0001
2000
0000
0000
0000
,
3001
0000
0100
0000
0010
0000
0100
0001
1000
0100
0010
0001
1000
0000
0001
0000
,
0100
0001
0100
0000
0001
0000
1000
0100
1000
0000
0010
0000
0100
0001
2000
0000
,
3000
0001
0100
0001
0010
0100
0010
0001
,
1000
0000
0001
0100
0001
0000
1000
0000
0100
0000
2000
0000
3040
0000
0430
0000
,
0301
0000
1000
0010
1000
0000
0004
0000
0013
0000
0100
0000
1000
0001
1000
0000
,
0040
0000
0430
0000
0302
0000
0000
0000
1003
0000
0100
0000
1000
0001
0100
0010
,
1000
0000
0000
1000
0000
0000
0001
0000
0100
0000
0010
0000
0100
0000
0001
0000
,
1000
0100
1000
0100
0010
0001
0010
0001
1000
0000
0001
0000
1001
0000
0000
0000
,
1000
0000
0000
0000
1000
0000
0000
0000
0010
0000
0000
0000
0100
0000
0000
0000
0001
0000
0000
0000
0010
0000
0000
0000
0400
0300
4000
3000
0400
0300
4000
3000
,
0004
0003
0000
0000
0100
0000
0000
0000
0010
0000
0000
0000
0100
0000
0000
0000
0001
0000
0000
0000
0001
0000
0000
0000
1000
0000
0000
0000
0100
0000
0000
0000
,
1000
0000
0010
0100
0001
0000
0010
0100
1000
0000
0001
0100
0040
0000
0030
0000
,
0200
0301
0100
0000
0010
0000
0200
0300
0001
0000
0010
0000
0200
0300
0000
0000
,
1000
0100
0000
1000
0001
0000
1000
0000
0001
0100
0001
1000
0100
0010
0001
1000
,
0010
0000
0100
0000
0001
0100
0001
0000
1000
0100
1000
0100
0010
0000
0000
0000
,
0001
0000
1000
0100
1000
0000
0001
0000
0100
0000
0001
0000
0010
0000
0100
0000
,
1000
0000
1000
0000
0001
0000
0000
0000
0100
0001
0010
0100
4000
0000
0000
0000
,
3000
0000
0000
0000
,
0000
0000
0000
0000
,
0001
0100
0010
0100
0001
1000
0010
1000
0001
0010
0001
1000
0100
0010
0001
1000
,
0100
1000
0001
0100
0010
1000
0010
0100
0001
1000
0100
0010
0001
1000
0100
1000
,
0001
0100
0001
1000
0001
0100
0010
1000
0001
0010
0100
0010
0001
1000
0100
1000
,
0001
0100
0001
1000
0010
1000
0001
0100
0010
1000
0001
0010
0100
1000
0001
0010
,
0001
1000
0001
0100
0010
1000
0001
0100
0001
1000
0100
0010
0001
1000
0100
1000
,
0001
0100
0010
0100
0001
1000
0010
0100
0010
1000
0001
0010
0100
1000
0001
0100
,
0001
1000
0001
1000
0010
0100
0010
0100
0001
1000
0001
1000
0001
0100
0001
0100
,
0001
0000
1000
0001
1000
0000
0004
0003
0100
0000
0001
0000
1000
0100
1000
0100
,
1000
0001
0100
0010
1000
0001
0010
0100
1000
0001
0100
0010
0100
0001
1000
0010
,
0100
0010
1000
0001
0100
0010
1000
0001
0010
0100
1000
0001
0010
0100
0010
0001
,
1000
0010
0100
0010
1000
0001
0100
0001
1000
0010
1000
0001
0100
0001
1000
0010
,
0100
0001
1000
0100
0010
0001
1000
0100
1000
0001
0010
0001
1000
0001
0010
0100
,
0010
0001
1000
0010
0100
0010
1000
0001
0010
0100
1000
0001
0100
0010
0100
0001
,
1000
0100
0010
0100
1000
0001
1000
0001
0010
0100
0010
0001
1000
0010
0100
0010
,
1000
0001
0010
0001
1000
0010
0100
0010
0100
0001
1000
0100
0010
0100
1000
0004
,
4000
0000
0000
0000
0000
3003
0000
0000
,
0001
0000
0100
0000
0001
0010
0001
0010
0100
0000
1000
0100
1000
0000
0001
0100
,
0010
0000
0100
0000
0001
0000
0040
0030
0100
1000
0001
1000
0002
0003
0000
0000
,
1000
0000
0100
1000
0001
0000
0001
0000
0100
0000
0000
0000
0010
1000
0010
0100
,
0001
0000
4000
3000
0100
0000
0010
0000
0001
0100
0001
1000
0400
0000
0000
0300
,
1000
0000
1000
0000
0001
0100
0001
1000
0100
0000
1000
0000
0100
0010
0001
1000
,
0001
0000
0100
0000
0010
0100
0004
0003
1000
0100
1000
0000
0001
0000
0001
0000
,
0100
0000
0010
0000
1000
0100
1000
0000
0001
0000
0001
0000
0010
0000
0010
0000
,
0100
000M
1100
1001
,
0101
0100
0001
1000
0100
0010
0100
0100
,
1000
0000
0001
0000
0100
0000
0010
1000
0010
0100
0001
1000
0100
0000
0010
0000
,
0004
0003
1000
0000
0400
0300
1000
0001
1000
0000
0010
0000
0100
0000
0001
0000
,
1000
0000
0000
0000
0000
0000
1000
0000
0000
0000
0000
0000
0000
0000
0000
0000
0000
0000
0001
0000
0000
0000
0000
0000
0400
0000
0000
0000
0300
0000
0001
0000
0000
1000
0000
0000
0100
0000
0000
0000
0000
0000
0000
0000
0000
0000
0000
0000
,
1000
0000
0010
1000
0010
0000
0100
0000
0001
0000
0001
0000
0001
0000
0001
0000
,
0010
0100
1000
0001
1000
0010
0100
0000
0001
0000
1000
0000
0400
0000
0000
0000
,
1300
0001
0000
1000
0040
0000
0130
0000
0001
1000
0100
1000
0001
0010
0100
1000
,
0001
0000
0100
0000
0010
1000
0001
0100
0001
1000
0100
1000
0010
0100
0001
1000
,
0001
0000
0000
1000
0000
0000
1100
0000
0000
0100
0000
1000
,
0001
0000
0000
0001
0000
0000
0101
0000
0000
0100
0000
0010
,
1000
0000
0000
0100
0000
0000
0110
0000
0000
0010
0000
0001
,
1000
0000
0000
1000
0000
0000
1010
0000
0000
0010
0000
0100
,
0001
0000
0000
1000
0000
0000
1100
0000
0000
0100
0000
0010
,
0001
0000
0000
0001
0000
0000
0101
0000
0000
0100
0000
0010
,
1000
0000
0000
0100
0000
0000
0110
0000
0000
0010
0000
0001
,
1000
1000
1010
0010
,
0220
0000
0000
0330
0000
0000
0000
0000
0000
0000
0000
0000
0101
0000
0000
0000
0000
0000
0000
0000
0000
0000
0001
0000
,
1000
0100
0100
1000
,
0001
0000
0000
0100
0000
0000
0001
0000
0000
0010
0000
0000
0100
0000
0000
0000
0000
0000
0000
0000
0000
0000
1000
0000
,
0010
0000
0010
0000
0101
0000
0100
0001
,
1000
0000
0000
0000
0000
0000
1100
0000
0000
0000
0000
0100
,
1000
0001
0001
0000
,
0101
0000
0100
0000
0001
0000
1000
0100
1000
0001
0010
0000
0100
0000
1000
0000
,
0001
0000
0MM0
0000
0MM0
0MM0
0MM0
0MM0
;

//---------------dance-single - Rynker----------------
#NOTES:
     dance-single:
     Rynker:
     Hard:
     13:
     1.000,1.000,0.200,0.254,0.803,920.000,26.000,33.000,23.000,0.000:
0000
0000
0000
0000
,
0000
0000
0000
0000
,
0000
0000
0000
0000
,
0000
0000
0000
0000
,
0000
0000
0000
0000
,
0000
0000
0000
0000
,
0000
0000
0000
0000
,
0000
0000
0000
0000
,
1000
0000
0001
0000
0100
0000
0010
1000
0001
0100
0001
0000
1000
0000
0010
0000
,
0100
0000
0001
0000
1000
0000
0100
0010
0001
1000
0001
0000
0100
0000
0010
0000
,
0100
0000
0001
0000
1000
0000
0001
0010
0100
1000
0100
0000
0010
0000
0001
0000
,
1000
1000
0100
0100
1000
1000
0001
0001
,
0100
0000
0100
0000
0010
0000
0100
0001
0100
0010
1000
0000
0001
0000
0010
0000
,
0100
0000
1000
0000
0100
0000
1000
0001
1000
0001
0010
0000
0100
0000
0010
0001
,
0100
0000
0010
0000
1000
0000
0010
1000
0001
1000
0001
0000
1000
0000
0000
0000
,
0001
0000
1000
0000
0010
0100
0010
0000
1000
0000
0100
0010
0100
0000
1000
0000
,
0010
0000
0010
0000
0100
0000
0010
0100
0001
1000
0001
0100
0010
0000
1000
0000
,
0100
0000
0010
0000
0001
0000
0010
0100
1000
0001
0010
0001
1000
0000
0010
0000
,
0100
0000
0001
0000
0100
0000
0010
0100
0001
1000
0010
0100
0001
0000
1000
0000
,
0100
0010
0001
1000
0002
0003
0000
0000
,
1000
0000
0100
0000
0010
0000
0001
0010
0100
1000
0100
0010
0001
0000
1000
0000
,
0010
0000
0100
0000
0001
0000
1000
0001
0010
0100
0010
0001
1000
0000
0001
0000
,
0100
0000
0010
0000
1000
0000
0010
0100
0001
1000
0010
0100
0010
0000
1000
0000
,
0001
0001
1000
0001
0001
2000
30M0
00M0
,
0001
0100
0010
0100
0001
0000
1000
0010
0100
0001
0100
0010
1000
0000
0004
0000
,
0013
0100
0000
0100
1000
0000
0001
0000
0100
0000
0010
0000
1000
0000
0001
0000
,
0100
0000
0001
0100
0040
0030
1000
0000
0400
0300
1000
0000
0001
0000
0010
0000
,
0001
0100
0001
1000
0100
0010
0001
1000
0001
0000
0010
0000
0100
0000
1000
0001
,
0100
0000
0040
0000
1030
0000
0001
0000
1000
0100
1000
0001
1000
0000
0000
0000
,
0001
0000
1000
0100
0000
0100
0010
0000
0001
0000
0100
0010
1000
0100
1000
0010
,
0100
0000
0001
0000
0010
0001
0000
0001
1000
0000
0010
0000
0100
0000
0001
0000
,
1M00
00M0
0M00
00M0
0M00
00M0
1001
0000
,
0001
0000
0100
0000
0010
0000
0100
0000
0001
0000
0010
0000
0100
0000
1000
0001
,
1000
0000
0010
0000
0100
0000
0001
0000
0010
0000
0100
1000
0100
0000
1000
0001
,
1000
0000
0000
0010
0000
0000
1000
0000
0000
0001
0100
0001
0100
0000
0000
0010
0000
0000
1000
0000
0000
0001
0000
0000
,
0020
0000
0130
1000
0002
0000
0203
0000
0320
0000
2030
0000
3002
0000
1003
0000
,
0100
0000
0010
0001
1000
0000
0010
0000
0100
0000
0001
0000
1000
0100
0010
0100
,
1000
0000
0000
0010
0000
0000
0100
0000
0000
0010
0000
0000
1000
0000
0000
0001
0000
0000
0100
0001
0100
0001
0000
0000
,
1000
0100
0010
0100
1000
0001
0100
0010
,
2000
0000
0000
0000
3020
0000
0000
0000
1030
0001
1000
0001
0100
0010
0100
0010
,
1000
0000
2000
0000
3000
0000
0001
0000
0100
0000
0200
0000
0300
0000
0001
0010
,
0100
1000
0001
0100
0010
0100
0001
1000
,
0100
0000
0200
0000
0300
0000
1000
0001
0100
0000
0200
0000
0300
0000
0001
0000
,
0010
0000
0100
1000
0001
0000
0200
0000
0000
0300
0100
0000
0001
0000
2000
0000
,
3100
0000
0200
0000
0300
0000
0010
0000
0001
0000
0002
0000
0003
0000
0100
0001
,
1000
0000
0000
0001
0000
0000
0100
0000
0000
0010
0000
0000
0100
0000
0000
0001
0000
0000
1000
0001
1000
0001
0000
0000
,
1000
1000
0100
1000
0001
0001
0100
0001
,
10M0
0M00
00M0
0M00
,
0001
1000
0100
0010
0100
1000
0001
0200
,
0300
0100
0010
1000
0001
0001
0010
0200
,
0300
0100
1000
0001
1000
1000
0001
0020
,
0030
0000
0010
0000
0100
0000
1000
0000
0004
0003
0400
0300
0040
0030
4000
3000
,
0001
0000
0100
0000
0010
0000
1000
0100
1000
0001
0010
0000
0100
0000
1000
0100
,
1000
0000
0001
0000
0100
0000
0010
0100
0001
1000
0001
0000
1000
0000
0001
0010
,
0001
0000
0100
0000
0010
0000
1000
0001
0100
0010
1000
0000
0001
0000
0010
0100
,
1000
0000
0010
0000
1000
0000
0010
1000
0001
0100
0001
0000
2000
0000
0000
0000
,
3001
0000
0100
0000
0010
0000
0100
0001
1000
0100
0010
0001
1000
0000
0001
0000
,
0100
0001
0100
0000
0001
0000
1000
0100
1000
0000
0010
0000
0100
0001
2000
0000
,
3000
0001
0100
0001
0010
0100
0010
0001
,
1000
0000
0001
0100
0001
0000
1000
0000
0100
0000
2000
0000
3040
0000
0430
0000
,
0301
0000
1000
0010
1000
0000
0004
0000
0013
0000
0100
0000
1000
0001
1000
0000
,
0040
0000
0430
0000
0302
0000
0000
0000
1003
0000
0100
0000
1000
0001
0100
0010
,
1000
0000
0000
1000
0000
0000
0001
0000
0100
0000
0010
0000
0100
0000
0001
0000
,
1000
0100
1000
0100
0010
0000
0001
0000
1000
0000
0001
0000
2002
3003
0000
0000
,
1000
0000
0000
0000
1000
0000
0000
0000
0010
0000
0000
0000
0100
0000
0000
0000
0001
0000
0000
0000
0010
0000
0000
0000
0400
0300
4000
3000
0400
0300
4000
3000
,
0004
0003
0000
0000
0100
0000
0000
0000
0010
0000
0000
0000
0100
0000
0000
0000
0001
0000
0000
0000
0001
0000
0000
0000
1000
0000
0000
0000
0100
0000
0000
0000
,
1000
0000
0010
0100
0001
0000
0010
0100
1000
0000
0001
0100
0040
0000
0030
0000
,
0200
0301
0100
0000
0010
0000
0200
0300
0001
0000
0010
0000
0200
0300
0000
0000
,
1000
0100
0000
1000
0001
0000
1000
0000
0001
0000
1000
0000
0100
0010
0001
1000
,
0010
0000
0100
0000
0001
0100
0001
0000
1000
0100
1000
0100
0010
0000
0000
0000
,
0001
0000
1000
0100
1000
0000
0001
0000
0100
0000
0001
0000
0010
0000
0100
0000
,
1000
0000
1000
0000
0001
0000
0000
0000
0100
0001
0010
0100
4000
0000
0000
0000
,
3000
0000
0000
0000
,
0000
0000
0000
0000
,
1000
0100
0010
0001
1000
1000
1000
0001
,
0100
0010
1000
0010
0100
0001
0001
0010
,
0100
1000
0001
0100
0010
1000
1000
0001
,
0001
1000
1000
0001
1000
0100
0010
0001
,
0010
0100
1000
0001
0100
0010
1000
0001
,
1000
0100
1000
0000
0001
0000
0100
0000
0010
1000
0001
0000
1000
0000
0100
1000
,
0010
0000
0100
0000
0001
0000
1000
0000
0100
0000
0010
0000
0001
0100
0001
0100
,
0001
0000
1000
0001
1000
0000
0004
0003
0100
0000
0001
0000
1000
0100
1000
0100
,
1000
0000
0001
0010
0001
0000
0000
0000
1000
0001
1000
0010
0100
0001
1000
0001
,
0010
0100
1000
0100
0010
0000
0000
0000
0001
0000
0001
0000
0001
0000
1000
0000
,
0010
0100
0010
0100
0001
0000
1000
0100
1000
0000
0000
0000
0001
0000
0010
0000
,
0100
0000
0000
0000
1000
0000
0010
0100
0001
0000
0000
0000
1000
0001
1000
0001
,
1000
0001
0100
0010
0100
0001
0010
0100
,
1000
1000
1000
0010
0100
0001
1000
0100
,
0010
0000
0001
0000
1000
0000
0001
1000
0001
0000
1000
0100
0010
0100
1000
0004
,
4000
0000
0000
0000
0000
3003
0000
0000
,
0001
0000
0100
0000
0001
0010
0001
0010
0100
0000
1000
0100
1000
0000
0001
0100
,
0010
0000
0100
0000
0001
0000
0040
0030
0100
1000
0001
1000
0002
0003
0000
0000
,
1000
0000
0100
1000
0001
0000
0001
0000
0100
0000
0000
0000
0010
1000
0010
0100
,
0001
0000
4000
3000
0100
0000
0010
0000
0001
0100
0001
1000
0400
0000
0000
0300
,
1000
0000
1000
0000
0001
0100
0001
1000
0100
0000
1000
0000
0100
0010
0001
1000
,
0001
0000
0100
0000
0010
0100
0004
0003
1000
0100
1000
0000
0001
0000
0001
0000
,
0100
0000
0010
0000
1000
0100
1000
0000
0001
0000
0001
0000
0010
0000
0010
0000
,
0100
000M
1100
1001
,
0101
0100
0001
1000
0100
0010
0100
0100
,
1000
0000
0001
0000
0100
0000
0010
1000
0010
0100
0001
1000
0100
0000
0010
0000
,
0004
0003
1000
0000
0400
0300
1000
0001
1000
0000
0010
0000
0100
0000
0001
0000
,
1000
0000
0000
0000
0000
0000
1000
0000
0000
0000
0000
0000
0000
0000
0000
0000
0000
0000
0001
0000
0000
0000
0000
0000
0400
0000
0000
0000
0300
0000
0001
0000
0000
1000
0000
0000
0100
0000
0000
0000
0000
0000
0000
0000
0000
0000
0000
0000
,
1000
0000
0010
1000
0010
0000
0100
0000
0001
0000
0001
0000
1000
0000
0001
0000
,
0010
0100
1000
0001
1000
0010
0100
0000
0001
0000
1000
0000
0400
0000
0000
0000
,
1300
0001
0000
1000
0040
0000
0130
0000
0001
1000
0100
1000
0001
0010
0100
1000
,
0001
0000
0100
0000
0010
1000
0001
0100
0001
1000
0010
1000
0001
0100
0010
1000
,
0001
0000
0000
1000
0000
0000
1100
0000
0000
0100
0000
1000
,
0001
0000
0000
0001
0000
0000
0101
0000
0000
0100
0000
0010
,
1000
0000
0000
0100
0000
0000
0110
0000
0000
0010
0000
0001
,
1000
0000
0000
1000
0000
0000
1010
0000
0000
0010
0000
0100
,
0001
0000
0000
1000
0000
0000
1100
0000
0000
0100
0000
0010
,
0001
0000
0000
0001
0000
0000
0101
0000
0000
0100
0000
0010
,
1000
0000
0000
0100
0000
0000
0110
0000
0000
0010
0000
0001
,
1000
1000
1010
0010
,
0220
0000
0000
0330
0000
0000
0000
0000
0000
0000
0000
0000
0101
0000
0000
0000
0000
0000
0000
0000
0000
0000
0001
0000
,
1000
0100
0100
1000
,
0001
0000
0000
0100
0000
0000
0001
0000
0000
0010
0000
0000
0100
0000
0000
0000
0000
0000
0000
0000
0000
0000
1000
0000
,
0010
0000
0010
0000
0101
0000
0100
0001
,
1000
0000
0000
0000
0000
0000
1100
0000
0000
0000
0000
0100
,
1000
0001
0001
0000
,
0101
0000
0100
0000
0001
0000
1000
0100
1000
0001
0010
0000
0100
0000
1000
0000
,
0001
0000
0MM0
0000
0MM0
0MM0
0MM0
0MM0
;
