#TITLE:Trip Machine Eternal;
#SUBTITLE:;
#ARTIST:STM;
#TITLETRANSLIT:;
#SUBTITLETRANSLIT:;
#ARTISTTRANSLIT:;
#CREDIT:;
#BANNER:Trip Machine Eternal-bn.png;
#BACKGROUND:Trip Machine Eternal-bg.png;
#LYRICSPATH:;
#CDTITLE:paranoivm.png;
#MUSIC:Trip Machine Eternal.mp3;
#OFFSET:-0.300;
#SAMPLESTART:29.980;
#SAMPLELENGTH:12.000;
#SELECTABLE:YES;
#BPMS:0.000=200.000,27.000=100.000,27.500=200.000,55.500=100.000,56.000=200.000;
#STOPS:;
#BGCHANGES:;
// cache tags:
#FIRSTBEAT:4.000;
#LASTBEAT:300.000;
#SONGFILENAME:Songs/juju steps/Trip Machine Eternal/Trip Machine Eternal.sm;
#HASMUSIC:1;
#HASBANNER:1;
#MUSICLENGTH:92.742;
// end cache tags

//---------------dance-single - ----------------
#NOTES:
     dance-single:
     :
     Challenge:
     10:
     0.896,0.890,0.766,0.097,0.146,502.000,71.000,9.000,0.000,0.000:
0000
0000
0000
0000
,
0001
0100
0010
1000
0100
1000
0010
0000
,
0100
0000
0010
1000
0010
0100
0001
0000
,
0001
0001
0100
0100
1001
0000
2000
3100
,
0002
1003
0010
0000
0001
0100
1000
1000
,
0001
0100
0010
1000
0010
0010
0100
0001
,
0001
1000
0001
0100
0100
1000
0200
0310
,
0000
0000
1010
0000
0010
0000
0100
0000
0001
0100
0001
0000
0100
0000
0010
0000
,
0000
1010
0000
0010
0100
0001
0000
0100
,
1000
0000
0100
0000
0001
0000
0010
0000
0001
0010
0001
0000
0000
0000
1000
0100
,
1000
0000
0001
0100
0001
0000
1000
0000
0000
0000
0001
0000
0010
0000
0100
0000
,
1000
0001
0002
0100
0003
1010
0000
0010
,
0100
0010
0000
1010
0010
0100
0200
0010
,
0300
0000
0000
0000
0000
0000
0000
1010
,
0101
0000
0001
0100
0100
0010
0000
0010
,
1000
0010
0100
0000
0101
0000
1001
0000
,
0100
1000
0000
1100
0000
0110
0000
0100
,
0010
0000
0011
0010
0001
0000
0001
1000
,
0001
0100
1000
0001
0010
0100
0010
0000
,
1010
0000
0110
0000
0100
0010
1000
0001
,
0010
0100
1000
0100
1001
0000
0101
0000
,
0100
0000
0010
0000
1000
0000
0010
0100
0001
0000
1000
0000
0001
0000
1000
0000
,
0100
0000
0010
0000
0001
0000
0000
0000
0011
0000
0000
0000
0010
0000
0010
0100
,
0010
0100
1000
0100
1000
0001
0100
0010
,
1000
0000
0110
0000
1010
0000
0010
0100
,
0010
0000
0100
0010
0100
0000
0001
0000
0100
0000
1000
0000
0100
0000
0000
0000
,
0101
0000
1001
0000
1100
1001
0000
0001
,
0010
0000
0110
0100
0000
1000
0100
0000
,
1001
0000
0000
0000
0001
0000
0100
0010
1000
0000
0010
0000
0100
0000
0001
0000
,
1000
0000
1100
0000
1001
0001
0100
0000
,
0110
0000
0010
1000
0010
0000
0100
0000
0001
0000
0100
0001
0100
0000
0010
0000
,
1000
0000
0010
1000
0010
0000
0100
0000
0101
0000
0000
0000
1001
0000
0001
0000
,
0010
0000
0001
0010
0001
0000
1000
0000
0100
0000
1000
0100
1000
0000
0001
0000
,
0010
0001
1000
0000
1010
0000
1010
1000
,
1001
0010
0001
1000
1001
1000
0010
1000
,
0101
0000
1001
0100
1001
0000
0101
0100
,
0010
0000
1000
0010
0100
0000
0001
0000
1000
0000
0010
0100
0001
0000
1000
0000
,
0100
0000
0010
0000
0001
0000
0000
0000
0011
0000
0010
0000
0100
0000
1000
0100
,
1000
0000
0100
0000
0010
0000
0010
0001
0010
0000
1000
0000
0010
0000
0001
0000
,
0100
0000
1000
0000
0100
0000
0001
0010
0001
0000
1000
0100
1000
0000
0010
0001
,
0010
0000
0100
1000
0100
0000
0010
1000
0010
0000
0100
0000
0100
0000
0000
0000
,
1001
0000
0001
0100
1000
0001
0010
0000
,
1010
0010
0100
0001
1001
0000
1100
0000
,
0100
1000
0000
0011
0000
0010
0001
0000
,
1001
0000
0101
0100
0010
1000
0010
0100
,
0001
0000
0100
0010
1010
0010
0100
0001
,
1100
0000
0100
0010
0001
0000
0010
0000
,
1000
0000
0010
0000
0001
0000
0010
0000
0100
0000
1000
0100
1000
0000
0001
0000
,
0100
0001
0100
0100
0001
0000
1000
0000
,
0010
0000
0100
0000
0001
0000
0100
0001
0100
0000
0010
0000
1000
0000
0010
1000
,
0010
0000
0100
0001
0100
0000
0000
0000
1001
0000
0000
0000
1100
0000
0000
0000
,
0100
0010
0001
0010
1000
0010
0100
1000
,
0100
1000
0100
0000
1100
0000
1001
0000
,
0001
0100
1000
0001
0010
1000
0001
0010
,
1000
0010
0001
0000
0101
0000
1001
0000
,
1000
0000
0001
0010
1000
0000
1000
0000
,
0010
0001
0100
0000
1020
0030
0020
0030
,
1000
0010
0001
0100
0001
1000
0001
0100
,
1000
0000
0110
0000
0010
0010
1000
0000
,
1010
0010
0000
0110
0100
0000
0101
1001
,
0000
1100
1001
0000
0011
0000
0010
0000
,
0100
0010
0100
0000
1000
0100
0000
1000
,
0100
0000
1000
0001
0010
0000
0001
0000
,
0100
0010
1000
0000
0010
0100
0000
0001
,
0100
0100
1000
0100
0001
0010
0010
0010
,
0100
1000
1000
0010
0010
0001
1000
1000
,
0100
0010
1000
0001
0001
0010
0100
0001
,
0001
1000
0010
0010
0100
0001
1000
1000
,
0010
1000
1000
0001
0001
0010
0010
0000
,
0001
0000
1000
0010
0100
0000
1001
0000
,
1100
0000
1001
0001
0010
0001
1000
0000
,
0010
0000
0100
0000
0001
0000
0100
0000
1010
0000
0000
0000
0010
0000
0000
0100
,
0000
0110
0010
0000
0010
0001
0100
1000
,
0100
0000
0110
0100
0110
0100
0120
0000
,
1030
0000
0001
0010
0001
1000
0200
0000
,
0310
0000
0000
0000
;
