#TITLE:SPEEDWAY;
#SUBTITLE:;
#ARTIST:NIKO;
#TITLETRANSLIT:;
#SUBTITLETRANSLIT:;
#ARTISTTRANSLIT:;
#CREDIT:;
#BANNER:speedway-bn.png;
#BACKGROUND:speedway-bg.png;
#LYRICSPATH:;
#CDTITLE:!ExigeTitle.png;
#MUSIC:speedway.mp3;
#OFFSET:-1.644;
#SAMPLESTART:47.300;
#SAMPLELENGTH:12.000;
#SELECTABLE:YES;
#BPMS:0.000=157.080;
#STOPS:;
#BGCHANGES:;
// cache tags:
#FIRSTBEAT:0.000;
#LASTBEAT:215.500;
#SONGFILENAME:Songs/Fabulously Fresh Flock of Fantastic Files F5/(exige) Speedway/speedway.sm;
#HASMUSIC:1;
#HASBANNER:1;
#MUSICLENGTH:86.865;
// end cache tags

//---------------dance-single - ----------------
#NOTES:
     dance-single:
     :
     Hard:
     11:
     1.000,1.000,1.000,0.564,0.679,472.000,166.000,49.000,0.000,0.000:
1001
0000
0000
0000
0000
0000
0000
1001
,
1001
0000
0000
0000
,
1001
0000
0000
1001
0000
0000
1001
1001
,
0001
0010
1000
0001
0010
0000
0010
1000
0100
0001
1000
0000
1000
0100
0001
0000
,
1001
0000
0010
0000
0010
0100
0001
0010
0100
0000
0100
0010
0000
0010
0100
1000
,
0001
0000
0010
0000
0100
0010
1000
0010
0100
0000
0100
0001
0000
0001
0010
0100
,
0001
0000
0100
0000
0001
0010
1000
0010
1000
0000
1000
0100
0000
1000
0100
0010
,
0001
1000
0001
0010
1000
0000
1000
0010
0001
1000
0001
0000
1000
0001
1000
0000
,
1001
0000
0010
0000
0001
0010
0001
1000
0100
0000
0100
0010
0000
0010
1000
0010
,
1000
0000
0100
0000
0010
1000
0010
0100
0010
0000
0001
0010
0000
0010
0001
0100
,
0010
0000
1000
0000
0010
1000
0010
0100
0010
0000
0100
0001
0000
0100
0001
0100
,
0001
0100
1000
0001
0010
0000
0001
0010
1000
0010
1000
0000
0010
1000
0010
0000
,
1010
0110
0011
1001
1100
1001
0022
0033
,
0101
0110
1010
0011
1001
1100
0202
0303
,
0011
1001
0011
1010
2200
3300
0220
0330
,
0011
0000
0001
0000
0001
0010
0001
0010
0000
0001
0010
0000
0001
0010
1100
0000
,
1100
0000
1000
0000
1000
0010
1000
0001
0000
1000
0001
0000
0001
0100
0001
0100
,
1001
0011
0101
0110
1010
1100
2002
3003
,
0011
0110
0011
1100
1001
0011
2020
3030
,
0110
1010
0011
0101
0202
0303
0220
0330
,
1010
0000
0010
0000
1000
0010
1000
0010
0000
0010
1000
0000
1000
0010
0101
0000
,
0101
0000
0001
0000
0001
0100
0001
0100
0001
0010
0001
0010
0100
1000
0001
0010
,
2002
3003
0022
0033
0101
0110
1010
1001
,
2002
3003
0022
0033
0101
0110
1001
2020
,
3030
0220
0330
2010
0010
0000
0010
3000
,
0101
0202
0303
0102
0100
0000
0100
0003
,
0220
0330
0202
0303
0110
0101
1010
1010
,
0220
0330
0202
0303
1001
1001
0101
0022
,
0033
2002
3003
0102
0100
0000
0103
0110
,
1100
2020
3030
2002
0000
0000
0000
3003
,
1001
0010
0011
1001
0110
1000
1001
0100
,
0110
0100
0011
0110
0011
1001
1100
0100
,
0110
0010
1010
0110
1000
0101
0101
0001
,
0101
0000
0100
0000
0101
0000
0100
0000
1010
0010
0000
0010
1000
0010
0000
0010
,
1010
0010
1010
0110
0101
0011
0101
0100
,
0101
0001
1010
0011
0110
1010
0011
0110
,
1001
0010
0001
1010
0001
0010
0001
0010
,
0110
0000
0000
0000
0000
0000
0110
0000
0010
0110
0000
0001
1000
0001
0000
0100
,
0110
0001
0101
0011
1001
0010
0110
0100
,
0101
0001
1001
1100
1001
0011
0110
0100
,
1100
1000
1100
1001
0001
0101
1001
1100
,
0100
0000
0100
0000
0110
0000
0010
0000
1010
1000
0000
0000
0010
0000
1000
0010
,
1010
0100
0110
1010
0011
0101
1010
1000
,
1010
0001
1100
0110
1100
0011
0110
0011
,
1001
0000
0000
1001
0001
0000
0001
0001
,
1001
0000
0000
0000
0000
0000
1001
0000
0000
1001
0000
0010
0100
0010
0000
0010
,
1010
0000
0010
0000
0001
0100
0001
0100
1000
0000
1000
0100
0000
0100
0010
0100
,
0010
0000
1000
0000
0010
1000
0010
1000
0100
0000
0100
1000
0000
1000
0001
0100
,
0001
0000
0010
0000
0100
0001
0100
0010
1000
0000
1000
0100
0000
0100
1000
0001
,
0010
0001
0010
0100
1000
0000
0001
0010
0001
0010
0100
0000
0010
0100
0010
0000
,
1001
0000
0010
0000
1000
0100
0010
1000
0010
0000
0010
1000
0000
0010
1000
0100
,
0010
0000
1000
0000
0100
0001
0100
0010
0100
0000
0010
0100
0000
0010
0100
1000
,
0001
0000
1000
0000
0001
0100
0001
0010
1000
0000
1000
0100
0000
0100
0010
0001
,
0100
0010
0100
0010
0100
0000
0010
0100
0010
0100
0010
0000
0100
0010
0100
0000
;

//---------------dance-single - ----------------
#NOTES:
     dance-single:
     :
     Challenge:
     13:
     1.000,1.000,1.000,0.587,0.679,484.000,304.000,51.000,0.000,46.000:
1101
0000
0000
0000
0000
0000
0000
1101
,
1011
0000
0000
0000
,
1101
0000
0000
1101
0000
0000
1101
1011
,
0011
1100
0011
1100
0011
0000
1100
0011
1100
0011
1100
0000
0011
1100
0011
0000
,
1101
0000
0010
0000
1010
0100
0001
0010
1100
0000
0100
0010
1001
0010
0100
1000
,
0111
0000
0010
0000
0101
0010
1000
0010
0101
0000
0100
0001
1100
0001
0010
0100
,
1011
0000
1000
0000
0101
0010
1000
0010
1001
0000
1000
0100
0011
1000
0100
0010
,
0101
1000
0001
0010
1100
0000
1000
0010
0101
1010
0101
0000
1010
0101
1010
0000
,
1101
0000
0010
0000
1001
0010
0001
1000
0101
0000
0100
0010
0101
0010
1000
0010
,
1101
0000
0100
0000
0011
1000
0100
1000
0011
0000
0001
0010
1100
0010
0001
0100
,
1011
0000
1000
0000
0011
0100
1000
0100
0011
0000
0100
0001
1010
0100
0001
0100
,
0011
0110
1100
0110
0011
0000
1100
0110
0011
0110
1100
0000
0110
0110
1010
0000
,
1011
0110
0011
1001
1100
1001
0022
0033
,
0101
0110
1010
0011
1001
1100
0202
0303
,
0011
1001
0011
1010
2200
3300
0220
0330
,
1011
0000
0001
0000
0001
0010
0001
0010
0000
0001
0010
0000
0001
0010
1101
0000
,
1101
0000
1000
0000
1000
0010
1000
0001
0000
1000
0001
0000
0011
1100
0011
1100
,
0011
0101
1001
0110
1010
1100
2002
3003
,
0011
0110
0011
1100
1001
0011
2020
3030
,
0110
1010
0011
0101
0202
0303
0220
0330
,
1011
0000
0010
0000
1000
0010
1000
0010
0000
0010
1000
0000
1000
0010
1101
0000
,
1101
0000
0001
0000
0001
0100
0001
0100
1001
0110
1001
0110
1001
0110
1001
0110
,
2002
3003
0022
0033
0101
0110
1010
1001
,
2002
3003
0022
0033
0101
0110
1001
2020
,
3030
0220
0330
2010
0110
0000
0110
3000
,
0101
0202
0303
0102
0110
0000
0110
0003
,
0220
0330
0202
0303
0110
0101
1010
1010
,
0220
0330
0202
0303
1001
1001
0101
0022
,
0033
2002
3003
0102
1010
0000
1103
1011
,
1101
2022
3033
2022
0000
0000
0000
3033
,
1101
0010
0011
1001
0110
1000
1001
0100
,
1110
0100
0011
0110
0011
1001
1100
0100
,
0110
0010
1010
0110
1000
0101
0101
0001
,
0101
0000
0100
0000
0101
0000
0100
0000
1010
0110
0000
0110
1001
0110
0000
0110
,
1011
0010
1010
0110
0101
0011
0101
0100
,
1101
0001
1010
0011
0110
1010
0011
0110
,
1001
0010
0001
1010
0001
0010
0001
0010
,
1011
0000
0000
0000
0000
0000
1011
0000
0110
0110
0000
0011
1001
0011
0000
0110
,
1101
0001
0101
0011
1001
0010
0110
0100
,
1101
0001
1001
1100
1001
0011
0110
0100
,
1100
1000
1100
1001
0001
0101
1001
1100
,
0100
0000
0100
0000
0110
0000
0010
0000
1010
1100
0000
0000
0110
0000
1100
0110
,
1011
0100
0110
1010
0011
0101
1010
1000
,
1110
0001
1100
0110
1100
0011
0110
0011
,
1101
0000
0000
1101
0101
0000
0101
0101
,
1101
0000
0000
0000
0000
0000
1101
0000
0000
1001
0000
0011
0011
0101
0000
0011
,
1101
0000
0010
0000
1001
0100
0001
0100
1001
0000
1000
0100
1001
0010
0001
1000
,
0101
0000
1000
0000
0011
1000
0010
1000
0101
0000
0100
1000
0101
1000
0001
0010
,
1100
0000
0010
0000
0110
0001
0100
0010
1001
0000
1000
0100
0011
0100
1000
0001
,
1010
0001
0010
0100
1001
0000
0001
0010
1001
0110
1001
0000
0110
1001
0110
0000
,
1101
0000
0010
0000
1001
0100
0010
1000
0011
0000
0010
1000
0101
0010
1000
0100
,
1010
0000
1000
0000
1010
0001
0100
0001
1010
0000
0010
0100
1001
0010
0100
0010
,
1001
0000
1000
0000
0011
0100
0001
0010
1100
0000
1000
0100
0011
0100
0010
0001
,
1010
0110
0101
0011
1001
0000
0101
0110
1010
1100
1001
0000
0110
0101
0011
0000
;
