#TITLE:GreenGreens;
#SUBTITLE:;
#ARTIST:steped by earth;
#TITLETRANSLIT:;
#SUBTITLETRANSLIT:;
#ARTISTTRANSLIT:;
#CREDIT:;
#BANNER:;
#BACKGROUND:;
#LYRICSPATH:;
#CDTITLE:;
#MUSIC:Kirby_Superstar_GreenGreens(ContagiousEyeInfection)_OC_ReMix.mp3;
#OFFSET:0.000;
#SAMPLESTART:33.333;
#SAMPLELENGTH:12.000;
#SELECTABLE:YES;
#BPMS:0.000=180.000;
#STOPS:;
#BGCHANGES:;
// cache tags:
#FIRSTBEAT:24.000;
#LASTBEAT:375.000;
#SONGFILENAME:Songs/keyboard/kirby2/kirby2.sm;
#HASMUSIC:1;
#HASBANNER:0;
#MUSICLENGTH:124.076;
// end cache tags

//---------------dance-single - contagiouseyeinfecti----------------
#NOTES:
     dance-single:
     contagiouseyeinfecti:
     Hard:
     9:
     0.834,0.982,0.274,0.000,0.862,690.000,34.000,0.000,0.000,0.000:  // measure 1
0000
0000
0000
0000
,  // measure 2
0000
0000
0000
0000
,  // measure 3
0000
0000
0000
0000
,  // measure 4
0000
0000
0000
0000
,  // measure 5
0000
0000
0000
0000
,  // measure 6
0000
0000
0000
0000
,  // measure 7
1000
0100
0100
0100
0100
0100
0100
0100
,  // measure 8
0010
0001
0001
0001
0001
0001
0001
0001
,  // measure 9
0100
1000
1000
1000
1000
1000
1000
0100
,  // measure 10
1001
0000
0010
0000
0100
0000
0010
0000
1001
0000
0000
0000
0100
0000
0000
0100
,  // measure 11
0010
0000
0001
0000
0010
0000
0100
0000
1000
0000
0000
0000
0100
0000
0000
0010
,  // measure 12
1000
0000
0001
0000
0010
0000
0100
0000
1000
0000
0000
0000
0100
0000
0000
0001
,  // measure 13
1000
0000
0010
0000
0100
0000
0000
0001
0010
0000
1000
0000
0100
0000
0000
0010
,  // measure 14
2200
0000
0000
0000
0000
0000
0000
0000
2200
0000
0000
0000
0001
0000
0000
1000
,  // measure 15
0010
0000
0100
0000
0010
0000
0001
0000
0100
0000
1000
0000
0100
0000
0000
0010
,  // measure 16
1000
0000
0001
0000
0100
0000
1000
0000
0110
0000
0000
0000
1000
0000
0000
0001
,  // measure 17
0100
0000
1000
0000
0010
0000
0000
0100
0001
0000
0010
0000
1000
0000
0000
0100
,  // measure 18
0010
0001
0010
0001
0010
0001
0010
0001
1000
0100
1000
0100
1000
0100
1000
0100
,  // measure 19
0010
0000
0000
0010
0100
0000
1000
0000
0000
0000
0100
0000
0010
0000
1000
0000
,  // measure 20
0010
0100
0010
1000
0001
0010
0001
0010
,  // measure 21
1200
0000
0000
0000
0001
0000
0000
0000
1200
0000
0000
0000
0010
0000
0000
0010
,  // measure 22
1000
0000
0000
0000
1000
0000
0000
0010
0100
0000
0000
0000
0001
0000
0000
0010
,  // measure 23
0100
0000
0000
0000
1000
0000
0000
0100
0001
0000
0000
0000
0010
0000
0000
1000
,  // measure 24
0100
0000
0000
0000
0010
0000
0000
0001
0100
0000
0000
0000
1000
0000
0000
0100
,  // measure 25
0020
0000
0000
0000
0020
0000
0000
0000
1001
0000
0000
0000
0100
0000
0000
0010
,  // measure 26
0001
0000
0100
0000
1000
0000
0000
0100
0010
0000
0100
0000
1000
0000
0000
0100
,  // measure 27
0010
0000
0000
0010
1000
0000
0000
1000
0001
0000
0000
0000
0100
0000
0000
0100
,  // measure 28
0010
0000
0010
0000
0010
0000
0000
0010
0100
0000
0100
0000
1000
0000
0000
0001
,  // measure 29
0100
0010
0100
0010
0100
0010
0100
0010
0100
0000
0000
0000
1000
0000
0000
0100
,  // measure 30
0010
0000
1000
0000
0100
0000
0010
0000
0100
0000
0001
0000
0010
0000
0000
0100
,  // measure 31
0010
0000
0001
0000
0010
0000
0100
0000
1000
0000
0100
0000
0010
0000
0001
0010
,  // measure 32
0100
0000
0000
0100
1000
0000
0000
1000
0100
0000
0000
0100
0010
0000
0000
0010
,  // measure 33
0200
0000
0000
0000
0000
0000
0000
0000
0200
0000
0000
0000
0000
0000
0000
0100
,  // measure 34
1000
0000
0001
0000
0010
0000
0100
0000
1001
0000
0000
0000
0110
0000
0000
1000
,  // measure 35
0100
0000
0000
0010
0100
0000
0000
0010
1001
0000
0000
0010
0100
0000
0000
1000
,  // measure 36
0100
0000
0010
0100
0010
0000
0000
1000
0110
0000
0000
0001
0010
0000
0000
0100
,  // measure 37
1000
0000
0100
1000
0010
0000
0001
0000
0100
0000
0000
0010
0100
0000
0000
1000
,  // measure 38
0100
0010
0100
0010
0100
0010
0100
0010
1000
0001
1000
0001
1000
0001
1000
0001
,  // measure 39
0200
0000
0000
0000
0000
0000
0000
0000
0200
0000
0000
0000
1000
0000
0000
1000
,  // measure 40
0100
0000
0000
0100
0010
0000
0000
0010
1001
0000
0000
0000
0100
0000
0000
0010
,  // measure 41
0001
0000
0000
1000
0100
0000
0001
0010
0100
0000
0000
1000
0010
0000
0000
0100
,  // measure 42
0020
0000
0000
1020
0001
0000
0000
0100
2000
0000
0000
2010
0001
0000
0000
0100
,  // measure 43
1000
0000
0000
0100
0010
0000
0000
0001
0010
0000
0000
0000
0100
0000
0000
0100
,  // measure 44
0020
0000
0000
0000
0020
0000
0000
0100
0010
0000
0000
0000
1000
0000
0000
1000
,  // measure 45
0100
0000
0010
0000
0100
0000
0000
0010
0001
0000
1000
0000
0100
0000
0010
0100
,  // measure 46
0010
0000
0001
0000
0010
0000
0100
1000
0100
0000
0010
0000
0001
0000
0000
0010
,  // measure 47
0100
0000
0010
0000
1001
0000
0000
0000
0100
0000
0000
0010
1001
0000
0000
0100
,  // measure 48
0010
0100
0010
0100
0010
0100
0010
0100
0020
0000
0020
0000
0000
0000
0000
0000
,  // measure 49
1000
0100
0100
0100
0100
0100
0100
0100
,  // measure 50
0010
0001
0001
0001
0001
0001
0001
0001
,  // measure 51
1000
0010
0010
0010
0010
0010
0010
0100
,  // measure 52
1000
1000
1000
1000
1000
1000
1000
1000
,  // measure 53
0100
0000
0000
0010
0001
0000
0000
1000
0100
0000
0000
0010
0001
0000
0000
0100
,  // measure 54
0000
1000
0000
1000
0100
0000
0000
0010
0001
0000
0000
0010
0100
0000
0000
1000
,  // measure 55
0100
0000
0000
0010
0001
0000
0000
0100
1000
0000
0000
0010
0001
0000
0000
0100
,  // measure 56
0010
0000
0000
0010
0100
0000
0000
0100
0010
0000
0000
0010
0100
0000
1000
0000
,  // measure 57
0002
0000
1000
0000
1000
0000
1000
0000
1000
0000
1000
0000
1002
0000
0000
0010
,  // measure 58
0100
0000
0000
1000
0001
0000
0000
0100
1000
0100
0000
0001
0010
0000
0000
0100
,  // measure 59
0020
0000
0001
0000
0001
0000
0001
0000
0001
0000
0001
0000
0021
0000
0000
0100
,  // measure 60
1000
0000
0000
0000
0100
0010
0000
0001
0010
1000
0000
0100
0010
0000
0000
0000
,  // measure 61
1200
0000
1000
0000
1000
0000
1000
0000
1000
0000
1000
0000
1200
0000
0000
0010
,  // measure 62
0100
0000
0000
1000
0010
0000
0000
1000
0100
0010
0000
0100
0010
0000
0000
0000
,  // measure 63
1002
0000
0010
0000
0010
0000
0010
0000
0010
0000
0010
0000
0012
0000
0000
0100
,  // measure 64
0001
0000
0000
1000
0010
0000
0100
0000
1010
0000
0000
0000
0100
0000
0000
0100
,  // measure 65
0010
0000
1000
0000
0100
0000
0010
0000
1000
0000
0001
0000
0010
0000
0000
0100
,  // measure 66
1000
0000
0000
1000
0100
0000
0010
0000
0110
0000
0000
0000
0010
0000
0000
0001
,  // measure 67
0010
0000
0100
0000
1000
0000
0000
1000
0100
0000
0001
0000
0010
0000
0000
0010
,  // measure 68
2200
0000
0000
0000
0000
0000
0000
0000
0200
0000
0000
0000
2001
0000
0000
0100
,  // measure 69
0010
0000
0001
0000
1000
0000
0100
0000
0010
0000
0100
0000
0001
0000
0000
0001
,  // measure 70
0100
0000
0000
0100
1000
0100
0000
0010
0001
0000
0100
0000
1000
0000
0000
1000
,  // measure 71
0100
0000
0000
0100
0010
0000
0000
0010
0001
0000
0000
0001
1000
0000
0000
0100
,  // measure 72
0010
0100
0010
0100
0010
0100
0010
0100
1000
0100
1000
0100
1000
0100
1000
0100
,  // measure 73
0010
0000
0000
0010
0100
0000
1000
0000
0000
0000
0100
0000
0010
0000
0200
0000
,  // measure 74
0000
0000
0000
0000
0000
0000
0000
0000
0000
0000
0000
0200
0010
0000
0000
0010
,  // measure 75
1000
0000
0000
1000
0001
0000
0000
0001
0100
1000
0000
0100
0010
0000
0000
0010
,  // measure 76
0100
0000
0000
1000
0100
0000
0010
0001
0100
0000
1000
0000
0010
0000
0000
0010
,  // measure 77
0100
0000
0000
0100
1000
0000
0000
1000
0010
0000
0100
0000
0001
0000
0000
0001
,  // measure 78
0200
0000
0000
0000
2200
0000
0000
0000
2002
0000
0000
0000
0102
0000
0000
0010
,  // measure 79
1000
0000
0000
0100
0010
0000
0000
1000
0100
0010
0000
0001
0100
0000
0000
0010
,  // measure 80
0100
0000
0000
1000
0100
0000
0000
0010
0100
0000
1000
0000
0001
0000
0000
0010
,  // measure 81
0100
0000
1000
0000
0110
0000
0000
0001
0100
0000
1000
0000
0010
0000
0000
0001
,  // measure 82
1000
0100
0000
0010
0100
0000
0000
1000
0100
0000
0000
0010
0001
0000
0000
0100
,  // measure 83
0010
0100
0010
0100
0010
0100
0010
0100
0020
0000
0000
0020
1000
0000
0000
0100
,  // measure 84
0010
0000
0001
0000
0010
0000
0000
0100
1000
0000
0010
0000
0100
0000
0000
0100
,  // measure 85
0010
0000
0001
0010
0000
0001
0010
0000
1000
0000
0000
0000
0100
0000
0000
0010
,  // measure 86
0100
0000
0000
1000
0010
0000
0000
0100
0001
0000
0000
0010
0100
0000
0000
1000
,  // measure 87
0200
0000
0001
0000
0001
0000
0001
0000
0001
0000
0000
0200
0000
0000
0000
0010
,  // measure 88
0100
0000
1000
0100
0010
0000
0001
0000
0010
0000
0100
0000
1000
0000
0000
0100
,  // measure 89
0010
0000
0000
0010
0100
0000
0000
0100
0010
0000
1000
0000
0100
0000
0000
0001
,  // measure 90
0100
0000
1000
0000
1000
0000
0000
1000
0100
0000
0010
0000
0001
0000
0000
0010
,  // measure 91
1000
0100
1000
0100
1000
0100
1000
0100
0010
0001
0010
0001
0010
0001
0010
0001
,  // measure 92
0100
0000
0000
0100
0010
0000
0010
0000
0000
0000
1000
0000
0110
0000
0001
0000
,  // measure 93
0220
0000
0000
0000
,  // measure 94
0000
0000
0000
0220
;
