#TITLE:Refuge From Reality;
#SUBTITLE:Beyond Reality (2002);
#ARTIST:Dreamtale;
#TITLETRANSLIT:;
#SUBTITLETRANSLIT:;
#ARTISTTRANSLIT:;
#CREDIT:SulferDragon;
#BANNER:Refuge From Reality-banner.png;
#BACKGROUND:Refuge From Reality-bg.png;
#LYRICSPATH:;
#CDTITLE:!SulferDragon.PNG;
#MUSIC:Dreamtale-03-Refuge From Reality.mp3;
#OFFSET:-0.140;
#SAMPLESTART:12.095;
#SAMPLELENGTH:12.000;
#SELECTABLE:YES;
#BPMS:0.000=160.000,498.000=148.000,500.000=146.000,501.500=143.000,502.000=140.000,502.500=127.000,503.000=114.000,505.000=113.000,505.750=111.000,507.000=109.000,511.000=107.000,513.000=104.250,514.000=101.200,514.500=99.600,515.000=98.200,515.500=96.750,516.000=95.411,516.500=88.501,517.750=75.371;
#STOPS:510.667=0.005
,510.833=0.005
,513.833=0.005
;
#BGCHANGES:;
// cache tags:
#FIRSTBEAT:0.000;
#LASTBEAT:519.188;
#SONGFILENAME:Songs/Astronomic Metal Collection 2/(SulferDragon) Refuge From Reality/Dreamtale-03-Refuge From Reality.sm;
#HASMUSIC:1;
#HASBANNER:1;
#MUSICLENGTH:202.997;
// end cache tags

//---------------dance-single - ----------------
#NOTES:
     dance-single:
     :
     Challenge:
     12:
     1.000,1.000,1.000,1.000,1.000,1381.000,394.000,209.000,0.000,33.000:
0110
1000
0100
0010
,
1100
0000
0010
0000
0101
0010
0100
1000
,
0110
1000
0100
0010
,
0201
0000
0000
0000
0000
0000
0310
0100
2010
0000
0000
0000
0000
0000
0000
0000
,
3110
1000
0100
0010
,
1100
0000
0010
0000
0101
0010
0100
1000
,
0110
0000
0101
0000
1000
0000
0010
0000
0110
0000
0100
0001
0010
0001
1000
0000
,
0201
0310
0001
1000
0000
0010
1001
0100
2010
3001
0010
1000
0001
0100
1000
0100
,
0021
0030
0000
0000
0000
0000
0101
0000
0000
0010
0000
0000
2100
3000
0000
0010
0000
0000
1001
0000
0000
0000
0000
0000
0200
0300
0000
0000
0000
0000
1001
0000
0000
0100
0000
0000
1020
0030
0000
0100
0000
0000
0011
0000
0000
0000
0000
0000
,
0200
0300
0000
0000
0000
0000
1010
0000
0000
0001
0000
0000
0120
0030
0000
0001
0000
0000
1100
0000
0000
0000
0000
0000
0002
0003
0000
0000
0000
0000
0120
0030
0000
0001
0000
0000
1200
0300
0000
0001
0000
0000
2010
3000
0000
0000
0000
0000
,
0020
0030
0000
0000
0000
0000
0101
0000
0000
0010
0000
0000
2100
3000
0000
0010
0000
0000
1001
0000
0000
0000
0000
0000
0200
0300
0000
0000
0000
0000
1100
0000
0000
0001
0000
0000
1020
0030
0000
0001
0000
0000
0110
0000
0000
0000
0000
0000
,
0202
0003
0000
0000
0300
0000
0000
0000
1010
0000
0000
0000
0100
0000
0000
0000
0010
0000
0000
0000
0100
0000
0000
0000
0011
0000
0000
0000
0000
0000
0000
0000
2020
0030
0000
0000
3000
0000
0000
0000
0110
0000
0000
0000
1000
0000
0000
0000
0100
0000
0000
0000
1000
0000
0000
0000
0201
0300
0000
0000
0000
0000
0000
0000
,
0021
0030
0000
0000
0000
0000
1010
0000
0000
0100
0000
0000
2001
3000
0000
0100
0000
0000
0011
0000
0000
0000
0000
0000
0200
0300
0000
0000
0000
0000
1001
0000
0000
0100
0000
0000
0021
0030
0000
0100
0000
0000
1010
0000
0000
0000
0000
0000
,
0200
0300
0000
0000
0000
0000
0011
0000
0000
1000
0000
0000
0120
0030
0000
1000
0000
0000
0101
0000
0000
0000
0000
0000
0002
0003
0000
0000
0000
0000
1020
0030
0000
0001
0000
0000
0210
0300
0000
0001
0000
0000
2000
3000
0000
0000
0000
0000
,
0021
0030
0000
1000
0000
0000
0100
0000
0000
0010
0000
0000
2000
3000
0000
0000
0000
0000
0011
0000
0000
1000
0000
0000
0201
0300
0000
0010
0000
0000
0001
0000
0000
0000
0000
0000
0120
0030
0000
0001
0000
0000
1000
0000
0000
0010
0000
0000
,
0201
0000
0300
0000
0000
0000
1000
0000
0000
0000
0000
0000
0021
0030
0200
0300
2010
0000
3100
0000
0010
0000
0001
0000
0010
0000
0100
0000
0001
0000
1000
0000
,
0201
0000
0312
0023
0132
0000
0213
0000
,
0312
0000
0000
0000
1023
0000
0000
0000
0231
0000
0000
0000
2301
0010
0001
0010
,
3102
1023
0231
2301
,
3011
0100
0001
1000
0101
1000
0110
0001
1010
0100
0010
0001
1100
0001
1000
0010
,
1002
0003
1100
0000
0000
0000
1100
0000
0010
0010
1100
0000
0010
0010
1100
0000
,
1020
0030
0101
0000
0000
0000
0101
0000
1000
1000
0101
0000
1000
1000
0101
0000
,
1200
0300
1001
0000
0000
0000
1001
0000
0010
0000
1001
0000
0010
0010
1001
0000
,
1020
0030
1100
0001
0000
0001
1100
0000
0001
0001
1100
0000
0001
0001
1100
0000
,
0011
0100
1010
0100
0010
0100
1010
0100
0010
0100
1010
0100
0010
0100
1010
0100
,
0001
0100
1001
0100
0001
0100
1001
0100
0001
0100
1001
0100
0001
0100
1001
0100
,
0021
1000
0000
1000
0000
1000
0000
1000
,
1130
0010
1100
0010
1000
0100
0001
0010
0100
0010
0001
1000
0100
0010
0100
0001
,
1200
0300
0011
0000
1000
1000
0011
0000
1000
0000
0011
0000
1000
1000
0011
0000
,
2001
3000
0110
0000
0000
0000
0110
0000
0001
0001
0110
0000
0001
0001
0110
0000
,
1020
0030
1100
0000
0000
0000
1100
0000
0010
0000
1100
0000
0010
0010
1100
0000
,
0210
0300
1001
0010
0000
0010
1001
0000
0010
0010
1001
0000
0010
0010
1001
0000
,
0011
0100
1010
0100
0010
0100
1010
0100
0010
0100
1010
0100
0010
0100
1010
0100
,
0001
0000
0000
0000
0100
0000
0000
0000
0011
0000
0000
0000
0100
0000
0000
0000
0001
0000
0000
0000
0100
0000
0000
0000
0011
0000
0000
0000
0100
0000
0000
0000
0001
0000
0000
0000
0100
0000
0000
0000
0011
0000
0000
0000
0100
0000
0000
0000
2001
3000
0000
0000
0100
0000
0000
0000
0011
0000
0000
0000
0100
0000
0000
0000
,
2001
0010
0000
0010
3200
0010
0000
0010
,
0302
0000
0000
0000
0010
0000
0000
0000
0000
0000
0003
0000
0012
0000
0000
0003
0012
0000
0000
0000
1003
0000
0100
0000
0021
0000
1030
0000
0201
0000
0310
0000
,
2100
3000
0110
0000
0001
0001
0110
0000
0001
0001
0110
0000
0001
0001
0110
0000
,
0021
0030
0101
0000
1000
1000
0101
0000
1000
1000
0101
0000
1000
1000
0101
0000
,
2100
3000
0011
0000
0100
0100
0011
0000
0100
0000
0011
0100
0000
0100
0011
0000
,
0120
0130
1001
0000
0100
0100
1001
0000
0100
0000
1001
0000
0100
0100
1001
0000
,
0021
0030
1100
0000
0001
0001
1100
0000
0001
0001
1100
0000
0001
0001
1100
0000
,
1002
0003
1010
0000
0100
0100
1010
0000
0100
0000
1010
0000
0100
0100
1010
0000
,
2100
3000
0110
0001
0000
0001
0110
0000
0001
0000
0110
0001
0000
0001
0110
0000
,
1020
0130
0011
1000
0011
0100
1000
0001
0010
1000
0001
0010
0100
0001
1000
0001
,
1010
0000
0101
0010
1000
0010
1100
0001
0100
1000
0011
0100
0001
1000
0101
0000
,
0010
0000
1100
0010
0001
0010
0101
1000
0001
0010
1100
0001
1000
0010
1001
0000
,
0010
0000
0101
1000
0001
0100
1010
0001
0010
0001
0110
1000
0001
0100
1001
0000
,
0010
0000
0000
0000
0100
0000
0000
0000
0011
0000
0000
0000
0100
0000
0000
0000
0001
0000
0000
0000
1000
0000
0000
0000
0110
0000
0000
0000
0001
0000
0000
0000
2010
3000
0000
0000
0000
0000
0000
0000
1100
0000
0000
0000
0000
0000
0000
0000
0210
0300
0000
0000
0000
0000
0000
0000
0101
0000
0000
0000
1000
0000
0000
0000
,
0021
0030
0000
0000
0000
0000
0000
0000
1100
0000
0000
0000
0001
0000
0000
0000
0010
0000
0000
0000
0100
0000
0000
0000
1001
0000
0000
0000
0100
0000
0000
0000
0001
0000
0000
0000
0010
0000
0000
0000
1100
0000
0000
0000
0001
0000
0000
0000
1000
0000
0000
0000
0001
0000
0000
0000
0110
0000
0000
0000
0000
0000
0000
0000
,
0100
0000
1001
0100
0010
0100
0011
1000
0001
0100
1010
0100
0010
1000
0011
0000
,
0001
0000
0110
1000
0100
0010
1100
0001
0100
1000
0101
1000
0100
0010
1001
0100
,
1010
0001
1010
0100
0001
0000
0110
0001
0110
1000
0100
0001
1000
0010
0100
0010
,
0201
0000
1000
0000
0000
0000
1000
0000
0000
0000
1000
0000
0000
0000
1310
0100
,
0020
0000
0001
0000
0000
0000
0001
0000
0000
0000
0001
0000
0000
0000
1031
0100
,
2000
0010
0000
0010
0000
0010
0000
0010
,
3002
0000
0010
0000
0000
0000
0010
0003
0200
0000
0001
0320
0000
0000
0231
0000
,
2300
0001
0000
0001
0000
0001
3020
1000
,
0230
1000
0000
1000
0000
1000
0000
1000
,
0302
0000
0000
0000
1000
0000
0000
0000
0000
0000
0000
0000
1023
0030
0200
0300
2000
0000
0000
0000
0001
0000
0000
0000
0000
0000
0000
0000
0001
0000
0000
0000
,
3011
0000
0010
1000
0011
0000
0010
1000
0011
0000
0010
1000
0011
0000
0011
0000
,
0010
1000
0011
0000
0010
1000
0011
0000
0010
1000
0011
0000
0201
0000
0010
0000
,
0000
0000
0000
0000
0000
0000
0000
0000
0000
0000
0000
0000
0000
0000
0000
0000
0000
0000
0000
0000
0000
0000
0000
0000
0001
0000
0000
0000
0000
0000
0000
0000
0000
0000
0000
0000
0000
0000
0000
0000
0300
0000
1000
0000
0000
0000
0000
0000
0020
0000
0000
0000
0000
0000
0000
0000
0000
0000
0000
0000
0000
0000
0000
0000
0000
0000
0000
0000
0000
0000
0000
0000
0001
0000
0000
0000
0000
0000
0000
0000
0000
0000
0000
0000
0000
0000
0000
0000
0000
0000
0000
0000
0000
0000
0000
0000
0000
0000
0000
0000
0000
0000
0000
0000
0000
0000
0000
0000
0000
0000
0000
0000
0000
0000
0000
0000
0000
0000
0000
0000
0231
0000
0000
0000
0000
0000
0300
0000
0000
0000
0000
0000
0020
0000
0000
0000
0000
0000
0030
0000
0000
0000
0000
0000
0002
0000
0000
0000
0000
0000
0000
0000
0000
0000
0000
0000
0000
0000
0000
0000
0000
0000
0000
0000
0000
0000
0000
0000
0100
0000
0000
0000
0000
0000
0000
0000
0000
0000
0000
0000
0000
0000
0000
0000
0000
0000
0000
0000
0000
0000
0000
0000
,
0000
0000
0100
0000
2003
0000
0100
0000
3021
0100
0001
0100
1032
0003
1100
0010
,
1000
0000
0001
0000
0110
0000
0000
0000
1020
0000
0030
0000
1100
0000
0010
0000
1000
0000
0001
0000
0210
0300
0002
0003
1200
0000
0300
0000
0101
0000
0010
0000
,
0100
0000
0000
0000
0000
0000
0000
0000
0000
0000
0000
0000
0001
0000
0000
0000
0000
0000
0000
0000
0000
0000
0000
0000
1010
0000
0000
0000
0000
0000
0000
0000
0000
0000
0000
0000
0000
0000
0000
0000
0000
0000
0000
0000
0000
0000
0000
0000
2100
0000
0000
0000
0000
0000
0000
0000
0000
0000
0000
0000
3000
0000
0000
0000
0000
0000
0000
0000
0000
0000
0000
0000
0101
0000
0000
0000
0000
0000
0000
0000
0000
0000
0000
0000
0010
0000
0000
0000
0000
0000
0000
0000
0000
0000
0000
0000
1002
0000
0000
0000
0000
0000
0003
0000
0000
0000
0000
0000
0200
0000
0000
0000
0000
0000
0300
0000
0000
0000
0000
0000
0012
0000
0000
0000
0000
0000
0000
0000
0003
0000
0000
0000
0000
0000
0000
0000
0000
0000
0000
0000
0000
0000
0000
0000
1200
0000
0000
0000
0000
0000
0000
0000
0000
0000
0000
0000
0310
0000
0000
0000
0000
0000
0000
0000
0000
0000
0000
0000
0101
0000
0000
0000
0000
0000
0000
0000
0000
0000
0000
0000
1000
0000
0000
0000
0000
0000
0000
0000
0000
0000
0000
0000
,
0100
0010
1001
0000
0020
0030
1100
0001
0100
0001
0110
1000
0201
1300
0110
0001
,
0100
0000
0000
0000
0000
0000
0000
0000
0000
0000
0000
0000
0001
0000
0000
0000
0000
0000
0000
0000
0000
0000
0000
0000
1010
0000
0000
0000
0000
0000
0000
0000
0000
0000
0000
0000
0100
0000
0000
0000
0000
0000
0000
0000
0000
0000
0000
0000
2001
0000
0000
0000
0000
0000
0000
0000
0000
0000
0000
0000
3100
0000
0000
0000
0000
0000
0000
0000
0000
0000
0000
0000
0011
0000
0000
0000
0000
0000
0000
0000
0000
0000
0000
0000
1000
0000
0000
0000
0000
0000
0000
0000
0000
0000
0000
0000
0200
0000
0000
0000
0000
0000
0300
0000
0000
0000
0000
0000
0002
0000
0000
0000
0000
0000
0003
0000
0000
0000
0000
0000
0210
0000
0000
0000
0000
0000
0000
0000
0300
0000
0000
0000
0000
0000
0000
0000
0000
0000
0000
0000
0000
0000
0000
0000
1020
0000
0000
0000
0000
0000
0000
0000
0000
0000
0000
0000
0000
0000
0000
0000
0000
0000
0000
0000
0000
0000
0000
0000
0001
0000
0000
0000
0000
0000
0000
0000
0000
0000
0000
0000
0000
0000
0000
0000
0000
0000
0000
0000
0000
0000
0000
0000
,
0000
0001
0230
0001
0000
0001
2300
0001
,
0000
0000
0001
0000
3200
0000
0001
0000
0320
0000
1000
0000
0132
1003
0011
0100
,
0001
0110
0001
0100
2010
3001
1000
0011
1000
0001
0110
0001
1200
0311
1100
0011
,
0100
0000
0010
0000
0001
0000
1100
0000
0021
0000
1030
0000
0101
0000
0010
0000
1200
0000
0301
0000
1000
0000
0010
0100
0002
0000
0000
0000
1000
0000
0000
0000
,
0000
0000
0000
0000
0000
0000
1000
0000
0000
0000
0000
0000
0000
0000
0000
0000
0000
0000
1000
0000
0000
0003
0001
0010
0200
0000
0000
0000
0000
0000
0321
0000
0000
0000
0000
0000
2030
0000
0000
0000
0000
0000
0001
0000
0000
0000
0000
0000
,
0000
0000
0001
0000
0000
0100
0001
0000
0010
0001
0100
0010
3201
0000
0000
0000
,
0000
0000
0000
0000
0000
0000
0000
0000
0000
0000
0000
0000
0000
0000
0000
0000
0000
0000
0000
0000
0000
0000
0000
0000
0000
0000
0000
0000
0000
0000
0000
0000
0000
0000
0300
0000
0100
0000
0000
0010
0000
0000
0001
0000
0000
0010
0000
0000
,
0100
0001
1000
0100
0001
0010
0100
1000
0001
0010
0100
1000
0001
0010
0100
1000
,
0001
0010
0100
1000
0001
0010
1000
0100
1000
0010
1000
0001
1200
0000
0000
0000
,
0000
0000
0000
0000
2300
0000
0000
0000
0000
0000
3100
0010
0101
0100
1000
1000
,
0011
0010
0100
0100
1000
1000
0100
0100
1010
0010
0001
0000
0110
1000
0100
0010
,
1000
0100
0001
0100
0001
1000
0100
0010
1000
0100
0010
0001
0010
0100
0001
1000
,
0010
0100
0001
1000
0100
0010
0001
0010
0100
1000
0100
0001
1020
0000
0000
0000
,
0000
0000
0000
0000
0000
0000
0000
0000
0000
0000
0000
0000
0000
0000
0000
0000
0230
0300
0002
0003
0200
0300
0000
0000
2000
0000
0000
0000
0000
0000
0000
0000
,
0000
0000
0000
0000
0000
0000
0000
0000
0000
0000
0000
0000
0000
0000
0000
0000
0000
0000
0000
0000
0000
0000
0000
0000
0000
0000
0000
0000
0000
0000
3000
0000
0020
0000
0000
0000
0000
0000
0000
0000
0030
0000
0000
0000
0000
0200
0000
0000
0000
0000
0000
0000
0300
0000
0000
0000
0000
0000
0000
0000
2000
0000
0000
0000
0000
0000
0000
0000
0000
0000
0000
0000
3000
0000
0000
0000
0000
0000
0000
0000
0000
0000
0000
0000
0000
0000
0000
0000
0000
0000
0200
0000
0000
0000
0000
0000
0000
0000
0000
0000
0000
0000
0300
0000
0000
0000
0000
0000
0000
0000
0000
0000
0000
0000
0000
0000
0000
0000
0000
0000
0020
0000
0000
0000
0000
0000
0000
0000
0000
0000
0000
0000
0030
0000
0000
0000
0000
0000
0000
0000
0000
0000
0000
0000
2001
0000
0000
0000
0000
0000
0000
0000
0000
0000
0000
0000
0000
0000
0000
0000
0000
0000
0000
0000
0000
0000
0000
0000
0000
0000
0000
0000
0000
0000
0000
0000
0000
0000
0000
0000
0000
0000
0000
0000
0000
0000
0000
0000
0000
0000
0000
0000
,
0000
3200
0320
0230
,
0000
0000
0000
0000
0000
0000
0000
0000
0000
0000
0000
0000
0320
0000
0000
0000
0000
0000
0000
0000
0000
0000
0000
0000
0032
0000
0000
0000
0000
0000
0000
0000
0000
0000
0000
0003
0010
0000
0000
0010
0000
0000
1000
0000
0000
0010
0000
0000
,
0100
0100
0001
0100
1000
1000
0001
0010
0001
0001
0010
0100
0010
0010
1000
0010
,
0100
0100
1000
0100
0001
0001
0100
0100
0010
0010
1000
0001
0120
0000
0000
0000
,
0000
0000
2130
0000
3200
0320
0132
0000
,
0000
0000
0000
0000
0000
0000
0000
0000
0203
0000
0000
0000
2300
0000
0000
0000
3200
0000
0000
0300
0200
0000
0000
0000
0321
0000
0000
0000
0000
0000
0000
0000
,
0000
0000
0000
0000
0000
0000
0000
0000
0000
0000
0000
0000
0000
0000
0000
0000
0000
0000
0000
0000
0000
0000
0000
0000
0000
0000
0000
0000
0000
0000
0000
0000
0000
0000
0000
0000
0000
0000
0000
0000
0000
0000
0000
0000
0000
0000
0000
0000
0000
0000
0000
0000
0000
0000
0000
0000
0000
0000
0000
0000
0000
0000
0000
0000
0000
0000
0000
0000
0000
0000
0000
0000
0000
0000
0000
0000
0000
0000
0000
0000
0000
0000
0000
0000
0000
0000
0000
0000
0000
0000
0000
0000
0000
0000
0000
0000
0230
0000
0000
0000
0000
0000
0300
0000
0000
0000
0000
0000
0002
0000
0000
0000
0000
0000
0003
0000
0000
0000
0000
0000
0000
0000
0000
0000
0200
0000
0000
0000
0000
0300
0000
0000
0000
0000
0000
0000
0000
0000
0000
0000
0000
0000
0000
0000
0020
0000
0000
0000
0000
0000
0000
0000
0000
0000
0000
0000
0000
0000
0000
0000
0000
0000
0000
0000
0000
0000
0000
0000
0000
0000
0000
0000
0000
0000
0000
0000
0000
0000
0000
0000
0000
0000
0000
0000
0000
0000
0000
0000
0000
0000
0000
0000
,
0000
0000
0230
0000
0302
0000
0000
0000
0000
0000
0000
0000
0013
0010
1000
1000
,
0100
0100
0010
0010
0100
0100
0001
0001
1000
1000
0100
0100
0020
0000
0000
0000
,
0000
0000
0000
0000
0230
0000
0000
0000
0320
0000
0000
0000
0000
0000
0230
0000
0000
0000
0000
0000
0302
0000
0000
0003
1002
0000
0103
0000
0010
0000
0100
0000
,
1000
0100
0001
0100
0010
0100
1000
0100
0001
0100
0010
0100
0001
0010
0001
1000
,
0001
0000
0000
0010
0000
0000
0001
0000
0000
1000
0000
0000
0001
0000
0000
0010
0000
0000
0001
0000
0000
1000
0000
0000
0001
0000
0000
0010
0000
0000
0001
0000
0000
1000
0000
0000
0101
0020
0000
0000
0000
0000
0000
0000
0000
0000
0000
0000
,
0000
0000
0000
0000
0000
0000
0000
0000
0000
0000
0000
0000
0000
0000
0000
0000
0000
0000
0000
0000
0000
0000
0000
0000
0000
0000
0000
0000
0000
0000
0000
0000
0000
0000
0000
0030
0011
0000
0000
0000
0000
0000
1200
0000
0000
0310
0000
0000
,
0100
0010
0201
0300
0000
0000
0201
0300
1200
0000
0300
0000
2001
3010
1000
0100
,
0011
1000
0100
0010
0001
0100
0010
1000
0011
1000
0100
0010
0201
0310
0100
1000
,
0011
0100
0010
0001
0100
0010
1000
0100
0011
0100
0010
0001
1020
0031
1000
0100
,
0011
1000
0001
0010
0100
0001
0010
0100
0011
1000
0100
0010
1002
0103
0010
1000
,
0011
0100
0010
0001
0010
0100
0001
1000
0011
0000
1000
0000
0011
0000
0100
0000
,
0000
0000
0110
0000
1000
0000
0010
0000
1100
0000
0000
0000
0011
0100
0010
0000
,
0000
0000
0011
0100
0010
0000
1000
0000
0110
0000
1000
0000
0101
0000
0010
0000
,
1000
0000
0110
0000
0001
0000
0100
0000
1010
0000
0100
0000
0010
0000
1000
0001
,
1000
0000
1000
0001
1000
0001
0100
0010
1000
0100
0010
0001
0110
0000
1010
0100
,
0010
0001
0110
0001
0100
1000
0110
0001
0010
0100
1010
0000
0100
0000
1001
0010
,
0001
0010
1100
0001
1000
0100
0011
0100
0001
1000
0101
0000
0010
0000
1100
0001
,
1000
0100
0011
1000
0100
0010
0101
0010
0100
0001
1010
0000
0100
0010
1100
0001
,
0010
0000
0000
0000
0001
0000
0000
0000
0110
0000
0000
0000
1000
0000
0000
0000
0201
0300
0000
0000
0000
0000
0000
0000
1010
0000
0000
0000
0000
0000
0000
0000
0120
0030
0000
0000
0000
0000
0000
0000
1001
0000
0000
0000
0100
0000
0000
0000
0012
0003
0000
0000
0000
0000
0000
0000
0101
0000
0000
0000
0010
0000
0000
0000
,
0100
0010
1100
0001
0010
0100
1001
0100
0001
1000
0110
0000
0010
0000
0101
1000
,
0100
0000
0000
0000
0010
0000
0000
0000
1100
0000
0000
0000
0001
0000
0000
0000
0010
0000
0000
0000
1000
0000
0000
0000
0101
0000
0000
0000
1000
0000
0000
0000
0001
0000
0000
0000
0010
0000
0000
0000
1001
0000
0000
0000
0000
0000
0000
0000
2010
3000
0000
0000
0000
0000
0000
0000
0101
0000
0000
0000
1000
0000
0000
0000
,
0001
0000
0000
0000
0010
0000
0000
0000
1100
0000
0000
0000
0010
0000
0000
0000
2001
3000
0000
0000
0100
0000
0000
0000
0011
0000
0000
0000
1000
0000
0000
0000
0100
0000
0000
0000
0010
0000
0000
0000
0101
0000
0000
0000
0010
0000
0000
0000
2100
3000
0000
0000
0001
0000
0000
0000
1100
0000
0000
0000
0010
0000
0000
0000
,
0100
0000
1001
0010
1001
0100
0001
0010
1000
0100
0010
0100
0012
0000
1000
0000
,
0000
1000
0000
1000
0000
1000
0203
1000
,
0000
0000
1000
0000
0000
0000
1000
0000
0000
0000
1310
0001
0020
0000
1000
0000
,
0000
1000
0000
1000
0000
1000
0230
0010
,
0000
0000
0010
0300
2000
0000
0010
3002
0000
0000
2013
0000
3020
0000
0001
0000
,
0000
0001
0000
0001
0230
1000
0302
1000
,
0000
1000
0000
1000
0000
1000
0203
1000
,
0000
0000
0000
0000
1302
0003
0020
0030
2000
0000
0000
0000
0001
0000
0000
0000
0000
0000
0000
0000
0001
0000
0000
0000
3101
0000
0000
0000
0100
0000
0010
0000
,
0101
0000
0100
0010
0101
0000
0100
0010
0101
0000
0101
0000
0100
0010
0101
0000
,
0100
0010
0101
0000
0100
0010
0101
0000
2001
3100
0011
0100
1000
0100
1001
0010
,
0100
1000
0101
1000
0100
0001
1010
0001
1200
0310
1001
0100
0010
0001
0110
0001
,
0010
0100
1010
0001
0100
0010
1100
0001
1020
0130
0011
1000
0100
0010
1001
0010
,
0100
1000
0101
0010
1000
0001
1010
0100
0012
0103
1001
0010
0100
1000
0011
1000
,
0001
0010
0100
1000
0001
0010
0100
1000
0110
0000
0000
0000
0100
0000
1010
0000
,
0101
0000
0000
0000
0000
0000
0000
0000
0000
0000
0100
0000
0000
0000
0000
0000
0000
0000
0000
1010
0000
0000
0000
0000
0000
0000
0000
0000
0000
0000
0000
0000
0000
0000
0000
0000
0000
0000
0000
1001
0000
0000
0000
0000
0000
0000
0000
0000
1100
0000
0000
0000
0000
0000
0000
0000
0001
0000
0000
0000
0000
0000
0000
0000
,
0010
0000
0000
0000
0000
0000
0000
0000
0000
0000
0000
0000
0000
0000
0000
0000
0000
0000
0000
0000
0000
0000
0000
0000
1100
0000
0000
0000
0000
0000
0000
0000
0000
0000
0000
0000
0000
0000
0000
0000
0000
0000
0000
0000
0000
0000
0000
0000
1001
0000
0000
0000
0000
0000
0000
0000
0000
0000
0000
0000
0000
0000
0000
0000
0000
0000
0000
0000
0000
0000
0000
0000
0000
0000
0000
0000
0000
0000
0000
0000
0000
0101
0000
0000
0000
0000
0000
0000
0000
0000
0000
0000
0000
0000
0000
0000
0000
0000
0000
0000
0000
0000
0000
0000
0000
0000
0000
0000
0000
0000
0000
0000
0000
0000
0000
0000
0000
0000
0000
0000
0000
0000
0000
0000
0000
0000
0000
0000
0000
0000
0000
0000
0000
0000
0000
0000
0000
0000
0000
0000
0000
0000
0000
0000
0011
0000
0000
0000
0000
0000
0000
0000
1000
0000
0000
0000
0000
0000
0000
0000
0001
0000
0000
0000
0000
0000
0000
0000
1000
0000
0000
0000
0000
0000
0000
0000
0001
0000
0000
0000
0000
0000
0000
0000
1000
0000
0000
0000
0000
0000
0000
0000
,
0001
1000
0001
1000
0001
1000
0001
1000
0001
1000
0001
1000
0001
1000
0001
1000
0001
1000
0001
1000
0001
1000
0001
1000
,
0001
1000
0001
1000
0001
1000
0001
1000
0001
1000
0001
1000
0001
1000
0001
1000
0001
1000
0001
1000
0001
1000
0001
1000
,
0001
0000
0000
0000
0000
0000
0000
0000
1000
0000
0000
0000
0000
0000
0000
0000
0001
0000
0000
0000
0000
0000
0000
0000
0000
0000
0000
0000
0000
0000
0000
0000
0000
0000
0000
0000
0000
0000
0000
0000
0000
0000
0000
0000
0000
0000
0000
0000
0000
0000
0000
0000
0000
0000
0000
0000
0000
0000
0000
0000
0100
0000
0000
0000
0010
0000
0000
0000
0000
1001
0000
0000
0000
0000
0000
0000
1001
0000
0000
0000
0000
0000
0000
0000
0000
0000
0000
0000
0000
0000
0000
0000
0000
0000
0000
0000
0000
0000
0000
0000
0000
0000
0000
0000
0000
0000
0000
0000
0000
0000
0000
0000
0000
0000
0000
0000
0000
0000
0000
0000
0220
0000
0000
0000
0000
0000
0000
0000
0000
0000
0000
0000
0000
0000
0000
0000
0000
0000
0000
0000
0000
0000
0000
0000
0000
0000
0000
0000
0000
0000
0000
0000
0000
0330
0000
0000
0000
0000
0000
0000
0000
0000
0000
0000
0000
0000
0000
0000
0000
0000
0000
0000
0000
0000
0000
0000
0000
0000
0000
0000
0000
0000
0000
0000
0000
0000
0000
0000
0000
0000
0000
0000
;

//---------------dance-single - ----------------
#NOTES:
     dance-single:
     :
     Hard:
     11:
     1.000,1.000,1.000,0.591,1.000,1316.000,205.000,120.000,0.000,7.000:
0110
1000
0100
0010
,
1100
0000
0010
0000
0101
0010
0100
1000
,
0110
1000
0100
0010
,
0201
0000
0000
0000
0000
0000
0310
0100
2010
0000
0000
0000
0000
0000
0000
0000
,
3110
1000
0100
0010
,
1100
0000
0010
0000
0101
0010
0100
1000
,
0110
0000
0101
0000
1000
0000
0010
0000
0110
0000
0100
0001
0010
0001
1000
0000
,
0201
0310
0001
1000
0000
0010
0100
0000
2010
3001
0010
0100
1000
0001
0010
0100
,
0011
0000
1000
0010
1000
0010
0100
0000
0010
0000
0100
0010
0100
0010
1000
0000
,
0100
0000
0010
0001
0010
0001
0100
0000
0001
0000
1000
0001
1000
0001
0010
0000
,
0001
0000
0100
0010
0100
0010
1000
0000
0001
0000
0100
0001
0100
0001
1000
0000
,
0101
0000
1000
0001
1000
0001
0100
0000
1010
0000
0100
0010
0100
0010
1001
0000
,
0010
0000
1000
0001
0100
0001
0010
0000
0001
0000
0010
0100
1000
0100
0010
0000
,
0001
0000
0100
0001
1000
0001
0100
0000
0010
0000
0100
0001
1000
0001
0010
0000
,
1100
0010
0100
0001
0000
0000
1010
0100
0010
0001
1000
0000
0011
0100
0010
1000
,
0110
0000
0000
0100
0000
0000
0010
0000
1000
0100
0010
0001
0010
0100
1000
0010
,
0201
0000
0302
0023
0032
0000
0203
0000
,
0302
0000
0000
0000
0023
0000
0000
0000
0230
0000
0000
0000
1300
0010
1000
0010
,
2000
3200
0320
0032
,
1003
0010
1000
0001
0010
0100
0010
0100
0010
0001
0100
0010
1000
0001
1000
0001
,
1100
0000
0011
0000
0000
0000
1010
0000
0100
0010
1001
0000
0100
0010
1001
0000
,
0100
0000
0110
0000
0000
0000
1010
0000
0100
1000
0011
0000
0100
1000
0011
0000
,
0100
0000
0101
0000
0000
0000
1010
0000
0010
0000
0101
0000
1000
0001
0110
0000
,
0100
0000
1001
0010
0000
0010
1001
0000
0100
0001
1010
0000
0100
0001
1010
0000
,
1001
0010
0001
1000
0001
0010
0001
1000
0001
0010
0001
1000
0001
0010
0001
1000
,
0010
0100
0010
1000
0010
0100
0010
1000
0010
0100
0010
1000
0010
0100
0010
1000
,
0001
0100
0001
0100
0001
0100
0001
0100
0001
0100
0001
0100
0001
0100
0001
0100
,
0010
1000
0010
1000
0001
0010
0100
0010
0001
0010
0100
1000
0100
0010
0001
1000
,
0101
0000
0011
0000
1000
0010
0101
0000
0001
0000
1010
0000
0100
0010
1001
0000
,
0100
0000
0011
0000
0000
0000
1001
0000
0010
0001
1100
0000
0010
0001
1100
0000
,
0001
0000
0101
0000
0000
0000
1010
0000
0001
0000
1100
0000
0001
0100
1010
0000
,
1000
0000
0110
0001
0000
0001
0110
0000
1000
0010
0101
0000
1000
0010
0101
0000
,
1001
0010
1000
0001
1000
0010
1000
0001
1000
0010
1000
0001
1000
0010
1000
0001
,
0100
1000
0100
0010
0100
1000
0100
0010
0100
1000
0100
0010
0100
1000
0100
0010
,
2002
0000
0000
0000
0000
0000
0000
0000
0000
0000
0000
0000
0000
0000
0000
3003
0200
0000
0000
0000
0000
0000
0000
0000
0000
0000
0000
0000
0000
0000
0000
0000
,
0302
0000
0000
0000
0000
0000
0000
0000
0000
0000
0003
0000
0002
0000
0000
0003
0012
0000
0000
0000
1003
0000
0100
0000
0020
0000
0031
0000
0200
0000
0301
0000
,
2010
3000
0110
0000
0001
0010
1100
0000
0100
0001
1010
0000
0010
1000
0101
0000
,
0001
0000
0110
0000
1000
0010
0101
0000
0001
1000
0110
0000
0001
0100
1010
0000
,
0110
0000
0011
0000
0100
0010
1001
0000
0100
0000
0011
1000
0000
1000
0011
0000
,
0100
0010
1001
0000
0010
0100
1001
0000
0001
0000
1100
0000
0001
0100
1010
0000
,
1001
0000
0011
0000
0100
0001
1010
0000
1000
0100
0011
0000
1000
0001
0110
0000
,
1001
0000
0101
0000
0010
0001
1100
0000
0100
0000
1010
0000
0001
1000
0110
0000
,
1010
0000
0101
0010
0000
0010
0101
0000
0010
0000
1001
0100
0000
0100
1001
0000
,
0011
0100
0010
1000
0010
0100
0001
0010
0100
1000
0001
0010
0100
1000
0001
1000
,
0011
0100
0010
1000
0100
0010
0100
1000
0001
0010
0100
1000
0101
0010
0001
0010
,
1001
0100
0001
1000
0010
0100
0011
1000
0101
0010
0001
1000
0001
1000
0101
0010
,
1001
0010
1000
0100
0010
0100
1000
0001
0010
0100
1000
0010
1100
0001
0100
0001
,
1010
0100
0010
0001
1000
0010
0100
0001
1010
0100
0010
0001
0110
0001
1000
0010
,
0101
1000
0001
0010
0100
1000
0001
0010
0100
0010
0001
0010
1100
0001
1000
0010
,
1001
0100
0001
1000
0100
0010
0101
0010
1001
0100
0001
1000
0001
0010
1100
0001
,
1010
0100
0010
1000
0001
0010
0101
1000
0110
1000
0010
0100
0001
1000
0100
0010
,
0001
1000
0001
0010
0100
0000
0010
0100
0010
0100
1000
0001
0010
0100
1000
0001
,
1200
0000
0000
0000
0000
0000
0000
0000
0000
0000
0000
0000
0000
0000
0310
0100
,
0020
0000
0000
0000
0000
0000
0000
0000
0000
0000
0000
0000
0000
0000
1030
0100
,
2000
0000
0000
0000
,
3002
0000
0000
0000
0000
0000
0000
0003
0200
0000
0000
0320
0000
0000
0230
0000
,
2300
0000
0000
3020
,
0230
0000
0000
0000
,
0302
0000
0000
0000
0000
0000
0000
0000
0000
0000
0000
0000
0023
0030
0200
0300
2000
0000
0000
0000
0000
0000
0000
0000
0000
0000
0000
0000
0000
0000
0000
0000
,
3101
0000
0010
1000
0101
0000
0010
1000
0101
0000
0010
1000
0101
0000
0101
0000
,
0010
1000
0101
0000
0010
1000
0101
0000
0010
1000
0101
0000
2001
0000
0000
0000
,
0000
0000
0000
0000
0000
0000
0000
0000
0000
0000
0000
0000
0000
0000
0000
0000
0000
0000
0000
0000
0000
0000
0000
0000
0000
0000
0000
0000
0000
0000
0000
0000
0000
0000
0000
0000
0000
0000
0000
0000
3000
0000
0100
0000
0000
0000
0000
0000
0020
0000
0000
0000
0000
0000
0000
0000
0000
0000
0000
0000
0000
0000
0000
0000
0000
0000
0000
0000
0000
0000
0000
0000
0000
0000
0000
0000
0000
0000
0000
0000
0000
0000
0000
0000
0000
0000
0000
0000
0000
0000
0000
0000
0000
0000
0000
0000
0000
0000
0000
0000
0000
0000
0000
0000
0000
0000
0000
0000
0000
0000
0000
0000
0000
0000
0000
0000
0000
0000
0000
0000
0230
0000
0000
0000
0000
0000
0300
0000
0000
0000
0000
0000
0020
0000
0000
0000
0000
0000
0030
0000
0000
0000
0000
0000
0002
0000
0000
0000
0000
0000
0000
0000
0000
0000
0000
0000
0000
0000
0000
0000
0000
0000
0000
0000
0000
0000
0000
0000
0000
0000
0000
0000
0000
0000
0000
0000
0000
0000
0000
0000
0000
0000
0000
0000
0000
0000
0000
0000
0000
0000
0000
0000
,
0000
0000
0000
0000
0023
0000
0000
0000
0031
1000
0001
1000
0101
0000
0010
0001
,
0100
0001
1000
0000
0100
0000
0010
0001
0100
0001
1000
0000
0010
0000
1000
0001
,
0010
0001
0100
0000
0010
0000
1000
0001
0010
0001
0100
0000
1001
0010
0100
1000
,
0100
0010
0001
0000
0000
0000
1000
0010
0100
0010
1000
0100
0010
0100
1000
0001
,
0010
0000
0001
0000
0100
0000
0010
0000
1000
0000
0010
0000
0100
0000
0001
0000
0020
0030
0200
0300
0020
0030
0000
0000
2100
0000
0000
0000
0000
0000
0000
0000
,
0000
0000
0000
0000
0000
0000
0000
0000
0000
0000
0000
0000
0000
3000
0010
0000
0200
0000
0000
0000
0000
0000
0000
0000
0000
0000
0000
0000
0000
0000
0000
0000
0000
0000
0000
0000
0000
0000
0000
0000
0000
0000
0000
0000
0000
0000
0000
0000
2300
0000
0000
0000
0000
0000
0000
0000
0000
0000
0000
0000
0000
0000
0000
0000
,
0000
3200
0320
0132
,
0000
2003
0000
3200
,
0000
0000
0000
0000
0000
0000
0000
0000
0320
0000
0000
0000
0000
0000
1030
0000
0200
0000
0000
0000
0000
0000
0300
1000
0002
0000
0000
0000
0000
0000
0000
0000
,
0000
0000
0000
0000
0000
0000
0000
0000
0000
0000
0000
0000
0000
0000
0000
0000
0000
0000
0000
0000
0000
0003
0010
0000
0200
0000
0000
0000
0000
0000
0320
0000
0000
0000
0000
0000
2030
0000
0000
0000
0000
0000
0000
0000
0000
0000
0000
0000
,
0000
0000
0000
0000
0000
3001
0100
0000
0001
1000
0001
1000
0210
0000
0000
0000
,
0000
0000
0000
0000
0000
0000
0000
0000
0000
0000
0000
0000
0000
0000
0000
0000
0000
0000
0000
0000
0000
0000
0000
0000
0000
0000
0000
0000
0000
0000
0000
0000
0000
0000
0300
0000
0100
0000
0000
0010
0000
0000
0001
0000
0000
0010
0000
0000
,
0100
1000
0010
0100
0001
0010
0100
1000
0001
0010
0100
1000
0001
0010
0100
1000
,
0001
0010
0100
1000
0001
0010
0100
1000
0100
0010
0100
1000
0210
0000
0000
0000
,
0000
0000
0000
0000
2300
0000
0000
0000
0000
0000
3010
1000
0101
1000
0001
0100
,
1001
0010
0001
1000
0001
0100
0001
0010
1001
0100
0010
0000
0110
1000
0100
0010
,
0001
1000
0010
1000
0010
0100
0001
1000
0100
0010
0001
1000
0001
0010
0100
1000
,
0010
0100
0001
1000
0100
0010
0001
1000
0100
0010
0100
1000
0021
0000
0000
0000
,
0000
0000
0000
0000
0000
0000
0000
0000
0000
0000
0000
0000
0000
0000
0000
0000
0230
0300
0002
0003
0200
0300
0000
0000
2000
0000
0000
0000
0000
0000
0000
0000
,
0000
0000
0000
0000
0000
0000
0000
0000
0000
0000
0000
0000
0000
0000
0000
0000
0000
0000
0000
0000
0000
0000
0000
0000
0000
0000
0000
0000
0000
0000
3000
0000
0020
0000
0000
0000
0000
0000
0000
0000
0030
0000
0000
0000
0000
0200
0000
0000
0000
0000
0000
0000
0300
0000
0000
0000
0000
0000
0000
0000
2000
0000
0000
0000
0000
0000
0000
0000
0000
0000
0000
0000
3000
0000
0000
0000
0000
0000
0000
0000
0000
0000
0000
0000
0000
0000
0000
0000
0000
0000
0200
0000
0000
0000
0000
0000
0000
0000
0000
0000
0000
0000
0300
0000
0000
0000
0000
0000
0000
0000
0000
0000
0000
0000
0000
0000
0000
0000
0000
0000
0020
0000
0000
0000
0000
0000
0000
0000
0000
0000
0000
0000
0030
0000
0000
0000
0000
0000
0000
0000
0000
0000
0000
0000
2001
0000
0000
0000
0000
0000
0000
0000
0000
0000
0000
0000
0000
0000
0000
0000
0000
0000
0000
0000
0000
0000
0000
0000
0000
0000
0000
0000
0000
0000
0000
0000
0000
0000
0000
0000
0000
0000
0000
0000
0000
0000
0000
0000
0000
0000
0000
0000
,
0000
3200
0320
0230
,
0000
0000
0000
0000
0000
0000
0000
0000
0000
0000
0000
0000
0320
0000
0000
0000
0000
0000
0000
0000
0000
0000
0000
0000
0032
0000
0000
0000
0000
0000
0000
0000
0000
0000
0000
0003
0010
0000
0000
0100
0000
0000
1000
0000
0000
0100
0000
0000
,
0010
0001
1000
0001
0010
0100
1000
0100
0010
0001
0100
0010
1000
0001
1000
0100
,
0010
0001
0100
0001
0010
0100
1000
0001
0010
0100
0010
0001
0120
0000
0000
0000
,
0000
0000
2130
0000
3200
0320
0132
0000
,
0000
0000
0000
0000
0000
0000
0000
0000
0203
0000
0000
0000
2300
0000
0000
0000
3200
0000
0000
0300
0200
0000
0000
0000
0321
0000
0000
0000
0000
0000
0000
0000
,
0000
0000
0000
0000
0000
0000
0000
0000
0000
0000
0000
0000
0000
0000
0000
0000
0000
0000
0000
0000
0000
0000
0000
0000
0000
0000
0000
0000
0000
0000
0000
0000
0000
0000
0000
0000
0000
0000
0000
0000
0000
0000
0000
0000
0000
0000
0000
0000
0000
0000
0000
0000
0000
0000
0000
0000
0000
0000
0000
0000
0000
0000
0000
0000
0000
0000
0000
0000
0000
0000
0000
0000
0000
0000
0000
0000
0000
0000
0000
0000
0000
0000
0000
0000
0000
0000
0000
0000
0000
0000
0000
0000
0000
0000
0000
0000
0230
0000
0000
0000
0000
0000
0300
0000
0000
0000
0000
0000
0002
0000
0000
0000
0000
0000
0003
0000
0000
0000
0000
0000
0000
0000
0000
0000
0200
0000
0000
0000
0000
0300
0000
0000
0000
0000
0000
0000
0000
0000
0000
0000
0000
0000
0000
0000
0020
0000
0000
0000
0000
0000
0000
0000
0000
0000
0000
0000
0000
0000
0000
0000
0000
0000
0000
0000
0000
0000
0000
0000
0000
0000
0000
0000
0000
0000
0000
0000
0000
0000
0000
0000
0000
0000
0000
0000
0000
0000
0000
0000
0000
0000
0000
0000
,
0000
0000
0230
0000
0302
0000
0000
0000
0000
0000
0000
0000
0103
0001
1000
0001
,
0100
0001
1000
0001
0100
0001
0010
0001
1000
0001
0100
0001
0020
0000
0000
0000
,
0000
0000
0000
0000
0230
0000
0000
0000
0320
0000
0000
0000
0000
0000
0230
0000
0000
0000
0000
0000
2300
0000
0000
3000
2001
0000
3010
0000
0100
0000
0010
0000
,
0001
0010
1000
0010
0100
0010
0001
0010
1000
0010
0100
0010
1000
0100
1000
0001
,
1000
0000
0000
0100
0000
0000
1000
0000
0000
0001
0000
0000
1000
0000
0000
0100
0000
0000
1000
0000
0000
0001
0000
0000
1000
0000
0000
0100
0000
0000
1000
0000
0000
0001
0000
0000
0100
0020
0000
0000
0000
0000
0000
0000
0000
0000
0000
0000
,
0000
0000
0000
0000
0000
0000
0000
0000
0000
0000
0000
0000
0000
0000
0000
0000
0000
0000
0000
0000
0000
0000
0000
0000
0000
0000
0000
0000
0000
0000
0000
0000
0000
0000
0000
0030
0011
0000
0000
0000
0000
0000
1100
0000
0000
0010
0000
0000
,
0100
0010
0101
0000
0000
0000
0101
0000
1100
0000
0000
0000
1001
0010
1000
0100
,
0010
0001
1000
0100
0010
0100
0010
0001
0010
0100
1000
0010
1001
0010
0100
1000
,
0001
1000
0100
0010
0001
0100
0010
0100
0001
0010
0100
1000
0101
0010
0100
0001
,
1000
0001
1000
0100
0010
0001
0010
0100
1000
0010
1000
0100
0011
1000
0100
0010
,
0001
0010
0100
1000
0010
0100
0001
1000
0011
0000
1000
0000
0011
0000
0100
0000
,
0000
0000
0110
0000
1000
0000
0010
0000
1100
0000
0000
0000
0011
0100
0010
0000
,
0000
0000
0011
0100
0010
0000
1000
0000
0110
0000
1000
0000
0101
0000
0010
0000
,
1000
0000
0110
0000
0001
0000
0100
0000
1010
0000
0100
0000
0010
0000
1000
0001
,
1000
0000
1000
0001
1000
0001
0100
0010
1000
0100
0010
0001
1100
0010
1000
0001
,
0010
0100
0010
0001
1000
0100
0010
0001
0110
0001
0100
0010
1001
0010
1000
0100
,
1000
0010
0101
1000
0011
0100
0001
1000
0001
1000
0011
0100
1001
0010
0100
0001
,
0010
0100
1000
0001
1000
0100
0010
0001
1100
0001
0100
0010
1001
0010
1000
0100
,
1000
0001
0010
0100
1010
0001
0010
0100
1001
0010
0100
1000
0101
1000
0100
0010
,
0001
1000
0100
1000
0010
1000
0100
0010
0101
1000
0010
0100
0011
1000
0001
1000
,
0010
0100
0011
0100
1001
0010
0100
1000
0100
0010
1001
0100
1010
0100
0010
0001
,
1000
0010
0101
1000
0110
1000
0010
0100
0001
1000
0100
0010
0001
0100
0001
1000
,
0100
0000
1000
0001
1000
0001
0010
0100
1000
0001
0100
0010
2100
0000
0000
0000
,
0000
0000
0000
3002
,
0000
0000
0000
0000
0000
0000
0000
0000
0000
0000
0013
0100
0020
0000
0000
0000
,
0000
0000
0000
0230
,
0000
0000
0000
0300
2000
0000
0000
3002
0000
0000
2003
0000
3200
0000
0000
0000
,
0000
0000
0320
0230
,
0000
0000
0000
2300
,
0000
0000
0000
0000
3020
0030
0200
0300
0002
0000
0000
0000
0000
0000
0000
0000
0000
0000
0000
0000
0000
0000
0000
0000
0113
0000
0000
0000
1000
0000
0001
0000
,
0110
0000
1000
0001
0110
0000
1000
0001
0110
0000
0110
0000
1000
0001
0110
0000
,
1000
0001
0110
0000
1000
0001
0110
0000
1100
0001
1000
0100
0010
0100
1000
0100
,
0010
0001
0010
0100
1000
0001
0010
0001
1100
0010
1000
0100
0010
0001
0100
0001
,
0010
0100
1000
0001
0100
0010
0100
0001
1010
0100
0010
1000
0100
0010
0001
0010
,
0100
1000
0100
0010
0001
1000
0100
0010
1001
0100
0001
0010
0100
1000
0001
1000
,
0001
0010
0100
1000
0001
0010
0100
1000
0110
0000
0000
0000
0100
0000
0010
0000
,
0101
0000
0000
0000
0000
0000
0000
0000
0000
0000
0100
0000
0000
0000
0000
0000
0000
0000
0000
1010
0000
0000
0000
0000
0000
0000
0000
0000
0000
0000
0000
0000
0000
0000
0000
0000
0000
0000
0000
1001
0000
0000
0000
0000
0000
0000
0000
0000
0110
0000
0000
0000
0000
0000
0000
0000
1000
0000
0000
0000
0000
0000
0000
0000
,
0001
0000
0000
0000
0000
0000
0000
0000
0000
0000
0000
0000
0000
0000
0000
0000
0000
0000
0000
0000
0000
0000
0000
0000
0110
0000
0000
0000
0000
0000
0000
0000
0000
0000
0000
0000
0000
0000
0000
0000
0000
0000
0000
0000
0000
0000
0000
0000
1001
0000
0000
0000
0000
0000
0000
0000
0000
0000
0000
0000
0000
0000
0000
0000
0000
0000
0000
0000
0000
0000
0000
0000
0000
0000
0000
0000
0000
0000
0000
0000
0000
0101
0000
0000
0000
0000
0000
0000
0000
0000
0000
0000
0000
0000
0000
0000
0000
0000
0000
0000
0000
0000
0000
0000
0000
0000
0000
0000
0000
0000
0000
0000
0000
0000
0000
0000
0000
0000
0000
0000
0000
0000
0000
0000
0000
0000
0000
0000
0000
0000
0000
0000
0000
0000
0000
0000
0000
0000
0000
0000
0000
0000
0000
0000
0011
0000
0000
0000
0000
0000
0000
0000
1000
0000
0000
0000
0000
0000
0000
0000
0001
0000
0000
0000
0000
0000
0000
0000
1000
0000
0000
0000
0000
0000
0000
0000
0001
0000
0000
0000
0000
0000
0000
0000
1000
0000
0000
0000
0000
0000
0000
0000
,
0001
1000
0001
1000
0001
1000
0001
1000
0001
1000
0001
1000
0001
1000
0001
1000
0001
1000
0001
1000
0001
1000
0001
1000
,
0001
1000
0001
1000
0001
1000
0001
1000
0001
1000
0001
1000
0001
1000
0001
1000
0001
1000
0001
1000
0001
1000
0001
1000
,
0001
0000
0000
0000
0000
0000
0000
0000
1000
0000
0000
0000
0000
0000
0000
0000
0001
0000
0000
0000
0000
0000
0000
0000
0000
0000
0000
0000
0000
0000
0000
0000
0000
0000
0000
0000
0000
0000
0000
0000
0000
0000
0000
0000
0000
0000
0000
0000
0000
0000
0000
0000
0000
0000
0000
0000
0000
0000
0000
0000
0100
0000
0000
0000
0010
0000
0000
0000
0000
1001
0000
0000
0000
0000
0000
0000
0100
0000
0000
0000
0000
0000
0000
0000
0000
0000
0000
0000
0000
0000
0000
0000
0000
0000
0000
0000
0000
0000
0000
0000
0000
0000
0000
0000
0000
0000
0000
0000
0000
0000
0000
0000
0000
0000
0000
0000
0000
0000
0000
0000
0220
0000
0000
0000
0000
0000
0000
0000
0000
0000
0000
0000
0000
0000
0000
0000
0000
0000
0000
0000
0000
0000
0000
0000
0000
0000
0000
0000
0000
0000
0000
0000
0000
0330
0000
0000
0000
0000
0000
0000
0000
0000
0000
0000
0000
0000
0000
0000
0000
0000
0000
0000
0000
0000
0000
0000
0000
0000
0000
0000
0000
0000
0000
0000
0000
0000
0000
0000
0000
0000
0000
0000
;
