#TITLE:Feels Like That Night;
#SUBTITLE:-Radio Edit-;
#ARTIST:Does It Matter;
#TITLETRANSLIT:;
#SUBTITLETRANSLIT:;
#ARTISTTRANSLIT:;
#CREDIT:;
#BANNER:;
#BACKGROUND:;
#LYRICSPATH:;
#CDTITLE:;
#MUSIC:eskimo_amp_icebird_feels_just_like_that_night_radio_edit.ogg;
#OFFSET:0.094;
#SAMPLESTART:44.380;
#SAMPLELENGTH:12.000;
#SELECTABLE:YES;
#BPMS:0.000=135.000,206.000=33.750,209.500=67.500,233.500=135.000,303.500=270.000,304.500=135.000;
#STOPS:0.000=0.030
,303.500=0.220
,304.500=0.220
;
#BGCHANGES:;
// cache tags:
#FIRSTBEAT:14.000;
#LASTBEAT:502.500;
#SONGFILENAME:Songs/lvsb tourney pack/Feels just like that night long ver/feels like that night.sm;
#HASMUSIC:1;
#HASBANNER:0;
#MUSICLENGTH:105.000;
// end cache tags

//---------------dance-single - Blank----------------
#NOTES:
     dance-single:
     Blank:
     Hard:
     11:
     1.000,1.000,0.733,0.705,1.000,1190.000,77.000,74.000,178.000,2.000:

0000
0000
0000
0000
,
0000
0000
0000
0000
,
0000
0000
0000
0000
,
0000
0000
0000
0000
0001
2000
0000
3200
,
M000
2300
0M00
3020
M000
0230
00M0
0320
,
0M00
0000
0031
0100
00M1
0000
1000
0000
0010
0000
0100
0010
1000
0000
0200
0000
,
0000
2300
0M00
3020
M000
0230
03M1
1M00
,
0100
0000
0010
0100
0010
0000
0001
0000
1000
0000
0010
0000
1000
0000
0002
0000
,
0000
0023
000M
0230
00M0
2300
0M00
3200
,
13MM
0000
0100
0000
0010
0000
0100
0010
0100
0000
1000
0000
0001
0000
0200
0000
,
0000
0320
0M00
2030
00M0
320M
13M0
0M01
,
2002
0000
0000
3003
0101
0000
1000
0010
1000
0000
0100
0000
0110
0000
0010
0100
,
0010
0000
0001
0000
1001
0000
0010
0100
0010
0000
1000
0000
1010
0000
0010
1000
,
0100
0000
0010
0000
0110
0000
0100
0010
0001
0000
0010
0000
0011
0000
0100
0010
,
0001
0000
0010
0000
0110
0000
0100
1000
0010
0000
0100
0000
0110
0000
0010
1000
,
0100
1000
1100
0010
0100
0010
0110
0001
,
0101
0000
0001
1100
0000
1000
0010
0100
,
0010
0000
1000
0010
1000
0000
0001
0000
0100
0000
0001
1000
0001
0000
1000
0001
,
1000
0000
0001
1000
0001
0000
1000
0000
0100
0010
0001
0000
0100
0010
1000
0000
,
1000
0001
1000
0001
1000
0001
1000
0001
1000
0001
1000
0001
1000
0001
1000
0001
,
1000
0010
1000
0001
1000
0001
1000
0001
0010
0001
1000
0001
1000
0001
1000
0100
,
1000
0001
1000
0001
0100
0001
1000
0100
1000
0001
0100
0001
1000
0100
1000
0010
,
1000
0001
0010
0001
1000
0010
1000
0001
0010
0001
1000
0100
1000
0001
0100
0001
,
1000
0010
1000
0001
0010
0001
1000
0010
1000
0001
0010
0001
1000
0100
1000
0001
,
1000
0010
0100
0001
0100
0010
1000
0001
1000
0010
0100
0001
1000
0010
1000
0001
,
1000
0100
0010
0100
1000
0001
1000
0010
0100
0000
0010
0000
0100
0000
0010
1000
,
0010
1000
0100
1000
2100
0100
0010
3001
,
0012
0000
0010
0000
1000
0000
0010
0000
0103
0000
0010
0100
0010
0000
1000
0000
,
1100
0100
0000
M11M
0000
0010
0100
0001
,
0000
0101
0000
0100
0000
0100
1000
0010
,
0000
0010
0100
0010
0000
0010
1000
0010
,
1010
0000
0010
0000
0100
0000
0010
1000
0001
0000
0010
0000
0110
0000
0100
1000
,
0010
0000
0100
0000
0110
0000
0010
0100
0001
0000
0100
0000
0101
0000
0001
0010
,
0100
0000
0010
0000
0110
0000
0100
1000
0100
0000
1000
0000
0010
0000
0100
0010
,
1000
0000
0010
0000
1000
0000
0002
0000
M000
0003
M010
0000
0001
0000
1000
0000
,
0020
0000
M000
000M
0M00
M000
000M
0M00
M000
000M
0M00
M000
000M
0M00
0000
0000
,
1030
0001
2000
0000
0000
0000
302M
0000
0030
0000
100M
0100
1000
0000
020M
0000
,
0000
0000
230M
0000
3100
0000
010M
0010
0100
0000
100M
0000
0010
0000
010M
0000
,
0010
0000
200M
0000
3000
0000
002M
0000
0030
0000
100M
0100
0010
0000
002M
0000
,
0000
0000
M130
0010
0001
0000
0M01
1000
0001
0000
01M0
1000
0100
0000
10M0
0000
,
0001
0000
M200
0000
0000
0000
032M
0000
0000
0000
103M
0010
1000
0000
020M
0000
,
0000
0000
10MM
0000
1000
0000
031M
0100
1000
0000
10M0
0000
0001
0000
10M0
0000
,
1100
0101
M0M0
0001
0100
1001
0100
0011
,
0100
0000
1000
0010
0100
0000
0001
1000
0100
0000
0010
0001
0010
0000
0100
0010
,
0001
0000
0010
0100
1000
0000
0010
0100
0010
0000
0100
0001
0100
0000
0001
0100
,
0001
0000
0010
0001
0010
0000
0100
0010
0100
0000
0010
0100
1000
0000
0100
1000
,
0010
0000
1000
0010
0100
0000
0010
1000
0010
0000
0100
0010
1000
0000
0010
1000
,
0100
0000
1000
0100
0010
0000
0100
0010
0100
0000
1000
0100
0010
0000
0100
0010
,
0001
0000
0010
0001
0100
0000
0001
0100
0010
0000
0100
0010
0100
0000
0001
0100
,
0010
0000
0100
0001
0100
0000
0010
1000
0010
0000
1000
0100
1000
0000
0100
0010
,
0100
1000
0001
0100
0010
0100
0001
1000
0100
0010
0001
1000
0010
0000
1000
0000
,
0000
0000
0000
0000
0022
0000
0000
0000
0000
0000
0000
0000
0033
0000
0000
0000
1000
0010
0000
1000
0000
0100
0000
0010
0000
0100
0000
1000
0000
0000
0000
0000
,
0010
0000
1000
0000
0000
0000
1000
0000
0000
0000
0001
0000
0010
0000
0001
0000
0000
0000
1000
0000
0001
0010
0000
0010
0001
0000
0000
0000
1000
0000
0000
0000
1100
0000
0000
0000
0010
0000
0000
0000
0001
0000
0000
0000
1100
0000
0000
0000
1000
0000
0000
0000
0001
0000
0000
0000
1000
0000
0000
0000
0100
0000
0000
0000
,
0110
0000
0100
1000
0010
0000
0110
0000
0100
0010
1000
0000
0100
0000
0010
0000
0110
0000
0100
1000
0010
0000
0011
0000
0001
1000
0100
0000
0010
0000
0010
0000
,
0110
0000
0100
1000
0100
0000
0110
0000
1001
0000
0000
0000
1000
0000
0100
0000
0010
0000
0100
0000
0010
0000
0001
0000
1000
0000
0010
0000
0100
0000
0010
0000
,
0100
0010
1000
0001
1000
0010
1000
0001
1001
0001
1000
1001
0100
1000
0010
0100
,
0110
0010
0100
0110
0010
1000
0100
0010
0110
0100
0010
0110
0100
0010
0001
1000
,
0001
0001
1000
0001
1000
0010
0100
0020
0030
0020
0000
2030
0000
3200
0000
0320
,
0000
0000
0031
0000
0001
1000
0001
1000
0001
1000
0001
1000
0001
0000
1000
0000
0001
0000
1000
0000
0001
0000
1000
0000
0001
0000
1000
0000
0001
0000
1000
0000
,
0001
1000
0001
1000
0001
1000
0001
1000
0010
1000
0001
1000
0001
1000
0001
0010
,
0001
1000
0001
1000
0001
1000
0100
1000
0001
1000
0001
0100
0001
1000
0100
1000
,
0001
0100
0001
1000
0100
1000
0010
1000
0001
0010
0001
1000
0010
1000
0001
0010
,
0001
1000
0100
1000
0001
0100
0001
1000
0010
1000
0001
0010
0001
1000
0010
1000
,
0001
0010
0001
1000
0100
1000
0001
1000
0010
0100
0001
0100
0010
1000
0001
1000
,
0010
0100
0001
1000
0010
1000
0001
1000
0100
0010
0100
1000
0001
1000
0010
0000
,
0100
0000
0010
0000
0100
0010
1000
0000
0100
0000
0010
0000
0002
0000
0000
0000
,
0013
0000
0200
0000
0300
0000
2200
0000
0000
3300
0101
0000
0100
0000
0001
0000
,
0010
0100
1000
0000
0010
0000
1000
0000
0100
0000
1000
0000
1001
0000
0100
0000
,
0011
0100
0200
0000
2300
0000
0MMM
00M0
,
3MM1
0010
0001
0000
0100
1000
0010
0000
,
0010
0000
1000
0000
0100
0000
1000
0000
0100
1000
0100
0000
0010
0000
0001
0000
,
1000
0100
1000
1010
1001
M00M
0001
0000
,
0010
0100
1000
0000
1000
0010
0100
0010
,
0100
0010
0100
0000
0010
0000
0001
0000
0010
0000
0001
0000
0020
0000
0000
0000
,
0100
0030
0010
0000
1000
0000
0200
0000
0000
0000
0010
0300
0100
0010
0200
0000
,
0010
0000
0010
0000
0310
0000
0101
0000
0001
0000
0000
0000
1010
0000
1MM1
M00M
,
M00M
M00M
1MM1
0000
0100
0000
0000
0000
1000
0000
0100
1000
0100
0000
0100
0000
,
1000
0000
0010
0000
1000
0000
2000
0000
00M0
3000
20M0
0000
00M0
0000
30M1
1000
,
0010
0000
2000
0000
0000
0000
3010
0000
0100
0000
0001
1000
0001
0000
0100
0000
,
0010
0000
1000
0000
1000
0000
0010
0000
MMMM
0000
1000
0000
MMMM
0000
1000
0100
,
0010
0000
0200
0000
0000
0000
2300
0000
3010
0000
0100
0001
0100
0000
0001
0000
,
1000
0000
0100
0000
0010
0000
0010
0000
MMMM
0000
0100
0000
MMMM
0000
1000
0010
,
0100
0000
0100
0000
0001
0000
1001
0000
0100
0000
0010
0100
0010
0000
0M10
0000
,
0M10
0000
0001
0000
1001
0000
0010
0000
1001
0000
0100
0000
0110
0000
0100
1000
,
0010
0000
2000
0000
0MMM
0000
0010
3100
0001
0000
0100
0010
1000
0000
0001
0010
,
0100
0000
1000
0000
1100
0000
2200
0000
0000
0000
0011
0000
3300
0000
0100
2000
,
0010
0000
0010
3000
1000
0000
0001
0000
0001
0000
0010
1000
0010
0000
0100
0000
,
0100
0000
0010
0000
1000
0000
0100
0000
MMMM
0000
2000
0000
0000
0000
3100
0010
,
0100
0000
0020
0000
0000
0000
0031
0000
1000
0000
0001
1000
0001
0000
1000
0000
,
0010
0000
0100
0000
0110
0000
0220
0000
0000
0000
1001
0000
0330
0000
0100
0001
,
0100
0000
0020
0000
0000
0000
0130
0000
0010
0000
0100
0001
0010
0000
0001
0000
,
0010
0000
0100
0000
0010
0000
0200
0000
0000
0000
1000
0000
0300
0000
1000
0100
,
1000
1010
0000
2002
0000
0000
0000
0000
,
0000
0000
0000
0000
3003
0000
100M
01M0
,
100M
0000
M001
0M10
M001
0000
010M
M010
,
010M
0000
10M0
0M01
10M0
0000
010M
M010
,
010M
0000
100M
0M10
100M
0000
M001
01M0
,
M001
0000
M010
010M
M010
0000
M001
0M10
,
M001
0000
100M
01M0
100M
0000
010M
M010
,
010M
0000
100M
0M10
100M
0000
M001
01M0
,
M001
100M
01M0
0000
1000
0001
0010
0100
,
1000
0000
0010
0000
0100
0000
0001
0000
0M10
0000
M001
0M10
M001
0000
0M10
0000
,
M001
0000
0M10
M001
0M10
0000
M001
0000
0M10
M001
0M10
0000
M001
0000
0M10
0000
,
M001
0M10
M001
0000
0M10
0000
M001
0000
0M10
M001
0M10
0000
M001
0000
0M10
0000
,
M001
0M10
M001
0000
1000
0000
0010
0000
0100
0001
1000
0000
0100
0000
0010
0000
,
0100
1000
0010
0000
0100
0000
0001
0000
0010
0000
0100
0010
0100
0000
0010
0001
,
0010
0000
0001
0100
0001
0000
0100
0010
0100
0000
0001
1000
0100
0010
0001
1000
,
0010
0100
0001
0100
0010
0100
0010
0100
0010
0100
0010
0100
0010
0100
0010
0100
,
0010
0100
0010
0000
1001
0000
1000
0000
0001
0000
1000
0010
1000
0001
1000
0010
,
1000
0001
1000
0010
1000
0001
1000
0010
1000
0001
1000
0010
1000
0001
0010
0100
,
0010
0001
0010
0100
0010
0001
0010
0100
0010
0001
0010
0100
1000
0100
0010
0100
,
1000
0100
0010
0100
1000
0100
0010
0100
1000
0010
1000
0100
1000
0010
1000
0100
,
1000
0010
1000
0010
0100
0010
1000
0010
0100
0010
1000
0010
0100
0010
1000
0010
,
0100
0001
0100
0010
0100
0001
0100
0010
0100
0001
0100
0001
0010
0001
0010
0100
,
0010
0001
0010
0100
0010
0001
0010
0001
1000
0010
0100
0001
1000
0000
0001
0010
,
0001
0000
1000
0010
1000
0000
0001
0010
0001
0000
1000
0100
1000
0000
0001
0100
,
0001
0000
1000
0000
1001
0000
0001
0000
0010
0000
0100
1000
0010
0000
0100
0000
,
1001
0100
0010
0100
0010
2001
0000
0010
,
0001
0010
0000
0001
0000
3002
0010
1000
,
0010
0000
1000
0000
0000
0000
0000
0003
1000
0000
0100
0000
0010
0000
0100
0000
,
0010
0000
1000
0000
0100
0000
0010
0100
0010
0000
0100
0000
1001
0000
0100
0000
,
1100
0001
0110
0011
0000
0011
0000
0011
,
0100
0000
1000
0000
0000
0000
1010
0000
0010
0000
0100
0000
0001
0000
1000
0001
,
0010
0001
1000
0001
0010
0000
0100
0000
1000
0000
0020
0000
0000
0030
0100
0000
,
0020
0000
0000
0030
2020
0000
0000
0000
0000
0000
0000
0000
0000
0000
0000
0000
,
0000
0000
0000
0000
0000
3030
0000
0000
;
