#TITLE:Feel Good;
#SUBTITLE:;
#ARTIST:Modestep;
#TITLETRANSLIT:;
#SUBTITLETRANSLIT:;
#ARTISTTRANSLIT:;
#CREDIT:;
#BANNER:../Wubstream - ban.png;
#BACKGROUND:../Wubstream - bg.png;
#LYRICSPATH:;
#CDTITLE:;
#MUSIC:Modestep - Feel Good.ogg;
#OFFSET:-0.028;
#SAMPLESTART:76.432;
#SAMPLELENGTH:12.000;
#SELECTABLE:YES;
#BPMS:0.000=147.000;
#STOPS:;
#BGCHANGES:;
// cache tags:
#FIRSTBEAT:20.000;
#LASTBEAT:270.000;
#SONGFILENAME:Songs/Wubstream/Feel Good - [Rynker]/feel good.sm;
#HASMUSIC:1;
#HASBANNER:1;
#MUSICLENGTH:119.049;
// end cache tags

//---------------dance-single - Rynker----------------
#NOTES:
     dance-single:
     Rynker:
     Challenge:
     13:
     1.000,1.000,0.000,0.000,1.000,942.000,0.000,0.000,0.000,0.000:





0000
0000
0000
0000
,
0000
0000
0000
0000
,
0000
0000
0000
0000
,
0000
0000
0000
0000
,
0000
0000
0000
0000
,
1000
0000
0000
0000
0000
0000
0100
0010
0001
0000
1000
0000
0000
0000
0000
0000
,
0001
0000
0000
0000
0000
0000
0100
0010
1000
0000
0001
0000
0010
0000
0000
0000
,
0100
0000
0000
0000
0000
0000
1000
0100
0010
0000
0001
0000
0000
0000
0000
0000
,
1000
0000
0000
0000
0001
0001
0100
0000
,
0010
0000
0000
0000
1000
1000
0100
0000
,
0010
0000
0000
0000
0001
0001
1000
0000
,
0100
0000
0000
0000
1000
1000
0001
0000
,
0100
0000
0010
0000
1000
0001
0010
0000
,
0100
1000
0001
0100
0010
1000
0100
0010
,
0001
0100
0010
1000
0010
0100
0001
1000
0100
1000
0001
0010
0100
0010
0001
1000
,
0001
0000
0000
0000
,
1000
0000
0010
0000
0100
0000
0010
0000
1000
0000
0001
0000
1000
0000
0010
0000
0100
0000
0001
0000
1000
0000
0001
0000
0100
0000
0000
0001
0000
0000
1000
0000
0000
0100
0000
0000
1000
0000
0000
0000
0000
0000
0001
0000
0000
0010
0000
0000
,
0100
0000
1000
0001
0100
0010
0100
0001
1000
0100
0010
0001
0010
0100
1000
0001
,
0100
0000
0010
0000
0100
0000
0001
0000
1000
0000
0100
0000
1000
0000
0001
0000
0010
0000
0100
0000
1000
0000
0001
0000
0010
0000
0000
0001
0000
0000
1000
0000
0000
0100
0000
0000
0010
0000
0000
0000
0000
0000
0001
0000
0000
1000
0000
0000
,
0100
0000
1000
0010
0100
0010
1000
0001
0100
0001
1000
0100
0010
0001
0100
0010
,
1000
0000
0001
0000
0100
0000
0001
0000
1000
0000
0010
0000
0100
0000
0001
0000
1000
0000
0100
0000
1000
0000
0001
0000
0010
0000
0000
0100
0000
0000
1000
0000
0000
0001
0000
0000
0100
0000
0000
0000
0000
0000
0010
0000
0000
1000
0000
0000
,
0001
0000
1000
0010
0100
0010
1000
0001
0010
0100
0010
0001
1000
0001
0100
0010
,
1000
0000
0001
0000
0100
0000
0001
0000
1000
0000
0100
0000
1000
0000
0001
0000
0010
0000
0100
0000
1000
0000
0100
0000
0010
0000
0000
0001
0000
0000
1000
0000
0000
0001
0000
0000
0100
0000
0000
0000
0000
0000
0001
0000
0000
1000
0000
0000
,
0010
1000
0010
0100
0001
0100
0001
1000
0100
1000
0100
0010
0001
0010
0100
1000
0100
1000
0001
0100
0001
0100
0010
1000
,
0001
0000
0010
0000
0100
0000
1000
0000
0001
0000
0100
0000
0010
0000
0100
0000
0001
0000
1000
0000
0100
0000
1000
0000
0001
0000
0000
1000
0000
0000
0100
0000
0000
0010
0000
0000
0001
0000
0000
0000
0000
0000
1000
0000
0000
0100
0000
0000
,
0010
0000
0001
1000
0010
0100
0010
1000
0001
0010
0100
1000
0100
0010
0001
1000
,
0010
0000
0100
0000
0010
0000
1000
0000
0001
0000
0010
0000
0001
0000
1000
0000
0100
0000
0010
0000
0001
0000
1000
0000
0100
0000
0000
1000
0000
0000
0001
0000
0000
0010
0000
0000
0100
0000
0000
0000
0000
0000
1000
0000
0000
0001
0000
0000
,
0010
0000
0001
0100
0010
0100
0001
1000
0010
1000
0001
0010
0100
1000
0010
0100
,
0001
0000
1000
0000
0010
0000
1000
0000
0001
0000
0100
0000
0010
0000
1000
0000
0001
0000
0010
0000
0001
0000
1000
0000
0100
0000
0000
0010
0000
0000
0001
0000
0000
1000
0000
0000
0010
0000
0000
0000
0000
0000
0100
0000
0000
0001
0000
0000
,
1000
0000
0001
0100
0010
0100
0001
1000
0100
0010
0100
1000
0001
1000
0010
0100
,
0001
0000
1000
0000
0010
0000
1000
0000
0001
0000
0010
0000
0001
0000
1000
0000
0100
0000
0010
0000
0001
0000
0010
0000
0100
0000
0000
1000
0000
0000
0001
0000
0000
1000
0000
0000
0010
0000
0000
0000
0000
0000
1000
0000
0000
0001
0000
0000
,
0100
0000
0010
1000
0100
1000
0001
1000
0001
0000
0010
0001
0010
0100
1000
0000
,
0001
0000
0100
0000
0010
0000
0100
0000
0001
0000
1000
0000
0100
0000
1000
0000
0001
0000
0010
0000
0100
0000
1000
0000
0100
0000
0000
1000
0000
0000
0001
0000
0000
0010
0000
0000
0001
0000
0000
0000
0000
0000
1000
0000
0000
0100
0000
0000
,
0010
0000
0001
1000
0010
0100
0010
1000
0001
0010
0100
1000
0100
0010
0001
1000
,
0010
0000
0100
0000
0010
0000
1000
0000
0001
0000
0010
0000
0001
0000
1000
0000
0100
0000
0010
0000
0001
0000
1000
0000
0100
0000
0000
1000
0000
0000
0001
0000
0000
0010
0000
0000
0100
0000
0000
0000
0000
0000
1000
0000
0000
0001
0000
0000
,
0010
0000
0001
0100
0010
0100
0001
1000
0010
1000
0001
0010
0100
1000
0010
0100
,
0001
0000
1000
0000
0010
0000
1000
0000
0001
0000
0100
0000
0010
0000
1000
0000
0001
0000
0010
0000
0001
0000
1000
0000
0100
0000
0000
0010
0000
0000
0001
0000
0000
1000
0000
0000
0010
0000
0000
0000
0000
0000
0100
0000
0000
0001
0000
0000
,
1000
0000
0001
0100
0010
0100
0001
1000
0100
0010
0100
1000
0001
1000
0010
0100
,
0001
0000
1000
0000
0010
0000
1000
0000
0001
0000
0010
0000
0001
0000
1000
0000
0100
0000
0010
0000
0001
0000
0010
0000
0100
0000
0000
1000
0000
0000
0001
0000
0000
1000
0000
0000
0010
0000
0000
0000
0000
0000
1000
0000
0000
0001
0000
0000
,
0100
0000
0010
1000
0010
0100
0001
1000
0100
1000
0001
0010
0001
1000
0010
0100
,
0001
0000
0100
0000
0010
0000
1000
0000
0001
0000
1000
0000
0001
0000
0100
0000
0010
0000
1000
0000
0001
0000
1000
0000
0001
0000
0000
1000
0000
0000
0100
0000
0000
0010
0000
0000
0001
0000
0000
0000
0000
0000
1000
0000
0000
0100
0000
0000
,
0010
0000
0001
1000
0010
0100
0010
1000
0001
0010
0100
1000
0100
0010
0001
1000
,
0001
0000
0010
0000
0100
0000
1000
0000
0001
0000
0010
0000
0001
0000
1000
0000
0100
0000
0010
0000
0001
0000
1000
0000
0100
0000
0000
1000
0000
0000
0001
0000
0000
0010
0000
0000
0100
0000
0000
0000
0000
0000
1000
0000
0000
0001
0000
0000
,
0010
0000
0001
0100
0010
0100
0001
1000
0010
1000
0001
0010
0100
1000
0010
0100
,
0001
0000
1000
0000
0010
0000
1000
0000
0001
0000
0100
0000
0010
0000
1000
0000
0001
0000
0010
0000
0001
0000
1000
0000
0100
0000
0000
0010
0000
0000
0001
0000
0000
1000
0000
0000
0010
0000
0000
0000
0000
0000
0100
0000
0000
0001
0000
0000
,
1000
0000
0001
0100
0010
0100
0001
1000
0100
0010
0100
1000
0001
1000
0010
0100
,
0001
0000
1000
0000
0010
0000
1000
0000
0001
0000
0010
0000
0001
0000
1000
0000
0100
0000
0010
0000
0001
0000
0010
0000
0100
0000
0000
1000
0000
0000
0001
0000
0000
1000
0000
0000
0010
0000
0000
0000
0000
0000
1000
0000
0000
0001
0000
0000
,
0100
0000
0010
1000
0100
1000
0001
1000
0001
0100
0010
1000
0100
0010
0001
1000
,
0001
0000
0100
0000
0010
0000
0100
0000
0001
0000
1000
0000
0100
0000
1000
0000
0001
0000
1000
0000
0100
0000
0010
0000
0100
0000
0000
1000
0000
0000
0001
0000
0000
0100
0000
0000
0001
0000
0000
0000
0000
0000
1000
0000
0000
0100
0000
0000
,
0010
0000
0001
1000
0010
0100
0010
1000
0001
0010
0100
1000
0100
0010
0001
1000
,
0010
0000
0100
0000
0010
0000
1000
0000
0001
0000
0010
0000
0001
0000
1000
0000
0100
0000
0010
0000
0001
0000
1000
0000
0100
0000
0000
1000
0000
0000
0001
0000
0000
0010
0000
0000
0100
0000
0000
0000
0000
0000
1000
0000
0000
0001
0000
0000
,
0010
0000
0001
0100
0010
0100
0001
1000
0010
1000
0001
0010
0100
1000
0010
0100
,
0001
0000
1000
0000
0010
0000
1000
0000
0001
0000
0100
0000
0010
0000
1000
0000
0001
0000
0010
0000
0001
0000
1000
0000
0100
0000
0000
0010
0000
0000
0001
0000
0000
1000
0000
0000
0010
0000
0000
0000
0000
0000
0100
0000
0000
0001
0000
0000
,
1000
0000
0001
0100
0010
0100
0001
1000
0100
0010
0100
1000
0001
1000
0010
0100
,
0001
0000
1000
0000
0010
0000
1000
0000
0001
0000
0010
0000
0001
0000
1000
0000
0100
0000
0010
0000
0001
0000
0010
0000
0100
0000
0000
1000
0000
0000
0001
0000
0000
1000
0000
0000
0010
0000
0000
0000
0000
0000
1000
0000
0000
0001
0000
0000
,
0100
0000
0010
1000
0010
0100
0001
1000
0100
1000
0001
0010
0001
1000
0010
0100
,
0001
0000
0100
0000
0010
0000
1000
0000
0001
0000
1000
0000
0001
0000
0100
0000
0010
0000
1000
0000
0001
0000
1000
0000
0001
0000
0000
1000
0000
0000
0100
0000
0000
0010
0000
0000
0001
0000
0000
0000
0000
0000
1000
0000
0000
0100
0000
0000
,
0010
0000
0001
1000
0010
0100
0010
1000
0001
0010
0100
1000
0100
0010
0001
1000
,
0001
0000
0010
0000
0100
0000
1000
0000
0001
0000
0010
0000
0001
0000
1000
0000
0100
0000
0010
0000
0001
0000
1000
0000
0100
0000
0000
1000
0000
0000
0001
0000
0000
0010
0000
0000
0100
0000
0000
0000
0000
0000
1000
0000
0000
0001
0000
0000
,
0010
0000
0001
0100
0010
0100
0001
1000
0010
1000
0001
0010
0100
1000
0010
0100
,
0001
0000
1000
0000
0010
0000
1000
0000
0001
0000
0100
0000
0010
0000
1000
0000
0001
0000
0010
0000
0001
0000
1000
0000
0100
0000
0000
0010
0000
0000
0001
0000
0000
1000
0000
0000
0010
0000
0000
0000
0000
0000
0100
0000
0000
0001
0000
0000
,
1000
0000
0001
0100
0010
0100
0001
1000
0100
0010
0100
1000
0001
1000
0010
0100
,
0001
0000
1000
0000
0010
0000
1000
0000
0001
0000
0010
0000
0001
0000
1000
0000
0100
0000
0010
0000
0001
0000
0010
0000
0100
0000
0000
1000
0000
0000
0001
0000
0000
1000
0000
0000
0010
0000
0000
0000
0000
0000
1000
0000
0000
0001
0000
0000
,
0100
0000
0010
1000
0100
1000
0001
1000
0001
0100
0010
1000
0100
0010
0001
1000
,
0001
0000
0100
0000
0010
0000
0100
0000
0001
0000
1000
0000
0100
0000
1000
0000
0001
0000
0010
0000
0100
0000
1000
0000
0100
0000
0000
1000
0000
0000
0001
0000
0000
0010
0000
0000
0001
0000
0000
0000
0000
0000
1000
0000
0000
0100
0000
0000
,
0010
0000
0001
1000
0010
0100
0010
1000
0001
0010
0100
1000
0100
0010
0001
1000
,
0010
0000
0100
0000
0010
0000
1000
0000
0001
0000
0010
0000
0001
0000
1000
0000
0100
0000
0010
0000
0001
0000
1000
0000
0100
0000
0000
1000
0000
0000
0001
0000
0000
0010
0000
0000
0100
0000
0000
0000
0000
0000
1000
0000
0000
0001
0000
0000
,
0010
0000
0000
0001
0000
0000
0100
0000
0010
0000
0000
0000
0000
0000
0000
0000
;

//---------------dance-single - Rynker----------------
#NOTES:
     dance-single:
     Rynker:
     Hard:
     11:
     0.778,0.680,0.000,0.000,1.000,622.000,0.000,0.000,0.000,0.000:

0000
0000
0000
0000
,
0000
0000
0000
0000
,
0000
0000
0000
0000
,
0000
0000
0000
0000
,
0000
0000
0000
0000
,
1000
0000
0000
0000
0000
0000
0100
0010
0001
0000
1000
0000
0000
0000
0000
0000
,
0001
0000
0000
0000
0000
0000
0100
0010
1000
0000
0001
0000
0010
0000
0000
0000
,
0100
0000
0000
0000
0000
0000
1000
0100
0010
0000
0001
0000
0000
0000
0000
0000
,
1000
0000
0000
0000
0001
0001
0100
0000
,
0010
0000
0000
0000
1000
1000
0100
0000
,
0010
0000
0000
0000
0001
0001
1000
0000
,
0100
0000
0000
0000
1000
1000
0001
0000
,
0100
0000
0010
0000
1000
0001
0010
0000
,
0100
1000
0001
0100
0010
1000
0100
0010
,
0001
0100
0010
1000
0010
0100
0001
1000
0100
1000
0001
0010
0100
0010
0001
1000
,
0001
0000
0000
0000
,
0004
0000
0000
0000
0000
0000
0000
0000
0000
0000
0000
0000
0000
0000
0000
0000
0000
0000
0000
0000
0003
0000
0000
0000
1000
0000
0000
0001
0000
0000
1000
0000
0000
0100
0000
0000
1000
0000
0000
0000
0000
0000
0001
0000
0000
0010
0000
0000
,
0100
0000
1000
0001
0100
0010
0100
0001
1000
0100
0010
0001
0010
0100
1000
0001
,
0400
0000
0000
0000
0000
0000
0000
0000
0000
0000
0000
0000
0000
0000
0000
0000
0000
0000
0000
0000
0000
0000
0300
0000
0001
0000
0000
1000
0000
0000
0001
0000
0000
0010
0000
0000
0100
0000
0000
0000
0000
0000
1000
0000
0000
0001
0000
0000
,
0010
0000
0001
0100
0010
0100
0001
1000
0010
1000
0001
0010
0100
1000
0010
0100
,
0004
0000
0000
0000
0000
0000
0000
0003
0100
0010
1000
0001
0100
0000
0010
1000
,
0001
0000
1000
0010
0100
0010
1000
0001
0010
0100
0010
0001
1000
0001
0100
0010
,
4000
0000
0000
0000
0000
0000
0000
3000
0100
1000
0001
1000
0010
0000
1000
0001
,
0100
0010
1000
0100
0010
0001
0100
0010
1000
0100
0010
0001
0100
0010
1000
0001
,
4000
0000
0000
0000
0000
0000
0000
3000
0001
1000
0100
0010
0001
0000
1000
0100
,
0010
0000
0001
1000
0010
0100
0010
1000
0001
0010
0100
1000
0100
0010
0001
1000
,
0004
0000
0000
0000
0000
0000
0000
0000
0000
0000
0000
0000
0000
0000
0000
0000
0000
0000
0000
0000
0000
0000
0003
0000
0100
0000
0000
0010
0000
0000
1000
0000
0000
0001
0000
0000
0100
0000
0000
0000
0000
0000
0001
0000
0000
1000
0000
0000
,
0100
0000
1000
0001
0010
0100
1000
0001
0100
0010
1000
0001
0100
0010
1000
0001
,
0400
0000
0000
0000
0000
0000
0000
0300
0001
0010
0001
1000
0010
0000
0100
0001
,
1000
0000
0001
0100
0010
0100
0001
1000
0100
0010
0100
1000
0001
1000
0100
0010
,
0004
0000
0000
0000
0000
0000
0000
0003
1000
0001
1000
0001
0100
0000
0001
1000
,
0010
0000
0100
0001
0010
0001
1000
0001
1000
0000
0100
1000
0100
0010
0001
0000
,
4000
0000
0000
0000
0000
0000
0000
0000
0000
0000
0000
0000
0000
0000
0000
0000
0000
0000
0000
0000
0000
0000
3000
0000
0001
0000
0000
1000
0000
0000
0001
0000
0000
0010
0000
0000
0001
0000
0000
0000
0000
0000
1000
0000
0000
0100
0000
0000
,
0010
0000
0001
1000
0010
0100
0010
1000
0001
0010
0100
1000
0100
0010
0001
1000
,
0004
0000
0000
0000
0000
0000
0000
0000
0000
0000
0000
0000
0000
0000
0000
0000
0000
0000
0000
0000
0003
0000
0000
0000
1000
0000
0000
0001
0000
0000
1000
0000
0000
0100
0000
0000
0010
0000
0000
0000
0000
0000
0001
0000
0000
1000
0000
0000
,
0100
0000
1000
0010
0100
0010
1000
0001
0100
0001
1000
0100
0010
0001
0100
0010
,
4000
0000
0000
0000
0000
0000
0000
3000
0001
0010
0001
1000
0010
0000
0100
0001
,
1000
0000
0001
0100
0010
0100
0001
1000
0100
0010
0100
1000
0001
1000
0010
0100
,
0004
0000
0000
0000
0000
0000
0000
0003
0010
0001
1000
0001
0100
0000
0001
1000
,
0010
0000
0100
0001
0100
0010
1000
0001
0010
0001
1000
0100
1000
0001
0100
0010
,
4000
0000
0000
0000
0000
0000
0000
3000
0001
1000
0100
0010
0001
0000
1000
0100
,
0010
0000
0001
1000
0010
0100
0010
1000
0001
0010
0100
1000
0100
0010
0001
1000
,
0400
0000
0000
0000
0000
0000
0000
0300
0010
0001
1000
0100
0010
0000
0001
1000
,
0100
0000
1000
0010
0100
0010
1000
0001
0100
0001
1000
0100
0010
0001
0100
0010
,
4000
0000
0000
0000
0000
0000
0000
3000
0100
0010
0001
1000
0010
0000
0100
0001
,
1000
0000
0001
0100
0010
0100
0001
1000
0100
0010
0100
1000
0001
1000
0010
0100
,
0004
0000
0000
0000
0000
0000
0000
0003
0010
0001
1000
0001
0100
0000
0001
1000
,
0010
0000
0100
0001
0010
0001
1000
0001
1000
0010
0100
0001
0010
0100
1000
0001
,
0040
0000
0000
0000
0000
0000
0000
0030
0100
1000
0001
0100
0001
0000
1000
0100
,
0010
0000
0001
1000
0010
0100
0010
1000
0001
0010
0100
1000
0100
0010
0001
1000
,
0004
0000
0000
0000
0000
0000
0000
0003
0010
0001
1000
0100
0010
0000
0001
1000
,
0100
0000
1000
0010
0100
0010
1000
0001
0100
0001
1000
0100
0010
0001
0100
0010
,
4000
0000
0000
0000
0000
0000
0000
3000
0100
0010
0001
1000
0010
0000
0100
0001
,
1000
0000
0001
0100
0010
0100
0001
1000
0100
0010
0100
1000
0001
1000
0010
0100
,
0004
0000
0000
0000
0000
0000
0000
0003
0010
0001
1000
0001
0100
0000
0001
1000
,
0010
0000
0100
0001
0100
0010
1000
0001
0010
0001
1000
0100
1000
0001
0100
0010
,
0400
0000
0000
0000
0000
0000
0000
0300
0001
1000
0100
0010
0001
0000
1000
0100
,
0010
0000
0001
1000
0010
0100
0010
1000
0001
0010
0100
1000
0100
0010
0001
1000
,
0004
0000
0000
0000
0000
0000
0000
0003
0010
0001
1000
0100
0010
0000
0001
1000
,
0100
0000
1000
0010
0100
0010
1000
0001
0100
0001
1000
0100
0010
0001
0100
0010
,
4000
0000
0000
0000
0000
0000
0000
3000
0100
0010
0001
1000
0010
0000
0100
0001
,
1000
0000
0001
0100
0010
0100
0001
1000
0100
0010
0100
1000
0001
1000
0010
0100
,
0004
0000
0000
0000
0000
0000
0000
0003
0010
0001
1000
0001
0100
0000
0001
1000
,
0010
0000
0100
0001
0010
0001
1000
0001
1000
0010
0100
0001
0010
0100
1000
0001
,
4000
0000
0000
0000
0000
0000
0000
3000
0100
1000
0001
0010
0001
0000
1000
0100
,
0010
0000
0001
1000
0010
0100
0010
1000
0001
0010
0100
1000
0100
0010
0001
1000
,
0004
0000
0000
0000
0000
0000
0000
0003
0010
0001
1000
0100
0010
0000
0001
1000
,
0100
0000
0000
1000
0000
0000
0010
0000
0010
0000
0000
0000
0000
0000
0000
0000
;
