#TITLE:We Are Alive;
#SUBTITLE:;
#ARTIST:DJ Novus feat. Nightcore;
#TITLETRANSLIT:;
#SUBTITLETRANSLIT:;
#ARTISTTRANSLIT:;
#CREDIT:owenviau1;
#BANNER:BN.PNG;
#BACKGROUND:BG.PNG;
#LYRICSPATH:;
#CDTITLE:ov1_title.png;
#MUSIC:Nightcore - We Are Alive.mp3;
#OFFSET:-12.560;
#SAMPLESTART:79.000;
#SAMPLELENGTH:29.999;
#SELECTABLE:YES;
#BPMS:0.000=176.100;
#STOPS:;
#BGCHANGES:;
// cache tags:
#FIRSTBEAT:0.000;
#LASTBEAT:460.000;
#SONGFILENAME:Songs/Owenviau1 Simfiles 4/Nightcore - We Are Alive [owenviau1]/Nightcore - We Are Alive.sm;
#HASMUSIC:1;
#HASBANNER:1;
#MUSICLENGTH:171.337;
// end cache tags

//---------------dance-single - ----------------
#NOTES:
     dance-single:
     :
     Challenge:
     12:
     1.000,1.000,1.000,0.321,0.560,1041.000,413.000,55.000,0.000,0.000:
1001
0010
1100
0001
0110
1000
1001
0010
,
0101
1000
0110
0001
1010
0100
1100
0010
,
0101
1000
0011
0001
1100
0010
1001
0001
,
0110
1000
0101
0001
1010
1000
0110
0001
,
0011
1000
1001
0010
1100
0001
1001
0100
,
0011
1001
0101
0110
1100
0011
0110
1100
,
1000
0100
0010
0001
1000
0010
1000
0100
0010
0001
0100
0010
1000
0100
0010
0001
,
1000
0010
0100
0001
0010
0001
0100
0010
1000
0100
1000
0010
0100
0001
0010
0100
,
1001
0001
0110
0100
1010
0010
1001
1000
,
0110
0001
0011
1000
0101
0010
1001
1000
,
0110
0001
1010
1000
0110
0010
0101
0100
,
1010
1000
0011
0001
1100
0010
1001
1000
,
0110
0010
1001
1000
0101
0010
1001
0100
,
1100
0001
0110
1000
0011
0010
1100
0001
,
0110
1000
0011
1000
0101
0010
1001
0010
,
1100
0000
0000
0001
0000
0000
0110
0000
0000
1000
0000
0000
0101
0000
0000
0010
0000
0000
1000
0001
0100
0000
0010
1000
,
0101
0010
1001
0100
0011
1000
0101
0010
,
1001
0001
0110
1000
1001
0100
0011
0001
,
1100
1000
0110
0001
0011
1000
0101
0010
,
1001
1000
0110
0010
1001
0001
0110
1000
,
0101
0010
1100
0001
1010
0001
0110
1000
,
0101
1000
0011
0001
1100
0001
0110
0100
,
1001
0000
0000
0010
0000
0000
1100
0000
0000
0001
0000
0000
0110
0000
0000
1000
0000
0000
0011
0000
0000
1000
0100
0010
,
0001
0000
0000
0001
0010
0100
1000
0000
0000
1000
0001
0100
0010
0000
0000
0100
0010
1000
0001
0000
0000
1000
0100
0010
,
0001
0100
0001
0100
0010
0100
0010
0100
0010
1000
0010
1000
0001
1000
0001
1000
,
0101
0000
0000
0000
0000
0000
0000
0000
0000
0000
0000
0000
0000
0000
0000
0000
0000
0000
0000
0000
0000
0000
0000
0000
0010
0000
0000
0000
0000
0000
0000
0000
0000
0000
0000
0000
0000
0000
0000
0000
0000
0000
0000
0000
0000
0000
0000
0000
1010
0000
0000
0000
0000
0000
0000
0000
0000
0000
0000
0000
0000
0000
0000
0000
0000
0000
0000
0000
0000
0000
0000
0000
0001
0000
0000
0000
0000
0000
0000
0000
2020
0000
0000
0000
0000
0000
0000
0000
3030
0000
0000
0000
0000
0000
0000
0000
2020
0000
0000
0000
0000
0000
3030
0000
0000
0000
0000
0000
0000
0000
0000
0000
0000
0000
0000
0000
0000
0000
0000
0000
0022
0000
0000
0000
0000
0000
0033
0000
0000
0000
0000
0000
0000
0000
0000
0000
0000
0000
0000
0000
0000
0000
0000
0000
0220
0000
0000
0000
0000
0000
0330
0000
0000
0000
0000
0000
0000
0000
0000
0000
0000
0000
0000
0000
0000
0000
0000
0000
1000
0000
0000
0000
0000
0000
0000
0000
0000
0000
0000
0000
0000
0000
0000
0000
0000
0000
0000
0000
0000
0000
0000
0000
,
0202
0303
0000
0000
1000
0000
0000
0000
0022
0033
0000
0000
0100
0000
0000
0000
0110
0000
0000
0000
2002
3003
0000
0000
0202
0303
0000
0000
2020
3030
0000
0000
,
2200
0000
0000
0000
0000
0000
3300
0000
0000
0000
0000
0000
0000
0000
0000
0000
0000
0000
0000
0000
0000
0000
0000
0000
0010
0000
0000
0000
0000
0000
0000
0000
0000
0000
0000
0000
0000
0000
0000
0000
0000
0000
0000
0000
0000
0000
0000
0000
2002
0000
0000
0000
0000
0000
3003
0000
0000
0000
0000
0000
0000
0000
0000
0000
0000
0000
0000
0000
0000
0000
0000
0000
0100
0000
0000
0000
0000
0000
0000
0000
2002
0000
0000
0000
0000
0000
0000
0000
3003
0000
0000
0000
0000
0000
0000
0000
2002
0000
0000
0000
0000
0000
3003
0000
0000
0000
0000
0000
0000
0000
0000
0000
0000
0000
0000
0000
0000
0000
0000
0000
2020
0000
0000
0000
0000
0000
3030
0000
0000
0000
0000
0000
0000
0000
0000
0000
0000
0000
0000
0000
0000
0000
0000
0000
0220
0000
0000
0000
0000
0000
0330
0000
0000
0000
0000
0000
0000
0000
0000
0000
0000
0000
0000
0000
0000
0000
0000
0000
0202
0000
0000
0000
0000
0000
0303
0000
0000
0000
0000
0000
0000
0000
0000
0000
0000
0000
0000
0000
0000
0000
0000
0000
,
2020
3030
0000
0000
0100
0000
0000
0000
1100
0000
0000
0000
0001
0000
0000
0000
0101
0000
0000
0000
0022
0033
0000
0000
2002
3003
0000
0000
0220
0330
0000
0000
,
2020
0000
0000
0000
0000
0000
3030
0000
0000
0000
0000
0000
0000
0000
0000
0000
0000
0000
0000
0000
0000
0000
0000
0000
0100
0000
0000
0000
0000
0000
0000
0000
0000
0000
0000
0000
0000
0000
0000
0000
0000
0000
0000
0000
0000
0000
0000
0000
2002
0000
0000
0000
0000
0000
3003
0000
0000
0000
0000
0000
0000
0000
0000
0000
0000
0000
0000
0000
0000
0000
0000
0000
1000
0000
0000
0000
0000
0000
0000
0000
0022
0000
0000
0000
0000
0000
0000
0000
0033
0000
0000
0000
0000
0000
0000
0000
0220
0000
0000
0000
0000
0000
0330
0000
0000
0000
0000
0000
0000
0000
0000
0000
0000
0000
0000
0000
0000
0000
0000
0000
2200
0000
0000
0000
0000
0000
3300
0000
0000
0000
0000
0000
0000
0000
0000
0000
0000
0000
0000
0000
0000
0000
0000
0000
2002
0000
0000
0000
0000
0000
3003
0000
0000
0000
0000
0000
0000
0000
0000
0000
0000
0000
0000
0000
0000
0000
0000
0000
0010
0000
0000
0000
0000
0000
0000
0000
0000
0000
0000
0000
0000
0000
0000
0000
0000
0000
0000
0000
0000
0000
0000
0000
,
1100
0000
0001
1000
0001
0000
0100
0001
0100
0000
1000
0100
0010
0001
1000
0100
,
0010
0000
0001
0100
0010
0000
1000
0100
0020
0000
0000
0000
0230
0000
0302
0000
,
0000
0000
0013
0000
0000
0000
0001
1000
0110
0000
0001
0000
1001
0000
0100
0000
,
1010
0000
0100
0000
0001
0010
0100
1000
0001
0000
0100
0000
1000
0100
0010
0001
,
1010
0000
0100
0000
0101
0000
0010
0000
1001
0000
0100
0000
1100
0000
0001
1000
,
0010
0100
1001
0100
0011
0100
1100
0010
,
1001
0000
0100
0000
0110
0000
1000
0001
0100
0000
0010
0000
1001
0000
0100
0000
,
1100
0000
0010
0000
0001
0010
0100
1000
0001
0000
0100
0000
1000
0100
0010
0001
,
1010
0000
0100
0000
0101
0000
0010
0000
1001
0000
0100
0000
1100
0000
0001
1000
,
0010
0100
1001
0100
0011
0100
1100
0010
,
1001
0000
0100
0000
0110
0000
1000
0001
0010
0000
1000
0000
0101
0000
0010
0000
,
1100
0000
0010
0000
0001
0010
0100
1000
0100
0000
0010
0000
0001
0100
0010
1000
,
0100
0000
0001
0000
0100
0010
1000
0001
0100
0000
0010
0000
1000
0001
0100
0010
,
1001
0000
0110
0000
1100
0000
0101
0000
1000
0100
0010
0001
0100
0010
1000
0001
,
1000
0010
0100
0001
0010
0001
0100
0010
1000
0100
0010
0001
0010
0100
1000
0010
,
1000
0001
0100
0001
0010
1000
0010
0100
0001
0100
0010
1000
0001
0100
0010
1000
,
0100
0010
0001
1000
0010
0100
1000
0010
0100
0001
0010
0100
1000
0001
0100
0001
,
1000
0010
1000
0010
1000
0010
1000
0001
1000
0001
1000
0001
0100
0001
0100
0001
0100
0001
1000
0010
1000
0010
1000
0010
,
1001
0100
1001
0010
1100
0001
0110
0001
,
1001
0010
0110
0001
1010
0010
1001
1000
,
0110
0001
0011
1000
0101
0010
1001
1000
,
0110
0001
1010
1000
0110
0010
0101
0100
,
1010
1000
0011
0001
1100
0010
1001
1000
,
0110
0010
1001
1000
0101
0010
1001
0100
,
1100
0001
0110
1000
0011
0010
1100
0001
,
0110
1000
0011
1000
0101
0010
1001
0010
,
1100
0000
0001
0000
0100
0000
1000
0010
1001
0000
0100
0000
0011
0000
1000
0000
,
0101
1000
0101
0100
1010
0010
1001
1000
,
0110
0001
0011
1000
0101
0010
1001
1000
,
0110
0001
1010
1000
0110
0010
0101
0100
,
1010
1000
0011
0001
1100
0010
1001
1000
,
0110
0010
1001
1000
0101
0010
1001
0100
,
1100
0001
0110
1000
0011
0010
1100
0001
,
0110
1000
0011
1000
0101
0010
1001
0010
,
1100
0000
0000
0000
0000
0000
0001
0000
0000
0000
0000
0000
1000
0000
0000
0000
0000
0000
0010
0000
0000
0100
0000
0000
1001
0000
0000
0000
0000
0000
1000
0000
0100
0000
0010
0000
0001
0000
0000
0000
0000
0000
0001
0000
0010
0000
0100
0000
,
1001
0010
1100
0001
0110
1000
0011
0100
,
1001
1000
0011
0100
1010
0010
1001
1000
,
0110
0001
0011
1000
0101
0010
1001
1000
,
0110
0001
1010
1000
0110
0010
0101
0100
,
1010
1000
0011
0001
1100
0010
1001
1000
,
0110
0010
1001
1000
0101
0010
1001
0100
,
1100
0001
0110
1000
0011
0010
1100
0001
,
0110
1000
0011
1000
0101
0010
1001
0100
,
0110
0001
1010
0010
0101
0001
1100
0100
,
1001
0001
0110
0100
1010
0010
1001
1000
,
0110
0001
0011
1000
0101
0010
1001
1000
,
0110
0001
1010
1000
0110
0010
0101
0100
,
1010
1000
0011
0001
1100
0010
1001
1000
,
0110
0010
1001
1000
0101
0010
1001
0100
,
1100
0001
0110
1000
0011
0010
1100
0001
,
0110
1000
0011
1000
0101
0010
1001
0010
,
1100
0010
0001
0110
1000
0001
0110
1000
0010
0101
0010
1000
,
1010
0000
0100
0110
0000
0001
0101
0000
1000
1010
0000
1000
,
1001
0000
0001
0101
0000
0001
0011
0000
0010
0110
0000
0100
,
1100
0000
1000
1001
0000
0001
0101
0000
0100
0110
0000
0010
,
1010
0000
0001
1001
0000
1000
1100
0000
0010
0110
0000
0001
,
0101
0000
0100
0110
0000
1000
1100
0000
1000
1001
0000
1000
,
1010
0000
0100
0110
0000
0100
0101
0000
0001
0011
0000
0010
,
0110
0000
0100
0101
0000
0001
1001
0000
0100
0110
0000
1000
,
1100
0000
0001
0101
0000
0010
0110
0000
1000
1010
0000
0001
,
1001
0000
0100
0110
0000
0001
0101
0000
1000
1010
0000
1000
,
1001
0000
0001
0101
0000
0001
0011
0000
0010
0110
0000
0100
,
1100
0000
1000
1001
0000
0001
0101
0000
0100
0110
0000
0010
,
1010
0000
0001
1001
0000
1000
1100
0000
0010
0110
0000
0001
,
0101
0000
0100
0110
0000
1000
1100
0000
1000
1001
0000
1000
,
1010
0000
0100
0110
0000
0100
0101
0000
0001
0011
0000
0010
,
0110
0000
0100
0101
0000
0001
1001
0000
0100
0110
0000
1000
,
1100
0000
0001
0101
0000
0010
0110
0000
1000
1010
0000
0001
,
1001
0100
1010
0001
0101
0010
1100
0010
,
1001
0001
0110
0100
1010
0010
1001
1000
,
0110
0001
0011
1000
0101
0010
1001
1000
,
0110
0001
1010
1000
0110
0010
0101
0100
,
1010
1000
0011
0001
1100
0010
1001
1000
,
0110
0010
1001
1000
0101
0010
1001
0100
,
1100
0001
0110
1000
0011
0010
1100
0001
,
0110
1000
0011
1000
0101
0010
1001
0010
,
1100
0000
0001
0000
0100
0000
1000
0010
0101
0000
1000
0000
0110
0000
0010
0000
,
1001
0001
0110
0100
1010
0010
1001
1000
,
0110
0001
0011
1000
0101
0010
1001
1000
,
0110
0001
1010
1000
0110
0010
0101
0100
,
1010
1000
0011
0001
1100
0010
1001
1000
,
0110
0010
1001
1000
0101
0010
1001
0100
,
1100
0001
0110
1000
0011
0010
1100
0001
,
0110
1000
0011
1000
0101
0010
1001
0010
,
1100
0010
0011
0100
1010
1000
0011
0100
,
1001
0000
0000
0000
;

//---------------dance-single - ----------------
#NOTES:
     dance-single:
     :
     Hard:
     9:
     0.587,0.604,0.140,0.029,0.000,675.000,24.000,5.000,0.000,0.000:

1000
0001
1000
0100
0010
0001
1000
0001
,
1000
0000
1000
0010
0100
0001
0010
0000
,
0100
0000
1000
0000
1000
0001
0010
0100
,
0010
0000
0010
0001
1000
0001
0100
0000
,
0010
0000
1000
0001
0100
0000
0100
0000
,
0001
0010
0100
0000
1000
0000
1000
0000
,
0001
0100
0010
1000
0010
0000
0100
0000
,
0001
0010
0100
1000
0100
0010
0001
0000
,
1000
0001
0100
0010
1000
0010
0100
0010
,
1000
0100
0010
0001
0010
0100
0010
0001
,
1000
0001
0100
0001
1000
0010
1000
0010
,
0100
0010
1000
0010
0100
0001
0010
0100
,
0010
0001
1000
0001
0100
0001
0010
0001
,
0010
0100
0010
0001
0010
0100
1000
0100
,
0010
0001
1000
0001
0100
0010
1000
0010
,
0100
0001
0010
0100
0010
0001
1000
0001
,
1000
0000
0010
0100
0001
0000
0010
0000
,
0100
0000
1000
0001
1000
0001
0010
0100
,
1000
0000
1000
0001
0100
0001
0010
0000
,
0100
0000
1000
0001
0100
0001
0010
0100
,
0010
0000
0001
1000
0001
0100
0010
1000
,
0010
0000
1000
0001
1000
0001
0010
0100
,
1000
0000
1000
0001
0010
0000
0010
0001
,
1000
0001
0010
0100
0010
0001
0010
0100
,
1001
0001
0100
0010
,
1000
0000
0001
0000
0010
0100
1000
0000
,
0001
0000
0100
0000
0010
1000
0001
0000
,
0010
0000
0100
0000
1000
0100
0010
0001
,
1000
0001
0100
0010
,
1000
0000
0001
0000
0001
0010
0100
0000
,
0100
1000
1000
0010
,
0010
0000
0100
0000
0001
0010
0100
1000
,
0001
0001
0100
0010
,
1001
0100
0010
0001
,
1000
0100
0010
0001
1000
0000
1000
0000
,
1000
0010
0100
0001
0010
0000
0010
0000
,
0001
1000
0100
0010
,
0001
1000
0001
0000
0001
0100
0001
0000
,
0010
1000
0010
0100
,
1000
0001
0010
0100
0010
0000
0010
0000
,
0001
0000
1000
0000
0100
1000
0001
0000
,
0100
0010
1000
0000
0001
0100
0001
0000
,
0010
0100
0010
0000
0001
1000
0001
0000
,
0100
0001
0100
0000
0010
1000
0010
0000
,
1000
0100
0010
0000
1000
0001
1000
0001
,
0100
0010
1000
0010
0100
0001
0010
0100
,
0010
0001
0010
0100
1000
0100
0010
0001
,
1000
1000
0001
0001
0100
0100
0010
0010
,
1010
0001
0100
0010
,
1001
0000
0010
0000
0100
0001
0010
0000
,
0010
0001
1000
0001
1000
0000
1000
0000
,
0100
0001
0010
0100
1000
0000
1000
0000
,
0001
0000
0010
0000
0100
1000
0100
0000
,
1000
0001
0100
0001
1000
0010
0100
0000
,
0010
1000
0001
0010
0100
0000
1000
0000
,
1000
0000
0001
0000
0100
0000
0100
0010
,
0000
0010
0000
0000
1000
0001
0010
0100
,
1000
0000
0001
0000
0100
0010
1000
0000
,
1001
0000
0001
0000
0010
0100
1000
0100
,
0010
0000
0001
0000
1000
0001
0100
0010
,
1000
0000
1000
0000
1000
0010
0100
0010
,
1000
0001
0010
0000
0010
0001
1000
0000
,
1000
0001
0100
0001
0010
0000
0010
0000
,
0010
0001
1000
0001
0100
0000
0100
0020
,
0000
0130
0000
1000
0001
0010
0001
1000
,
0200
0320
0032
2003
,
3010
0000
0100
0001
0010
0100
1000
0001
,
1000
0001
0100
0010
1000
0010
0100
0000
,
0001
0000
0010
0000
0001
1000
0001
0100
,
0010
1000
0010
0100
0000
0001
0000
0000
,
0010
0000
0100
1000
0100
1000
0000
1000
,
0001
0100
0010
1000
0000
1000
0001
0100
,
0010
0000
0010
0001
1000
0000
0010
0100
,
0001
0000
1000
0001
0100
0000
0100
0001
,
0010
0000
0010
0001
1000
0001
1000
0001
,
0100
0000
0100
0010
1000
0010
0100
0000
,
0001
0000
0010
0000
1000
0100
0001
0000
,
0100
0000
0010
1000
0010
0001
0010
0100
,
1000
0000
0001
0000
1000
0001
0100
0010
,
1000
0000
1000
0001
0010
0100
0010
0001
,
1000
0000
1000
0010
0100
0000
0100
0001
,
0010
0000
1000
0001
0100
0001
0010
0100
,
1000
0001
0100
0010
,
1010
0010
0110
0010
,
1000
0001
0010
0100
,
0101
0001
1001
0001
,
0100
0010
1000
0010
,
0100
1001
0010
1001
,
0001
0011
0010
0110
,
0100
1100
1001
0101
,
1010
0010
0110
0100
,
0101
0001
0011
0001
,
1000
1000
0001
0100
,
0010
0100
0001
0010
,
1000
0010
0001
0100
,
1000
0100
0001
1000
,
0010
1000
0001
0010
,
1001
0001
1001
1000
,
1001
0010
0100
0001
,
0010
0000
0100
0000
1000
0001
1000
0000
,
1000
0010
0100
0010
1000
0000
1000
0000
,
1000
0001
0010
0100
1000
0000
1000
0001
,
0010
0000
0010
0000
0001
1000
0001
0000
,
0001
0100
0010
1000
0010
0100
0001
0010
,
0100
1000
0001
0100
0001
0000
0001
0000
,
0001
1000
0010
0100
0001
0000
0001
0010
,
0100
0000
0100
0000
0100
1000
0001
0100
,
0001
1000
0010
0000
0010
1000
0001
0000
,
0001
1000
0100
0010
0001
0000
0001
1000
,
0001
0100
0010
1000
0010
0000
0010
1000
,
0010
0100
0001
0000
0001
1000
0100
0000
,
1000
0100
0010
0001
1000
0010
1000
0000
,
1000
0010
0100
0001
0010
0100
0010
0000
,
0010
0001
1000
0001
1000
0000
1000
0010
,
0100
0010
1000
0010
0100
0001
0010
0100
,
1001
0000
0000
0000
;
